<?xml version="1.0" standalone="no"?>
<!DOCTYPE svg PUBLIC "-//W3C//DTD SVG 1.1//EN" "http://www.w3.org/Graphics/SVG/1.1/DTD/svg11.dtd" >
<svg xmlns="http://www.w3.org/2000/svg">
<metadata>Generated by IcoMoon</metadata>
<defs>
<font id="icomoon" horiz-adv-x="1024">
<font-face units-per-em="1024" ascent="960" descent="-64" />
<missing-glyph horiz-adv-x="1024" />
<glyph unicode="&#x20;" horiz-adv-x="512" d="" />
<glyph unicode="&#xe900;" glyph-name="star_empty" d="M279.9 331.1l-47.4-276.9c-1.3-8.1 1.9-16 8.5-20.9 6.6-4.7 15.4-5.3 22.4-1.7l248.5 131 248.5-130.8c3.2-1.7 6.6-2.3 10-2.3 4.5 0 8.7 1.3 12.6 4.1 6.6 4.7 9.8 12.8 8.5 20.9l-47.4 276.9 201.2 196.1c5.8 5.8 7.9 14.1 5.3 22-2.6 7.7-9.2 13.4-17.3 14.5l-278 40.3-124.1 251.4c-7.3 14.5-31.1 14.5-38.2 0l-124.4-251.8-278-40.5c-8.1-1.1-14.7-6.8-17.3-14.5s-0.4-16.2 5.3-22l201.3-195.8zM385.7 563.2c7 1.1 13 5.3 16 11.7l110.3 223.2 110.1-223.1c3.2-6.4 9.2-10.7 16-11.7l246.2-35.8-178.2-173.8c-5.1-4.9-7.3-11.9-6.2-19l42-245.3-220.1 115.8c-3.2 1.7-6.6 2.3-10 2.3s-6.8-0.9-10-2.3l-220-115.6 42 245.3c1.3 6.8-1.1 14.1-6.2 19l-178.1 173.7 246.2 35.6z" />
<glyph unicode="&#xe901;" glyph-name="arrow_down" d="M721.628 134.4l-186.071-188.5c-13.012-13.184-34.089-13.184-47.104 0l-186.068 188.5c-20.992 21.248-6.1 57.6 23.552 57.6h143.404v725.333c0 23.552 19.072 42.667 42.665 42.667 23.596 0 42.668-19.115 42.668-42.667v-725.333h143.404c29.652 0 44.544-36.352 23.552-57.6z" />
<glyph unicode="&#xe902;" glyph-name="arrow_left" d="M981.335 490.668h-725.332v143.401c0 29.655-36.353 44.544-57.601 23.552l-188.501-186.068c-13.184-13.012-13.184-34.092 0-47.104l188.501-186.068c21.248-20.992 57.601-6.103 57.601 23.552v143.401h725.332c23.596 0 42.668 19.116 42.668 42.668s-19.072 42.668-42.668 42.668z" />
<glyph unicode="&#xe903;" glyph-name="arrow_right" d="M1014.1 471.552l-188.5 186.068c-21.248 20.992-57.6 6.103-57.6-23.552v-143.401h-725.333c-23.595 0-42.667-19.116-42.667-42.668s19.072-42.668 42.667-42.668h725.333v-143.401c0-29.655 36.352-44.544 57.6-23.552l188.5 186.068c13.184 13.012 13.184 34.092 0 47.104z" />
<glyph unicode="&#xe904;" glyph-name="arrow_up" d="M698.076 703.997h-143.404v-725.332c0-23.552-19.072-42.668-42.668-42.668-23.593 0-42.665 19.116-42.665 42.668v725.332h-143.404c-29.652 0-44.544 36.353-23.552 57.601l186.068 188.501c13.015 13.184 34.092 13.184 47.104 0l186.071-188.501c20.992-21.248 6.1-57.601-23.552-57.601z" />
<glyph unicode="&#xe905;" glyph-name="badge" d="M512-64c-69.376 0-134.828 30.464-179.54 83.584-65.708-7.552-133.42 17.324-182.486 66.348-49.024 49.065-73.77 116.905-67.84 186.112-51.669 41.129-82.133 106.58-82.133 175.956s30.464 134.828 83.627 179.54c-7.467 65.58 17.28 133.42 66.346 182.486 49.067 49.109 116.779 73.813 186.070 67.84 41.129 51.626 106.58 82.133 175.956 82.133s134.828-30.464 179.54-83.584c65.792 7.509 133.42-17.323 182.487-66.347 49.024-49.066 73.769-116.906 67.84-186.113 51.668-41.129 82.132-106.58 82.132-175.956s-30.464-134.828-83.628-179.54c7.468-65.58-17.28-133.42-66.345-182.487-49.111-49.065-116.951-73.769-186.071-67.84-41.129-51.625-106.58-82.132-175.956-82.132zM335.916 103.424c23.936 0 46.121-10.284 61.78-28.844 28.5-33.833 70.144-53.248 114.304-53.248s85.804 19.415 114.304 53.248c17.196 20.439 42.24 30.764 68.948 28.588 44.119-3.712 87.212 11.948 118.444 43.18 31.188 31.188 46.932 74.368 43.18 118.441-2.304 26.624 8.105 51.756 28.585 68.992 33.792 28.46 53.207 70.144 53.207 114.263 0 44.116-19.415 85.801-53.207 114.26-20.436 17.196-30.889 42.368-28.585 68.992 3.753 44.076-11.948 87.253-43.18 118.443s-74.58 46.762-118.4 43.178c-26.708-2.432-51.796 8.15-68.992 28.544-28.5 33.835-70.144 53.248-114.304 53.248s-85.804-19.413-114.304-53.248c-17.236-20.437-42.368-30.677-68.948-28.586-44.332 3.84-87.212-11.947-118.444-43.179-31.189-31.189-46.933-74.368-43.179-118.444 2.304-26.624-8.106-51.753-28.586-68.992-33.792-28.457-53.206-70.144-53.206-114.26s19.414-85.804 53.206-114.26c20.437-17.196 30.89-42.368 28.586-68.992-3.754-44.076 11.947-87.255 43.179-118.444 31.232-31.232 74.796-46.848 118.4-43.18 2.432 0.215 4.82 0.3 7.212 0.3zM384 618.668c-23.552 0-42.668-19.116-42.668-42.668s19.116-42.668 42.668-42.668c23.552 0 42.668 19.116 42.668 42.668s-19.116 42.668-42.668 42.668zM640 362.668c-23.552 0-42.668-19.116-42.668-42.668s19.116-42.668 42.668-42.668c23.552 0 42.668 19.116 42.668 42.668s-19.116 42.668-42.668 42.668zM462.164 296.32l170.668 256c13.1 19.584 7.808 46.124-11.82 59.18-19.668 13.14-46.121 7.764-59.177-11.82l-170.668-256c-13.1-19.584-7.808-46.124 11.82-59.18 7.296-4.864 15.488-7.168 23.636-7.168 13.78 0 27.348 6.656 35.54 18.988z" />
<glyph unicode="&#xe906;" glyph-name="calendar" d="M810.668 874.667h-42.668v42.666c0 23.552-19.072 42.667-42.668 42.667-23.593 0-42.665-19.115-42.665-42.667v-42.666h-341.335v42.666c0 23.552-19.072 42.667-42.665 42.667-23.596 0-42.668-19.115-42.668-42.667v-42.666h-42.667c-117.632 0-213.333-95.702-213.333-213.334v-512c0-117.632 95.701-213.332 213.333-213.332h597.334c117.632 0 213.332 95.7 213.332 213.332v512c0 117.633-95.7 213.334-213.332 213.334zM213.333 789.333h597.334c70.569 0 128-57.429 128-128.001v-42.665h-853.334v42.665c0 70.572 57.43 128.001 128 128.001zM810.668 21.332h-597.334c-70.57 0-128 57.431-128 128v384h853.334v-384c0-70.569-57.431-128-128-128zM810.668 362.668c0-23.552-19.072-42.668-42.668-42.668h-512c-23.595 0-42.667 19.116-42.667 42.668s19.072 42.665 42.667 42.665h512c23.596 0 42.668-19.113 42.668-42.665zM512 192c0-23.552-19.072-42.668-42.668-42.668h-213.332c-23.595 0-42.667 19.116-42.667 42.668s19.072 42.668 42.667 42.668h213.332c23.596 0 42.668-19.116 42.668-42.668z" />
<glyph unicode="&#xe907;" glyph-name="check_circle" d="M512-64c282.301 0 512 229.678 512 512 0 48.73-6.802 96.75-20.27 142.74-6.636 22.612-30.252 35.604-52.928 28.969-22.636-6.615-35.584-30.313-28.969-52.928 11.156-38.208 16.835-78.188 16.835-118.781 0-235.261-191.406-426.668-426.668-426.668s-426.667 191.406-426.667 426.668c0 235.261 191.405 426.667 426.667 426.667 85.499 0 167.759-25 237.885-72.281 19.52-13.177 46.062-8 59.218 11.521 13.169 19.542 8.033 46.063-11.51 59.229-84.27 56.823-183.020 86.865-285.594 86.865-282.302 0-512-229.677-512-512s229.698-512 512-512zM963.786 847.037l-486.387-495.969c-3.272-3.348-7.158-6.003-11.436-7.818-4.28-1.812-8.868-2.744-13.501-2.744s-9.221 0.932-13.501 2.744c-4.28 1.815-8.166 4.47-11.436 7.818l-188.093 191.992c-3.27 3.348-7.156 6.003-11.436 7.816s-8.868 2.747-13.501 2.747c-4.634 0-9.222-0.934-13.501-2.747s-8.166-4.467-11.436-7.816c-3.283-3.336-5.888-7.299-7.665-11.663-1.778-4.362-2.693-9.042-2.693-13.768s0.915-9.405 2.693-13.768c1.777-4.365 4.382-8.328 7.665-11.663l188.162-191.846c19.85-20.204 46.748-31.552 74.793-31.552 28.047 0 54.945 11.348 74.796 31.552l486.351 495.861c3.277 3.334 5.878 7.295 7.652 11.655s2.688 9.036 2.688 13.757c0 4.721-0.914 9.396-2.688 13.757s-4.375 8.322-7.652 11.656c-3.272 3.348-7.158 6.004-11.436 7.817-4.28 1.813-8.868 2.746-13.501 2.746s-9.224-0.933-13.501-2.746c-4.28-1.812-8.166-4.469-11.436-7.817z" />
<glyph unicode="&#xe908;" glyph-name="check" d="M952.282 770.944l-589.609-589.568c-3.965-3.981-8.676-7.137-13.862-9.293-5.189-2.156-10.749-3.264-16.369-3.264-5.617 0-11.18 1.108-16.366 3.264s-9.897 5.312-13.862 9.293l-228.010 228.224c-3.964 3.978-8.675 7.137-13.863 9.293-5.188 2.153-10.749 3.264-16.367 3.264s-11.179-1.111-16.367-3.264c-5.188-2.156-9.899-5.315-13.863-9.293-3.98-3.965-7.138-8.676-9.292-13.862-2.155-5.189-3.264-10.749-3.264-16.366 0-5.619 1.109-11.18 3.264-16.369 2.155-5.187 5.313-9.897 9.292-13.862l228.096-228.052c24.062-24.018 56.669-37.507 90.666-37.507s66.606 13.489 90.668 37.507l589.568 589.44c3.973 3.963 7.127 8.671 9.277 13.855s3.259 10.74 3.259 16.353c0 5.612-1.108 11.169-3.259 16.353s-5.304 9.892-9.277 13.855c-3.963 3.98-8.676 7.138-13.862 9.292s-10.749 3.264-16.366 3.264c-5.617 0-11.18-1.109-16.369-3.264-5.187-2.155-9.897-5.313-13.862-9.292z" />
<glyph unicode="&#xe909;" glyph-name="chevron_down" d="M511.995 207.36c-12.8 0-24.96 5.12-33.92 14.080l-385.28 385.28c-18.56 18.56-18.56 49.28 0 67.84s49.28 18.56 67.84 0l351.36-351.36 351.36 351.36c18.56 18.56 49.28 18.56 67.84 0s18.56-49.28 0-67.84l-385.28-385.28c-8.96-8.96-21.12-14.080-33.92-14.080z" />
<glyph unicode="&#xe90a;" glyph-name="chevron_left" d="M704.643 14.72c-12.16 0-24.32 4.48-33.92 14.080l-385.28 385.28c-8.96 8.96-14.080 21.12-14.080 33.92s5.12 24.96 14.080 33.92l385.28 385.279c18.56 18.56 49.28 18.56 67.84 0s18.56-49.28 0-67.84l-351.36-351.359 351.36-351.36c18.56-18.56 18.56-49.28 0-67.84-9.6-9.6-21.76-14.080-33.92-14.080z" />
<glyph unicode="&#xe90b;" glyph-name="chevron_right" d="M319.365 14.72c-12.16 0-24.32 4.48-33.92 14.080-18.56 18.56-18.56 49.28 0 67.84l351.36 351.36-351.36 351.359c-18.56 18.56-18.56 49.28 0 67.84s49.28 18.56 67.84 0l385.28-385.279c8.96-8.96 14.080-21.12 14.080-33.92s-5.12-24.96-14.080-33.92l-385.28-385.28c-9.6-9.6-21.76-14.080-33.92-14.080z" />
<glyph unicode="&#xe90c;" glyph-name="chevron_up" d="M897.275 207.36c-12.16 0-24.32 4.48-33.92 14.080l-351.36 351.36-351.36-351.36c-18.56-18.56-49.28-18.56-67.84 0s-18.56 49.283 0 67.84l385.28 385.28c18.56 18.56 49.28 18.56 67.84 0l385.28-385.28c18.56-18.557 18.56-49.28 0-67.84-9.6-9.6-21.76-14.080-33.92-14.080z" />
<glyph unicode="&#xe90d;" glyph-name="clock" d="M512-64c-282.325 0-512 229.676-512 512s229.675 512 512 512c282.324 0 512-229.675 512-512s-229.676-512-512-512zM512 874.667c-235.264 0-426.667-191.403-426.667-426.667s191.403-426.668 426.667-426.668c235.264 0 426.668 191.404 426.668 426.668s-191.404 426.667-426.668 426.667zM554.668 448v256c0 23.552-19.116 42.667-42.668 42.667s-42.668-19.115-42.668-42.667v-213.332h-128c-23.552 0-42.665-19.116-42.665-42.668s19.113-42.668 42.665-42.668h170.668c23.552 0 42.668 19.116 42.668 42.668z" />
<glyph unicode="&#xe90e;" glyph-name="copy" d="M554.67 106.665c56.561 0.069 110.781 22.566 150.776 62.559 39.992 39.995 62.49 94.216 62.559 150.776v373.632c0.067 22.427-4.321 44.644-12.905 65.364s-21.194 39.53-37.102 55.34l-95.657 95.659c-15.811 15.907-34.621 28.518-55.34 37.102-20.721 8.584-42.939 12.97-65.364 12.903h-202.967c-56.558-0.068-110.781-22.566-150.774-62.559s-62.491-94.216-62.559-150.775v-426.666c0.068-56.561 22.566-110.781 62.559-150.776 39.993-39.992 94.216-62.49 150.774-62.559h256zM170.671 320v426.666c0 33.948 13.486 66.505 37.49 90.51s56.561 37.49 90.509 37.49c0 0 209.879-0.598 213.335-1.024v-84.31c0-22.632 8.991-44.337 24.993-60.34s37.706-24.993 60.339-24.993h84.308c0.428-3.456 1.024-384 1.024-384 0-33.948-13.486-66.506-37.489-90.511-24.005-24.003-56.563-37.489-90.511-37.489h-256c-33.948 0-66.504 13.486-90.509 37.489-24.005 24.005-37.49 56.563-37.49 90.511zM938.67 618.665v-469.332c-0.067-56.558-22.564-110.781-62.559-150.774-39.992-39.995-94.216-62.492-150.774-62.559h-384c-11.315 0-22.17 4.495-30.17 12.495-8.003 8.003-12.498 18.854-12.498 30.17 0 11.318 4.495 22.17 12.498 30.17 8 8.003 18.854 12.498 30.17 12.498h384c33.948 0 66.506 13.486 90.509 37.491 24.005 24.005 37.491 56.561 37.491 90.509v469.332c0 11.318 4.495 22.17 12.498 30.17 8 8.003 18.852 12.498 30.17 12.498 11.315 0 22.167-4.495 30.17-12.498 8-8 12.495-18.852 12.495-30.17z" />
<glyph unicode="&#xe90f;" glyph-name="creditcard" d="M234.662 234.665c35.346 0 64 28.654 64 64s-28.654 64-64 64c-35.346 0-64-28.654-64-64s28.654-64 64-64zM810.668 832h-597.334c-56.559-0.068-110.781-22.566-150.775-62.559s-62.491-94.216-62.559-150.774v-341.335c0.068-56.558 22.566-110.781 62.559-150.774s94.216-62.492 150.775-62.559h597.334c56.558 0.067 110.781 22.566 150.774 62.559s62.492 94.216 62.559 150.774v341.335c-0.067 56.558-22.566 110.781-62.559 150.774s-94.216 62.491-150.774 62.559zM213.333 746.667h597.334c33.946 0 66.504-13.486 90.509-37.49s37.491-56.563 37.491-90.509h-853.334c0 33.946 13.486 66.504 37.49 90.509s56.562 37.49 90.51 37.49zM810.668 149.332h-597.334c-33.948 0-66.505 13.486-90.51 37.491s-37.49 56.563-37.49 90.509v256h853.334v-256c0-33.946-13.486-66.504-37.491-90.509s-56.563-37.491-90.509-37.491z" />
<glyph unicode="&#xe910;" glyph-name="cross" d="M1011.502 947.498c-8 7.999-18.852 12.492-30.164 12.492-11.315 0-22.164-4.493-30.167-12.492l-439.168-439.167-439.167 439.167c-8.001 7.999-18.852 12.492-30.165 12.492s-22.164-4.493-30.165-12.492c-7.999-8.001-12.492-18.852-12.492-30.165s4.493-22.164 12.492-30.165l439.169-439.168-439.169-439.168c-7.999-8.003-12.492-18.852-12.492-30.164 0-11.315 4.493-22.164 12.492-30.167 8.001-7.997 18.852-12.493 30.165-12.493s22.164 4.495 30.165 12.493l439.167 439.168 439.168-439.168c8.003-7.997 18.852-12.493 30.167-12.493 11.313 0 22.164 4.495 30.164 12.493 8 8.003 12.493 18.852 12.493 30.167 0 11.313-4.493 22.162-12.493 30.164l-439.168 439.168 439.168 439.168c8 8.001 12.493 18.852 12.493 30.165s-4.493 22.164-12.493 30.165z" />
<glyph unicode="&#xe911;" glyph-name="envelope" d="M810.668 917.334h-597.334c-56.559-0.068-110.781-22.566-150.775-62.559s-62.491-94.216-62.559-150.775v-512.001c0.068-56.558 22.566-110.781 62.559-150.774s94.216-62.49 150.775-62.559h597.334c56.558 0.069 110.781 22.566 150.774 62.559s62.492 94.216 62.559 150.774v512.001c-0.067 56.559-22.566 110.781-62.559 150.775s-94.216 62.491-150.774 62.559zM213.333 832.001h597.334c25.546-0.050 50.496-7.745 71.634-22.093s37.501-34.694 46.979-58.419l-326.74-326.785c-24.046-23.949-56.602-37.394-90.54-37.394s-66.493 13.445-90.54 37.394l-326.74 326.785c9.478 23.725 25.84 44.071 46.978 58.419s46.087 22.043 71.635 22.093zM810.668 64h-597.334c-33.948 0-66.505 13.486-90.51 37.491s-37.49 56.563-37.49 90.509v448l275.798-275.625c40.046-39.949 94.303-62.382 150.868-62.382s110.822 22.433 150.868 62.382l275.799 275.625v-448c0-33.946-13.486-66.504-37.491-90.509s-56.563-37.491-90.509-37.491z" />
<glyph unicode="&#xe912;" glyph-name="exclamation_circle" d="M512 960c-101.263 0-200.253-30.028-284.452-86.288s-149.822-136.223-188.574-229.778c-38.752-93.558-48.891-196.503-29.136-295.821s68.519-190.548 140.123-262.152c71.604-71.606 162.835-120.369 262.152-140.124s202.266-9.615 295.821 29.135c93.555 38.753 173.519 104.376 229.778 188.575s86.287 183.188 86.287 284.452c-0.146 135.747-54.136 265.89-150.124 361.876s-226.13 149.977-361.876 150.124v0zM512 21.332c-84.385 0-166.879 25.024-237.043 71.908-70.165 46.881-124.852 113.518-157.145 191.48-32.293 77.965-40.743 163.753-24.28 246.518s57.099 158.789 116.77 218.46c59.671 59.671 135.695 100.306 218.46 116.77s168.553 8.014 246.518-24.28c77.962-32.293 144.599-86.98 191.48-157.145 46.884-70.164 71.908-152.655 71.908-237.043-0.125-113.121-45.117-221.573-125.105-301.563-79.99-79.987-188.442-124.979-301.563-125.105zM512.005 746.669c-11.318 0-22.17-4.495-30.17-12.497-8.003-8.002-12.498-18.854-12.498-30.17v-341.335c0-11.315 4.495-22.167 12.498-30.17 8-8 18.852-12.495 30.17-12.495 11.315 0 22.167 4.495 30.17 12.495 8 8.003 12.495 18.854 12.495 30.17v341.335c0 11.316-4.495 22.168-12.495 30.17-8.003 8.002-18.854 12.497-30.17 12.497zM554.67 192.003c0 23.565-19.103 42.665-42.665 42.665-23.565 0-42.668-19.1-42.668-42.665s19.103-42.668 42.668-42.668c23.562 0 42.665 19.103 42.665 42.668z" />
<glyph unicode="&#xe913;" glyph-name="eye_crossed" d="M992.899 558.124c-38.518 63.073-87.104 119.411-143.828 166.783l119.465 119.467c7.772 8.047 12.073 18.825 11.976 30.012s-4.585 21.888-12.495 29.799c-7.91 7.911-18.611 12.398-29.798 12.495s-21.965-4.204-30.013-11.975l-129.917-130.091c-80.54 47.837-172.613 72.77-266.284 72.107-264.15 0-414.678-180.821-480.896-288.597-20.458-33.088-31.294-71.222-31.294-110.124s10.836-77.033 31.294-110.124c38.518-63.071 87.103-119.411 143.829-166.784l-119.467-119.465c-4.075-3.937-7.325-8.645-9.562-13.85-2.236-5.207-3.413-10.806-3.462-16.471s1.030-11.282 3.176-16.527c2.145-5.243 5.314-10.007 9.319-14.011 4.006-4.006 8.77-7.176 14.014-9.321s10.862-3.226 16.527-3.174c5.665 0.049 11.264 1.226 16.47 3.461 5.206 2.237 9.913 5.486 13.849 9.562l130.218 130.22c80.438-47.831 172.401-72.804 265.985-72.236 264.148 0 414.676 180.82 480.896 288.596 20.457 33.091 31.293 71.222 31.293 110.124s-10.836 77.036-31.293 110.124zM103.81 382.548c-12.154 19.668-18.592 42.332-18.592 65.452s6.438 45.783 18.592 65.452c56.917 92.416 185.557 247.935 408.192 247.935 70.838 0.397 140.682-16.676 203.348-49.706l-85.888-85.888c-40.963 27.195-90.074 39.38-138.998 34.491-48.924-4.892-94.651-26.56-129.418-61.327s-56.435-80.494-61.327-129.418c-4.892-48.924 7.296-98.035 34.491-138.998l-98.561-98.56c-52.262 42.25-96.86 93.187-131.84 150.569zM640.003 448c0-33.948-13.486-66.504-37.491-90.509s-56.561-37.491-90.509-37.491c-19.008 0.074-37.752 4.449-54.828 12.8l170.028 170.028c8.351-17.075 12.726-35.82 12.8-54.828zM384.003 448c0 33.948 13.486 66.506 37.491 90.509 24.003 24.005 56.561 37.491 90.509 37.491 19.008-0.074 37.752-4.449 54.828-12.8l-170.028-170.028c-8.351 17.075-12.726 35.82-12.8 54.828zM920.195 382.548c-56.916-92.416-185.556-247.936-408.192-247.936-70.838-0.397-140.682 16.676-203.348 49.708l85.888 85.888c40.963-27.195 90.071-39.38 138.998-34.488 48.924 4.89 94.648 26.557 129.416 61.325 34.77 34.77 56.438 80.494 61.327 129.418 4.892 48.927-7.293 98.035-34.488 138.998l98.56 98.56c52.262-42.25 96.86-93.184 131.84-150.569 12.155-19.668 18.591-42.332 18.591-65.452s-6.436-45.783-18.591-65.452z" />
<glyph unicode="&#xe914;" glyph-name="eye" d="M992.899 558.121c-66.176 107.776-216.704 288.598-480.896 288.598s-414.72-180.822-480.896-288.598c-20.458-33.088-31.294-71.222-31.294-110.121 0-38.902 10.836-77.036 31.294-110.124 66.176-107.776 216.704-288.596 480.896-288.596s414.72 180.82 480.896 288.596c20.457 33.088 31.293 71.222 31.293 110.124 0 38.899-10.836 77.033-31.293 110.121zM920.151 382.548c-56.832-92.416-185.472-247.936-408.148-247.936s-351.318 155.52-408.15 247.936c-12.154 19.666-18.592 42.33-18.592 65.452 0 23.119 6.438 45.783 18.592 65.449 56.832 92.416 185.473 247.937 408.15 247.937s351.316-155.349 408.148-247.937c12.155-19.666 18.593-42.33 18.593-65.449 0-23.122-6.438-45.786-18.593-65.452zM511.995 661.335c-42.191 0-83.438-12.513-118.52-35.953-35.082-23.442-62.426-56.76-78.574-95.741-16.146-38.981-20.37-81.876-12.14-123.259 8.233-41.382 28.549-79.396 58.386-109.23 29.834-29.837 67.848-50.153 109.23-58.386 41.382-8.23 84.278-4.006 123.259 12.14 38.981 16.148 72.3 43.492 95.741 78.574 23.439 35.082 35.953 76.329 35.953 118.52-0.069 56.561-22.566 110.781-62.559 150.776-39.995 39.992-94.216 62.49-150.776 62.559zM511.995 320c-25.316 0-50.063 7.508-71.112 21.573-21.051 14.065-37.455 34.056-47.145 57.444-9.687 23.391-12.221 49.126-7.283 73.956s17.129 47.636 35.031 65.539c17.902 17.9 40.709 30.090 65.539 35.031 24.829 4.938 50.565 2.404 73.956-7.286 23.388-9.687 43.379-26.094 57.444-47.142 14.065-21.051 21.571-45.798 21.571-71.114 0-33.946-13.484-66.504-37.489-90.509s-56.563-37.491-90.511-37.491z" />
<glyph unicode="&#xe915;" glyph-name="favorite_active" d="M746.66 878.206c-48.044-0.747-95.040-14.159-136.243-38.881s-75.154-59.878-98.422-101.919c-23.27 42.041-57.219 77.197-98.422 101.919s-88.2 38.134-136.246 38.881c-76.589-3.327-148.749-36.832-200.713-93.194s-79.511-130.999-76.62-207.607c0-194.004 204.203-405.888 375.466-549.545 38.239-32.136 86.587-49.751 136.535-49.751 49.946 0 98.294 17.615 136.532 49.751 171.264 143.657 375.468 355.54 375.468 549.545 2.89 76.608-24.655 151.245-76.621 207.607s-124.124 89.866-200.714 93.194z" />
<glyph unicode="&#xe916;" glyph-name="favorite_default" d="M746.66 878.206c-48.044-0.747-95.040-14.159-136.243-38.881s-75.154-59.878-98.422-101.919c-23.27 42.041-57.219 77.197-98.422 101.919s-88.2 38.134-136.246 38.881c-76.589-3.327-148.749-36.832-200.713-93.194s-79.511-130.999-76.62-207.607c0-194.004 204.203-405.888 375.466-549.545 38.239-32.136 86.587-49.751 136.535-49.751 49.946 0 98.294 17.615 136.532 49.751 171.264 143.657 375.468 355.54 375.468 549.545 2.89 76.608-24.655 151.245-76.621 207.607s-124.124 89.866-200.714 93.194zM593.7 93.14c-22.868-19.259-51.807-29.821-81.705-29.821-29.901 0-58.836 10.563-81.708 29.821-219.221 183.936-344.96 360.404-344.96 484.265-2.917 53.985 15.632 106.934 51.6 147.299s86.437 64.868 140.4 68.168c53.962-3.3 104.433-27.805 140.401-68.168 35.968-40.365 54.515-93.314 51.599-147.299 0-11.315 4.495-22.167 12.498-30.17 8-8 18.852-12.495 30.17-12.495 11.315 0 22.167 4.495 30.17 12.495 8 8.003 12.495 18.854 12.495 30.17-2.916 53.985 15.631 106.934 51.599 147.299s86.438 64.868 140.401 68.168c53.965-3.3 104.433-27.805 140.401-68.168 35.968-40.365 54.518-93.314 51.599-147.299 0-123.86-125.737-300.329-344.96-484.096v-0.169z" />
<glyph unicode="&#xe917;" glyph-name="file" d="M725.338 362.665c0-11.315-4.495-22.167-12.498-30.17-8-8-18.852-12.495-30.17-12.495h-341.332c-11.315 0-22.17 4.495-30.17 12.495-8.003 8.003-12.498 18.854-12.498 30.17 0 11.318 4.495 22.17 12.498 30.17 8 8.003 18.854 12.498 30.17 12.498h341.332c11.318 0 22.17-4.495 30.17-12.498 8.003-8 12.498-18.852 12.498-30.17zM554.67 234.665h-213.332c-11.315 0-22.17-4.495-30.17-12.495-8.003-8.003-12.498-18.854-12.498-30.17 0-11.318 4.495-22.17 12.498-30.17 8-8.003 18.854-12.498 30.17-12.498h213.332c11.318 0 22.17 4.495 30.17 12.498 8.003 8 12.498 18.852 12.498 30.17 0 11.315-4.495 22.167-12.498 30.17-8 8-18.852 12.495-30.17 12.495zM938.67 512.64v-363.308c-0.067-56.558-22.564-110.781-62.559-150.774-39.992-39.995-94.216-62.492-150.774-62.559h-426.668c-56.558 0.067-110.781 22.564-150.774 62.559-39.993 39.992-62.491 94.216-62.559 150.774v597.333c0.068 56.559 22.566 110.781 62.559 150.775s94.216 62.491 150.774 62.559h192.64c39.237 0.101 78.106-7.577 114.358-22.59 36.25-15.013 69.166-37.064 96.842-64.877l148.652-148.736c27.83-27.658 49.892-60.564 64.914-96.809 15.022-36.247 22.702-75.113 22.595-114.348v0zM642.181 812.202c-13.43 13.006-28.506 24.195-44.844 33.28v-184.149c0-11.315 4.495-22.17 12.498-30.17 8-8.003 18.852-12.498 30.17-12.498h184.148c-9.091 16.333-20.293 31.398-33.324 44.8l-148.649 148.737zM853.338 512.64c0 7.040-1.364 13.78-2.004 20.692h-211.328c-33.948 0-66.506 13.486-90.511 37.491-24.005 24.003-37.489 56.561-37.489 90.509v211.328c-6.912 0.64-13.696 2.006-20.695 2.006h-192.64c-33.948 0-66.504-13.486-90.509-37.49s-37.49-56.562-37.49-90.51v-597.333c0-33.948 13.486-66.506 37.49-90.509 24.005-24.005 56.561-37.491 90.509-37.491h426.668c33.948 0 66.506 13.486 90.509 37.491 24.005 24.003 37.491 56.561 37.491 90.509v363.308z" />
<glyph unicode="&#xe918;" glyph-name="Grid" d="M298.668 960h-128.001c-45.264 0-88.674-17.981-120.68-49.987s-49.987-75.416-49.987-120.68v-128.001c0-45.263 17.981-88.673 49.987-120.678 32.006-32.008 75.416-49.987 120.68-49.987h128.001c45.263 0 88.673 17.979 120.678 49.987 32.008 32.005 49.987 75.415 49.987 120.678v128.001c0 45.264-17.979 88.674-49.987 120.68-32.005 32.006-75.415 49.987-120.678 49.987v0zM384 661.332c0-22.63-8.991-44.337-24.993-60.339s-37.709-24.993-60.339-24.993h-128.001c-22.632 0-44.337 8.991-60.34 24.993s-24.994 37.709-24.994 60.339v128.001c0 22.632 8.99 44.337 24.994 60.34s37.708 24.994 60.34 24.994h128.001c22.63 0 44.337-8.99 60.339-24.994s24.993-37.708 24.993-60.34v-128.001zM853.33 960h-128c-45.263 0-88.673-17.981-120.681-49.987-32.005-32.006-49.987-75.416-49.987-120.68v-128.001c0-45.263 17.981-88.673 49.987-120.678 32.008-32.008 75.418-49.987 120.681-49.987h128c45.263 0 88.673 17.979 120.678 49.987 32.008 32.005 49.987 75.415 49.987 120.678v128.001c0 45.264-17.979 88.674-49.987 120.68-32.005 32.006-75.415 49.987-120.678 49.987v0zM938.662 661.332c0-22.63-8.991-44.337-24.993-60.339s-37.709-24.993-60.339-24.993h-128c-22.633 0-44.337 8.991-60.342 24.993-16.003 16.003-24.993 37.709-24.993 60.339v128.001c0 22.632 8.991 44.337 24.993 60.34 16.005 16.003 37.709 24.994 60.342 24.994h128c22.63 0 44.337-8.99 60.339-24.994s24.993-37.708 24.993-60.34v-128.001zM298.668 405.335h-128.001c-45.264 0-88.674-17.981-120.68-49.987-32.006-32.008-49.987-75.418-49.987-120.681v-128c0-45.263 17.981-88.673 49.987-120.678 32.006-32.008 75.416-49.989 120.68-49.989h128.001c45.263 0 88.673 17.981 120.678 49.989 32.008 32.005 49.987 75.415 49.987 120.678v128c0 45.263-17.979 88.673-49.987 120.681-32.005 32.005-75.415 49.987-120.678 49.987zM384 106.668c0-22.63-8.991-44.337-24.993-60.339s-37.709-24.993-60.339-24.993h-128.001c-22.632 0-44.337 8.991-60.34 24.993s-24.994 37.709-24.994 60.339v128c0 22.633 8.99 44.337 24.994 60.339 16.003 16.005 37.708 24.993 60.34 24.993h128.001c22.63 0 44.337-8.988 60.339-24.993 16.003-16.003 24.993-37.706 24.993-60.339v-128zM853.33 405.335h-128c-45.263 0-88.673-17.981-120.681-49.987-32.005-32.008-49.987-75.418-49.987-120.681v-128c0-45.263 17.981-88.673 49.987-120.678 32.008-32.008 75.418-49.989 120.681-49.989h128c45.263 0 88.673 17.981 120.678 49.989 32.008 32.005 49.987 75.415 49.987 120.678v128c0 45.263-17.979 88.673-49.987 120.681-32.005 32.005-75.415 49.987-120.678 49.987zM938.662 106.668c0-22.63-8.991-44.337-24.993-60.339s-37.709-24.993-60.339-24.993h-128c-22.633 0-44.337 8.991-60.342 24.993-16.003 16.003-24.993 37.709-24.993 60.339v128c0 22.633 8.991 44.337 24.993 60.339 16.005 16.005 37.709 24.993 60.342 24.993h128c22.63 0 44.337-8.988 60.339-24.993 16.003-16.003 24.993-37.706 24.993-60.339v-128z" />
<glyph unicode="&#xe919;" glyph-name="headset" d="M896 429.908v60.756c0 101.844-40.458 199.516-112.471 271.53s-169.687 112.471-271.529 112.471c-101.842 0-199.516-40.457-271.529-112.471s-112.471-169.685-112.471-271.53v-60.756c-44.751-19.704-81.374-54.185-103.739-97.667s-29.114-93.327-19.117-141.192c9.997-47.864 36.132-90.842 74.031-121.738 37.899-30.894 85.262-47.834 134.158-47.98 22.632 0 44.336 8.991 60.341 24.993 16.003 16.003 24.993 37.709 24.993 60.339v256c0 22.633-8.991 44.337-24.993 60.339-16.005 16.005-37.709 24.996-60.341 24.996v42.665c0 79.212 31.467 155.18 87.477 211.19s131.978 87.478 211.19 87.478c79.212 0 155.18-31.466 211.19-87.478s87.478-131.978 87.478-211.19v-42.665c-22.633 0-44.337-8.991-60.342-24.996-16.003-16.003-24.993-37.706-24.993-60.339v-256h-128c-11.315 0-22.167-4.495-30.17-12.495-8-8.003-12.495-18.854-12.495-30.17 0-11.318 4.495-22.17 12.495-30.172 8.003-8 18.854-12.495 30.17-12.495h213.335c48.896 0.146 96.259 17.085 134.157 47.98 37.901 30.897 64.036 73.874 74.033 121.738s3.246 97.71-19.118 141.192c-22.364 43.482-58.988 77.962-103.739 97.667zM213.333 106.665c-33.948 0-66.505 13.486-90.51 37.491s-37.49 56.561-37.49 90.509c0 33.948 13.486 66.506 37.49 90.511 24.005 24.003 56.562 37.489 90.51 37.489v-256zM810.668 106.665v256c33.946 0 66.504-13.486 90.509-37.489 24.005-24.005 37.491-56.563 37.491-90.511s-13.486-66.504-37.491-90.509c-24.005-24.005-56.563-37.491-90.509-37.491z" />
<glyph unicode="&#xe91a;" glyph-name="Home" d="M986.496 573.056l-323.625 323.669c-40.054 39.937-94.308 62.363-150.871 62.363-56.561 0-110.815-22.426-150.868-62.363l-323.627-323.669c-11.929-11.853-21.386-25.956-27.824-41.49s-9.728-32.192-9.68-49.006v-418.86c0-33.948 13.486-66.504 37.49-90.509s56.562-37.491 90.51-37.491h767.999c33.948 0 66.506 13.486 90.511 37.491 24.003 24.005 37.489 56.561 37.489 90.509v418.86c0.049 16.814-3.241 33.472-9.679 49.006s-15.895 29.637-27.825 41.49zM640 21.033h-256v167.852c0 33.948 13.486 66.506 37.491 90.509 24.005 24.005 56.561 37.491 90.509 37.491s66.506-13.486 90.511-37.491c24.003-24.003 37.489-56.561 37.489-90.509v-167.852zM938.668 63.7c0-11.315-4.495-22.167-12.498-30.17-8-8.003-18.854-12.498-30.17-12.498h-170.665v167.852c0 56.579-22.477 110.843-62.484 150.851s-94.269 62.482-150.851 62.482c-56.579 0-110.84-22.474-150.848-62.482s-62.484-94.272-62.484-150.851v-167.852h-170.667c-11.316 0-22.168 4.495-30.17 12.498s-12.497 18.854-12.497 30.17v418.86c0.040 11.308 4.531 22.144 12.502 30.164l323.628 323.542c24.051 23.939 56.604 37.378 90.537 37.378 33.935 0 66.488-13.439 90.54-37.378l323.628-323.67c7.939-7.99 12.426-18.775 12.5-30.036v-418.86z" />
<glyph unicode="&#xe91b;" glyph-name="info" d="M512 960c-101.263 0-200.253-30.028-284.452-86.288s-149.822-136.223-188.574-229.778c-38.752-93.558-48.891-196.503-29.136-295.821s68.519-190.548 140.123-262.152c71.604-71.606 162.835-120.369 262.152-140.124s202.266-9.615 295.821 29.135c93.555 38.753 173.519 104.376 229.778 188.575s86.287 183.188 86.287 284.452c-0.146 135.747-54.136 265.89-150.124 361.876s-226.13 149.977-361.876 150.124v0zM512 21.332c-84.385 0-166.879 25.024-237.043 71.908-70.165 46.881-124.852 113.518-157.145 191.48-32.293 77.965-40.743 163.753-24.28 246.518s57.099 158.789 116.77 218.46c59.671 59.671 135.695 100.306 218.46 116.77s168.553 8.014 246.518-24.28c77.962-32.293 144.599-86.98 191.48-157.145 46.884-70.164 71.908-152.655 71.908-237.043-0.125-113.121-45.117-221.573-125.105-301.563-79.99-79.987-188.442-124.979-301.563-125.105zM511.995 533.335h-42.665c-11.318 0-22.17-4.495-30.17-12.498-8.003-8-12.498-18.854-12.498-30.17s4.495-22.167 12.498-30.17c8-8.003 18.852-12.498 30.17-12.498h42.665v-256c0-11.315 4.495-22.167 12.498-30.17 8.003-8 18.854-12.495 30.17-12.495s22.17 4.495 30.17 12.495c8.003 8.003 12.498 18.854 12.498 30.17v256c0 22.633-8.991 44.337-24.993 60.342-16.005 16.003-37.709 24.993-60.342 24.993zM512 618.665c35.346 0 64 28.654 64 64 0 35.347-28.654 64.001-64 64.001s-64-28.654-64-64.001c0-35.346 28.654-64 64-64z" />
<glyph unicode="&#xe91c;" glyph-name="interrogation_circle" d="M512 960c-101.263 0-200.253-30.028-284.452-86.288s-149.822-136.223-188.574-229.778c-38.752-93.558-48.891-196.503-29.136-295.821s68.519-190.548 140.123-262.152c71.604-71.606 162.835-120.369 262.152-140.124s202.266-9.615 295.821 29.135c93.555 38.753 173.519 104.376 229.778 188.575s86.287 183.188 86.287 284.452c-0.146 135.747-54.136 265.89-150.124 361.876s-226.13 149.977-361.876 150.124v0zM512 21.332c-84.385 0-166.879 25.024-237.043 71.908-70.165 46.881-124.852 113.518-157.145 191.48-32.293 77.965-40.743 163.753-24.28 246.518s57.099 158.789 116.77 218.46c59.671 59.671 135.695 100.306 218.46 116.77s168.553 8.014 246.518-24.28c77.962-32.293 144.599-86.98 191.48-157.145 46.884-70.164 71.908-152.655 71.908-237.043-0.125-113.121-45.117-221.573-125.105-301.563-79.99-79.987-188.442-124.979-301.563-125.105zM542.597 743.98c-24.607 4.483-49.894 3.504-74.079-2.869s-46.674-17.982-65.874-34.008c-19.2-16.025-34.644-36.075-45.238-58.731-10.596-22.653-16.079-47.36-16.069-72.371 0-11.315 4.495-22.167 12.498-30.17 8-8 18.852-12.495 30.17-12.495 11.315 0 22.167 4.495 30.17 12.495 8 8.003 12.495 18.854 12.495 30.17-0.010 12.554 2.749 24.955 8.082 36.321 5.332 11.364 13.107 21.412 22.769 29.427s20.972 13.801 33.126 16.942c12.152 3.144 24.85 3.564 37.187 1.236 16.855-3.272 32.353-11.494 44.511-23.616 12.16-12.122 20.431-27.594 23.757-44.439 3.356-17.679 1.039-35.971-6.625-52.255-7.662-16.284-20.278-29.729-36.042-38.41-26.104-15.124-47.677-36.972-62.467-63.268-14.792-26.294-22.262-56.074-21.629-86.236v-31.703c0-11.315 4.495-22.167 12.498-30.17 8-8 18.852-12.495 30.17-12.495 11.315 0 22.167 4.495 30.17 12.495 8 8.003 12.495 18.854 12.495 30.17v31.703c-0.535 14.845 2.852 29.573 9.818 42.696s17.265 24.179 29.862 32.056c30.915 16.978 55.805 43.116 71.258 74.819s20.7 67.415 15.027 102.226c-5.673 34.808-21.993 67.003-46.71 92.16-24.719 25.156-56.625 42.037-91.328 48.32zM554.67 192.003c0 23.565-19.103 42.665-42.665 42.665-23.565 0-42.668-19.1-42.668-42.665s19.103-42.668 42.668-42.668c23.562 0 42.665 19.103 42.665 42.668z" />
<glyph unicode="&#xe91d;" glyph-name="Invoice" d="M851.205 723.796l-148.695 148.693c-56.404 56.406-131.412 87.467-211.2 87.467h-192.64c-117.631 0.043-213.332-95.659-213.332-213.291v-597.333c0-117.632 95.701-213.332 213.332-213.332h426.668c117.632 0 213.332 95.7 213.332 213.332v363.308c0 79.785-31.060 154.752-87.465 211.199v-0.043zM790.874 663.465c13.568-13.568 25.044-28.628 34.348-44.8h-185.216c-23.511 0-42.668 19.159-42.668 42.668v185.216c16.172-9.301 31.276-20.779 44.8-34.347l148.736-148.737zM853.338 149.332c0-70.572-57.428-128-128-128h-426.668c-70.57 0-127.999 57.428-127.999 128v597.333c0 70.571 57.429 128 127.999 128h192.64c6.956 0 13.868-0.341 20.695-0.981v-212.352c0-70.572 57.428-128 128-128h212.352c0.64-6.828 0.98-13.74 0.98-20.692v-363.308zM661.338 405.332h-298.668c-58.793 0-106.665-47.872-106.665-106.668v-85.332c0-58.796 47.872-106.668 106.665-106.668h298.668c58.796 0 106.668 47.872 106.668 106.668v85.332c0 58.796-47.872 106.668-106.668 106.668zM682.67 213.332c0-11.776-9.556-21.332-21.332-21.332h-298.668c-11.776 0-21.332 9.556-21.332 21.332v85.332c0 11.776 9.556 21.335 21.332 21.335h298.668c11.776 0 21.332-9.559 21.332-21.335v-85.332zM256.005 533.332c0 23.552 19.113 42.668 42.665 42.668h85.335c23.552 0 42.665-19.116 42.665-42.668s-19.113-42.668-42.665-42.668h-85.335c-23.552 0-42.665 19.116-42.665 42.668zM256.005 704c0 23.551 19.113 42.665 42.665 42.665h85.335c23.552 0 42.665-19.114 42.665-42.665 0-23.552-19.113-42.668-42.665-42.668h-85.335c-23.552 0-42.665 19.116-42.665 42.668z" />
<glyph unicode="&#xe91e;" glyph-name="lock" d="M810.67 600.576v60.756c0 79.212-31.465 155.179-87.478 211.19-56.010 56.011-131.976 87.478-211.187 87.478s-155.18-31.466-211.19-87.478c-56.011-56.011-87.478-131.978-87.478-211.19v-60.756c-38.001-16.584-70.345-43.884-93.078-78.559s-34.868-75.223-34.922-116.685v-256c0.068-56.558 22.566-110.781 62.559-150.774s94.216-62.492 150.774-62.559h426.668c56.558 0.067 110.781 22.566 150.774 62.559 39.995 39.992 62.492 94.216 62.559 150.774v256c-0.054 41.462-12.188 82.010-34.921 116.685s-55.078 61.975-93.079 78.559zM298.67 661.332c0 56.58 22.477 110.843 62.484 150.85s94.269 62.484 150.851 62.484c56.579 0 110.84-22.476 150.848-62.484s62.484-94.27 62.484-150.85v-42.665h-426.668v42.665zM853.338 149.332c0-33.946-13.486-66.504-37.491-90.509-24.003-24.005-56.561-37.491-90.509-37.491h-426.668c-33.948 0-66.504 13.486-90.509 37.491s-37.49 56.563-37.49 90.509v256c0 33.948 13.486 66.506 37.49 90.511s56.561 37.489 90.509 37.489h426.668c33.948 0 66.506-13.484 90.509-37.489 24.005-24.005 37.491-56.563 37.491-90.511v-256zM512.005 362.665c-11.318 0-22.17-4.495-30.17-12.495-8.003-8.003-12.498-18.854-12.498-30.17v-85.335c0-11.315 4.495-22.167 12.498-30.17 8-8 18.852-12.495 30.17-12.495 11.315 0 22.167 4.495 30.17 12.495 8 8.003 12.495 18.854 12.495 30.17v85.335c0 11.315-4.495 22.167-12.495 30.17-8.003 8-18.854 12.495-30.17 12.495z" />
<glyph unicode="&#xe91f;" glyph-name="log-out" d="M974.036 568.663l-165.504 165.504c-8.049 7.772-18.826 12.072-30.013 11.975s-21.888-4.584-29.798-12.495c-7.91-7.911-12.398-18.612-12.495-29.798s4.204-21.965 11.976-30.013l165.504-165.504c4.918-5.015 9.213-10.601 12.8-16.64-0.64 0-1.152 0.343-1.792 0.343l-669.184-1.367c-11.316 0-22.168-4.495-30.17-12.495-8.002-8.003-12.497-18.854-12.497-30.17 0-11.318 4.495-22.17 12.497-30.172 8.002-8 18.854-12.495 30.17-12.495l668.928 1.364c1.196 0 2.176 0.599 3.328 0.684-3.784-7.217-8.584-13.855-14.252-19.712l-165.504-165.504c-4.073-3.937-7.324-8.645-9.562-13.85-2.235-5.204-3.412-10.803-3.461-16.468s1.029-11.284 3.174-16.527c2.145-5.245 5.315-10.007 9.321-14.013s8.771-7.176 14.013-9.321c5.243-2.145 10.862-3.226 16.527-3.174 5.665 0.049 11.264 1.226 16.468 3.461 5.207 2.237 9.915 5.486 13.85 9.562l165.504 165.504c31.995 32.005 49.969 75.407 49.969 120.663 0 45.253-17.974 88.655-49.969 120.66h0.172zM298.668 21.332h-85.334c-33.948 0-66.505 13.486-90.51 37.491s-37.49 56.563-37.49 90.509v597.334c0 33.948 13.486 66.505 37.49 90.51s56.562 37.49 90.51 37.49h85.334c11.315 0 22.167 4.495 30.17 12.497 8 8.002 12.495 18.854 12.495 30.17s-4.495 22.168-12.495 30.17c-8.003 8.002-18.854 12.497-30.17 12.497h-85.334c-56.559-0.068-110.781-22.566-150.775-62.559s-62.491-94.216-62.559-150.775v-597.334c0.068-56.558 22.566-110.781 62.559-150.774s94.216-62.492 150.775-62.559h85.334c11.315 0 22.167 4.495 30.17 12.498 8 8 12.495 18.852 12.495 30.17 0 11.315-4.495 22.167-12.495 30.17-8.003 8-18.854 12.495-30.17 12.495z" />
<glyph unicode="&#xe920;" glyph-name="menu" d="M981.332 490.668h-938.666c-23.564 0-42.667-19.1-42.667-42.665s19.103-42.668 42.667-42.668h938.666c23.565 0 42.668 19.103 42.668 42.668s-19.103 42.665-42.668 42.665zM981.332 789.331h-938.666c-23.564 0-42.667-19.102-42.667-42.666s19.103-42.667 42.667-42.667h938.666c23.565 0 42.668 19.103 42.668 42.667s-19.103 42.666-42.668 42.666zM981.332 192h-938.666c-23.564 0-42.667-19.103-42.667-42.668 0-23.562 19.103-42.665 42.667-42.665h938.666c23.565 0 42.668 19.103 42.668 42.665 0 23.565-19.103 42.668-42.668 42.668z" />
<glyph unicode="&#xe921;" glyph-name="minus" d="M981.332 490.668h-938.666c-23.564 0-42.667-19.1-42.667-42.665s19.103-42.668 42.667-42.668h938.666c23.565 0 42.668 19.103 42.668 42.668s-19.103 42.665-42.668 42.665z" />
<glyph unicode="&#xe922;" glyph-name="pencil" d="M975.063 911.021c-29.007 28.962-68.324 45.229-109.312 45.229-40.991 0-80.307-16.267-109.312-45.229l-693.932-693.93c-19.872-19.761-35.628-43.267-46.357-69.153-10.729-25.889-16.218-53.65-16.149-81.674v-87.596c0-11.315 4.495-22.167 12.497-30.17 8.002-8 18.854-12.495 30.17-12.495h87.595c28.022-0.079 55.781 5.399 81.671 16.123 25.89 10.721 49.395 26.473 69.155 46.341l693.975 693.972c28.948 29.005 45.207 68.311 45.207 109.291s-16.259 80.286-45.207 109.29zM220.758 58.796c-24.064-23.903-56.578-37.363-90.496-37.46h-44.928v44.928c-0.043 16.814 3.249 33.472 9.687 49.006 6.438 15.532 15.892 29.635 27.817 41.49l526.634 526.636 98.135-98.135-526.849-526.464zM914.688 752.77l-106.921-106.967-98.135 97.921 106.967 106.966c6.444 6.429 14.090 11.527 22.502 15.001 8.415 3.474 17.428 5.257 26.532 5.247s18.115-1.812 26.519-5.305c8.407-3.493 16.044-8.607 22.472-15.050 6.431-6.444 11.528-14.090 15.002-22.504s5.258-17.429 5.248-26.532c-0.010-9.103-1.812-18.114-5.304-26.52-3.494-8.406-8.607-16.041-15.050-22.471l0.169 0.214z" />
<glyph unicode="&#xe923;" glyph-name="plus" d="M981.332 490.668h-426.665v426.666c0 11.316-4.495 22.168-12.498 30.17s-18.854 12.497-30.17 12.497v0c-11.315 0-22.17-4.495-30.17-12.497-8.003-8.002-12.498-18.854-12.498-30.17v-426.666h-426.666c-11.316 0-22.168-4.495-30.17-12.498-8.002-8-12.497-18.854-12.497-30.17v0c0-11.315 4.495-22.167 12.497-30.17s18.854-12.498 30.17-12.498h426.666v-426.665c0-11.318 4.495-22.17 12.498-30.17 8-8.003 18.854-12.498 30.17-12.498s22.167 4.495 30.17 12.498c8.003 8 12.498 18.852 12.498 30.17v426.665h426.665c11.318 0 22.17 4.495 30.17 12.498 8.003 8.003 12.498 18.854 12.498 30.17s-4.495 22.17-12.498 30.17c-8 8.003-18.852 12.498-30.17 12.498z" />
<glyph unicode="&#xe924;" glyph-name="Renew" d="M512 874.668c56.599-0.186 112.596-11.594 164.756-33.565s99.443-54.068 139.116-94.435h-133.204c-11.315 0-22.17-4.495-30.17-12.497-8.003-8.002-12.498-18.854-12.498-30.17s4.495-22.168 12.498-30.17c8-8 18.854-12.495 30.17-12.495h176.768c21.010 0.010 41.157 8.361 56.013 23.219 14.856 14.856 23.206 35.002 23.219 56.012v176.768c0 11.316-4.495 22.168-12.498 30.17-8 8.002-18.854 12.497-30.17 12.497s-22.167-4.495-30.17-12.497c-8.003-8.002-12.498-18.854-12.498-30.17v-88.661c-70.52 63.511-157.327 106.137-250.703 123.104s-189.632 7.605-277.988-27.038c-88.355-34.643-165.323-93.198-222.283-169.108s-91.664-166.178-100.224-260.696c-0.551-5.942 0.141-11.935 2.034-17.592 1.892-5.66 4.942-10.862 8.956-15.278s8.904-7.946 14.358-10.368c5.454-2.422 11.352-3.679 17.319-3.697 10.436-0.133 20.546 3.635 28.35 10.563 7.805 6.93 12.743 16.522 13.847 26.9 9.498 106.207 58.367 205.025 137.006 277.041s181.364 112.023 287.996 112.164zM979.246 448c-10.435 0.133-20.544-3.633-28.349-10.563s-12.744-16.522-13.847-26.898c-7.053-81.206-37.251-158.684-87.012-223.242s-116.997-113.487-193.728-140.984c-76.733-27.497-159.741-32.407-239.181-14.147s-151.972 58.924-208.997 117.166h133.206c11.315 0 22.167 4.495 30.17 12.498 8.003 8 12.498 18.854 12.498 30.17s-4.495 22.167-12.498 30.17c-8.003 8.003-18.854 12.498-30.17 12.498h-176.768c-10.407 0.005-20.712-2.040-30.328-6.021s-18.352-9.815-25.711-17.175c-7.358-7.357-13.194-16.095-17.174-25.71s-6.025-19.919-6.020-30.326v-176.768c0-11.318 4.495-22.17 12.497-30.172 8.002-8 18.854-12.495 30.17-12.495s22.168 4.495 30.17 12.495c8.002 8.003 12.497 18.854 12.497 30.172v88.66c70.521-63.511 157.329-106.138 250.705-123.105 93.376-16.965 189.632-7.603 277.988 27.039s165.322 93.197 222.282 169.108c56.96 75.912 91.663 166.18 100.224 260.698 0.553 5.942-0.141 11.932-2.033 17.592-1.892 5.658-4.943 10.862-8.957 15.276-4.014 4.416-8.904 7.946-14.356 10.368s-11.351 3.681-17.318 3.697h0.041z" />
<glyph unicode="&#xe925;" glyph-name="search" d="M1008.566 31.444l-200.819 199.77c60.989 76.948 98.179 173.873 98.179 278.935 0 248.602-203.052 449.851-452.964 449.851-249.909 0-452.961-201.249-452.961-449.851 0-248.599 203.052-450.588 452.219-450.588 103.386 0 198.589 34.775 275.197 93.225l201.567-200.509c11.156-11.098 25.288-16.276 39.419-16.276s28.265 5.179 39.421 16.276c21.568 21.458 21.568 56.973 0 78.428l0.742 0.74zM111.567 510.149c0 187.192 153.219 338.868 340.652 338.868s341.394-152.416 341.394-338.868c0-186.45-153.219-339.607-341.394-339.607-188.178 0-340.652 153.157-340.652 339.607zM417.4 779.999c-119.447-17.177-214.843-103.805-237.289-215.081-5.612-30.618 15.231-59.743 48.099-64.97 4.008 0 7.215-0.748 11.223-0.748 28.059 0 53.71 18.67 59.322 45.555 12.828 64.225 68.142 114.26 137.083 124.716 32.868 4.483 55.314 33.608 49.702 64.226-4.81 30.619-36.076 51.529-68.941 46.302h0.801z" />
<glyph unicode="&#xe926;" glyph-name="Share" d="M824.87 334.208c-32.261-0.028-64.028-7.903-92.567-22.948-28.536-15.045-52.982-36.808-71.232-63.411l-277.716 125.399c19.725 47.631 19.802 101.133 0.212 148.82l277.335 126.036c27.044-39.114 67.213-67.241 113.219-79.276 46.006-12.037 94.802-7.183 137.539 13.676 42.734 20.861 76.577 56.346 95.391 100.022 18.811 43.674 21.348 92.646 7.148 138.030s-44.198 84.176-84.549 109.338c-40.353 25.162-88.387 35.029-135.391 27.809-47.002-7.219-89.861-31.046-120.801-67.158-30.943-36.112-47.913-82.118-47.841-129.672 0.182-11.256 1.324-22.475 3.415-33.536l-294.828-133.973c-28.316 26.529-63.764 44.209-101.991 50.87-38.226 6.659-77.566 2.007-113.185-13.386-35.619-15.391-65.966-40.852-87.314-73.254s-32.765-70.333-32.85-109.135c-0.085-38.802 11.166-76.785 32.37-109.281 21.205-32.494 51.44-58.089 86.991-73.636 35.551-15.549 74.87-20.372 113.125-13.883 38.255 6.492 73.783 24.015 102.214 50.422l295.596-133.463c-2.053-11.052-3.182-22.254-3.372-33.492-0.008-39.388 11.663-77.893 33.541-110.646 21.878-32.75 52.977-58.281 89.362-73.357 36.388-15.076 76.429-19.023 115.059-11.341 38.63 7.68 74.115 26.647 101.967 54.497 27.85 27.85 46.815 63.334 54.497 101.965 7.683 38.633 3.735 78.674-11.341 115.059-15.078 36.388-40.607 67.487-73.359 89.364-32.753 21.875-71.258 33.549-110.643 33.541zM824.87 874.665c22.508 0.008 44.511-6.658 63.229-19.157s33.311-30.267 41.93-51.059c8.62-20.792 10.88-43.673 6.492-65.749-4.385-22.076-15.219-42.357-31.132-58.275s-36.188-26.76-58.263-31.153c-22.075-4.396-44.956-2.145-65.751 6.467s-38.569 23.196-51.075 41.91c-12.506 18.715-19.182 40.717-19.182 63.225 0.023 30.165 12.014 59.089 33.339 80.423 21.327 21.334 50.245 33.335 80.412 33.369zM199.12 334.208c-22.508-0.010-44.513 6.656-63.231 19.156-18.719 12.498-33.31 30.267-41.929 51.059s-10.879 43.674-6.493 65.748c4.386 22.077 15.22 42.355 31.132 58.276 15.912 15.918 36.188 26.76 58.263 31.153 22.075 4.396 44.957 2.143 65.752-6.467 20.794-8.612 38.568-23.199 51.074-41.912s19.182-40.714 19.182-63.222c-0.033-30.162-12.029-59.080-33.352-80.412-21.325-21.332-50.237-33.336-80.398-33.38zM824.87 21.332c-22.508 0-44.508 6.674-63.219 19.177-18.714 12.503-33.298 30.275-41.912 51.069-8.612 20.792-10.865 43.671-6.474 65.746 4.39 22.072 15.227 42.348 31.142 58.263 15.913 15.913 36.191 26.752 58.263 31.142s44.954 2.138 65.746-6.477c20.792-8.612 38.564-23.196 51.069-41.91 12.503-18.714 19.177-40.714 19.177-63.219-0.023-30.172-12.019-59.103-33.354-80.438s-50.266-33.331-80.438-33.354z" />
<glyph unicode="&#xe927;" d="M858.655 720.247h-97.119c-1.797 132.611-112.404 239.753-249.085 239.753-136.684 0-247.291-107.142-249.088-239.753h-97.117c-35.070 0-63.845-28.102-63.845-62.353v-659.54c0-34.25 28.775-62.354 63.845-62.354h691.508c35.072 0 63.846 28.104 63.846 62.354v659.54c0 34.25-28.774 62.353-63.846 62.353h0.901zM512.451 872.178c86.326 0 157.366-67.623 159.163-151.931h-319.227c1.797 84.309 72.837 151.931 159.163 151.931h0.901zM832.576 23.821h-640.253v608.604h640.253v-608.604z" />
<glyph unicode="&#xe928;" d="M844.8 601.6c98.97 0 179.2 80.23 179.2 179.2s-80.23 179.2-179.2 179.2c-98.97 0-179.2-80.231-179.2-179.2s80.23-179.2 179.2-179.2z" />
<glyph unicode="&#xe929;" glyph-name="shoppingcart_default" d="M858.655 720.247h-97.119c-1.797 132.611-112.404 239.753-249.085 239.753-136.684 0-247.291-107.142-249.088-239.753h-97.117c-35.070 0-63.845-28.102-63.845-62.353v-659.54c0-34.25 28.775-62.354 63.845-62.354h691.508c35.072 0 63.846 28.104 63.846 62.354v659.54c0 34.25-28.774 62.353-63.846 62.353h0.901zM513.349 872.178c86.326 0 157.366-67.623 159.163-151.931h-319.227c1.8 84.309 72.837 151.931 159.165 151.931h0.899zM833.475 23.821h-641.151v608.604h639.354v-607.726l1.797-0.878z" />
<glyph unicode="&#xe92a;" glyph-name="size" d="M883.2 758.444l68.052-68.009c5.967-5.932 13.553-9.966 21.806-11.599 8.253-1.631 16.804-0.786 24.579 2.429 7.775 3.213 14.426 8.655 19.116 15.639s7.212 15.197 7.247 23.61v196.266c0 11.316-4.495 22.168-12.495 30.17-8.003 8.002-18.854 12.497-30.172 12.497h-196.564c-8.42-0.019-16.645-2.528-23.642-7.212s-12.452-11.334-15.677-19.112c-3.223-7.778-4.076-16.336-2.447-24.596s5.665-15.855 11.602-21.827l68.265-68.053-310.868-310.356-311.082 310.911 68.481 68.266c5.978 5.965 10.053 13.57 11.707 21.853s0.814 16.87-2.417 24.674c-3.231 7.804-8.704 14.474-15.729 19.164s-15.282 7.191-23.728 7.184l-196.565 0.085c-11.316 0-22.168-4.495-30.17-12.497s-12.497-18.854-12.497-30.17v-196.267c-0.041-8.466 2.438-16.752 7.121-23.805s11.358-12.554 19.176-15.8c7.818-3.249 16.426-4.099 24.728-2.44s15.923 5.75 21.893 11.753l67.883 67.668 310.911-310.868-310.698-310.444-68.266 68.052c-5.969 5.934-13.559 9.969-21.816 11.599s-16.812 0.783-24.588-2.437c-7.776-3.22-14.426-8.668-19.113-15.657-4.687-6.991-7.203-15.212-7.23-23.626v-196.268c0-11.315 4.495-22.17 12.497-30.17 8.002-8.003 18.854-12.498 30.17-12.498h196.565c8.376 0.061 16.55 2.583 23.5 7.258 6.953 4.675 12.375 11.29 15.59 19.026 3.218 7.734 4.086 16.243 2.499 24.468s-5.56 15.8-11.423 21.783l-68.055 68.18 310.655 310.444 310.7-310.4-68.268-68.268c-5.862-5.983-9.836-13.558-11.425-21.783-1.587-8.225-0.717-16.735 2.499-24.468 3.218-7.734 8.64-14.351 15.59-19.026 6.953-4.672 15.124-7.196 23.501-7.255h196.48c11.318 0 22.17 4.493 30.172 12.495 8 8.003 12.495 18.854 12.495 30.17v196.268c-0.003 8.438-2.504 16.684-7.194 23.7-4.687 7.014-11.351 12.48-19.146 15.711-7.795 3.228-16.371 4.073-24.648 2.427s-15.877-5.709-21.844-11.674l-67.712-68.009-310.868 310.4 310.868 310.441z" />
<glyph unicode="&#xe92b;" glyph-name="Sort" d="M805.245 489.769h-586.495c-17.587 0.013-34.79 5.138-49.517 14.751-14.727 9.615-26.341 23.301-33.43 39.396s-9.346 33.902-6.498 51.256c2.849 17.354 10.681 33.508 22.544 46.492l276.779 281.129c10.77 11.575 23.831 20.78 38.354 27.029s30.188 9.407 45.998 9.27c15.808-0.136 31.416-3.563 45.829-10.063s27.313-15.928 37.883-27.687l274.388-278.527c12.178-12.874 20.319-29.033 23.416-46.482 3.098-17.446 1.016-35.42-5.985-51.699-7.004-16.279-18.621-30.149-33.418-39.9s-32.125-14.953-49.848-14.966zM213.801 582.953c-0.385-0.714-0.586-1.513-0.586-2.324s0.201-1.61 0.586-2.324c0.339-1.001 1.001-1.856 1.882-2.437 0.881-0.579 1.93-0.847 2.982-0.763h586.58c1.052-0.084 2.102 0.184 2.982 0.763 0.881 0.581 1.544 1.436 1.882 2.437 0.525 0.922 0.719 1.997 0.548 3.044-0.172 1.050-0.694 2.007-1.485 2.716l-274.647 278.825c-2.744 3.335-6.18 6.034-10.068 7.912s-8.141 2.891-12.46 2.968c-4.019 0.033-8.003-0.792-11.681-2.417s-6.968-4.016-9.651-7.012l-276.863-281.387zM511.997-64.471c-15.982 0.008-31.785 3.379-46.377 9.902-14.592 6.52-27.648 16.041-38.316 27.945l-274.389 278.356c-12.184 12.869-20.329 29.025-23.43 46.472-3.1 17.449-1.020 35.423 5.984 51.699 7.004 16.279 18.625 30.147 33.426 39.892 14.801 9.743 32.133 14.938 49.854 14.94h586.495c17.58-0.010 34.778-5.13 49.498-14.735 14.723-9.605 26.335-23.283 33.423-39.37 7.089-16.084 9.349-33.884 6.505-51.231s-10.67-33.492-22.523-46.472l-276.78-281.132c-10.614-11.505-23.511-20.672-37.865-26.916s-29.852-9.428-45.507-9.352zM218.751 319.529c-1.031-0.005-2.038-0.307-2.9-0.873s-1.542-1.367-1.957-2.312c-0.415-0.942-0.548-1.987-0.383-3.003 0.165-1.019 0.622-1.966 1.315-2.729l274.644-278.784c2.739-3.351 6.17-6.067 10.061-7.959 3.889-1.894 8.143-2.918 12.467-3.005 4.029-0.020 8.015 0.819 11.692 2.46 3.679 1.638 6.966 4.045 9.644 7.053l277.033 281.6c0.389 0.707 0.594 1.498 0.594 2.304s-0.205 1.597-0.594 2.304c-0.346 0.991-1.011 1.838-1.892 2.412-0.881 0.571-1.925 0.835-2.972 0.748l-586.751-0.215z" />
<glyph unicode="&#xe92c;" glyph-name="Square" d="M810.668 960h-597.334c-56.579 0-110.842-22.476-150.849-62.484s-62.484-94.27-62.484-150.849v-597.334c0-28.014 5.518-55.754 16.239-81.638 10.721-25.882 26.435-49.4 46.245-69.21 40.008-40.008 94.27-62.484 150.849-62.484h597.334c28.014 0 55.754 5.517 81.638 16.238 25.882 10.721 49.4 26.437 69.21 46.246s35.525 43.328 46.246 69.21c10.721 25.884 16.238 53.624 16.238 81.638v597.334c0 28.015-5.517 55.756-16.238 81.639s-26.437 49.4-46.246 69.21c-19.809 19.81-43.328 35.524-69.21 46.245-25.884 10.721-53.624 16.239-81.638 16.239v0zM938.668 149.332c0-33.946-13.486-66.504-37.491-90.509s-56.563-37.491-90.509-37.491h-597.334c-33.948 0-66.505 13.486-90.51 37.491s-37.49 56.563-37.49 90.509v597.334c0 33.948 13.486 66.505 37.49 90.51s56.562 37.49 90.51 37.49h597.334c33.946 0 66.504-13.486 90.509-37.49s37.491-56.562 37.491-90.51v-597.334z" />
<glyph unicode="&#xe92d;" glyph-name="shipping" d="M85.3 580.3h256c21.2 0 38.4 17.2 38.4 38.4s-17.2 38.4-38.4 38.4h-256c-21.2 0-38.4-17.2-38.4-38.4s17.2-38.4 38.4-38.4zM972 467l-73 128-73 127.6c0 0 0 0.1-0.1 0.1-10.9 18.9-26.5 34.6-45.4 45.5-18.8 10.9-40.3 16.7-62 16.8h-40.2v89.7c0 21.2-17.2 38.4-38.4 38.4h-383.9c-75.7 0-145.6-41.1-182.4-107.2-10.3-18.5-3.7-41.9 14.8-52.2s41.9-3.7 52.2 14.8c23.3 41.8 67.5 67.8 115.4 67.8h345.6v-388.3c0-24.3-18.5-44.3-42.1-46.7-1.6-0.2-3.2-0.2-4.8-0.2h-42.7c-1.3 0-2.6-0.1-3.9-0.2-19.4-2-34.5-18.3-34.5-38.2 0-21.2 17.2-38.4 38.4-38.4h42.7c4.3 0 8.5 0.2 12.6 0.6 62.3 6.3 111.1 59.1 111.1 123.1v260.3h40c8.3 0 16.5-2.3 23.7-6.4 7.2-4.2 13.2-10.2 17.3-17.4l40.5-70.8c-0.3 0-0.6-0.1-0.9-0.1-0.6-0.1-1.1-0.2-1.6-0.3-0.7-0.1-1.5-0.3-2.2-0.4-0.5-0.1-1.1-0.2-1.6-0.3-0.7-0.2-1.5-0.3-2.2-0.5-0.5-0.1-1.1-0.3-1.6-0.4-0.7-0.2-1.4-0.4-2.2-0.6-0.5-0.2-1-0.3-1.5-0.5-0.7-0.2-1.5-0.5-2.2-0.7-0.5-0.2-1-0.3-1.4-0.5-0.8-0.3-1.5-0.6-2.3-0.9-0.4-0.2-0.8-0.3-1.3-0.5-0.9-0.4-1.8-0.8-2.7-1.2-0.3-0.1-0.5-0.2-0.8-0.4-1.1-0.5-2.3-1.1-3.4-1.7-0.3-0.1-0.5-0.3-0.8-0.5-0.8-0.5-1.6-0.9-2.5-1.4-0.4-0.2-0.8-0.5-1.2-0.7-0.7-0.4-1.3-0.8-2-1.3-0.4-0.3-0.8-0.6-1.3-0.9-0.6-0.4-1.2-0.8-1.8-1.3-0.4-0.3-0.9-0.6-1.3-1-0.6-0.4-1.1-0.9-1.7-1.3-0.4-0.3-0.8-0.7-1.3-1-0.5-0.5-1.1-0.9-1.6-1.4-0.4-0.4-0.8-0.7-1.2-1.1-0.5-0.5-1-1-1.5-1.5-0.4-0.4-0.8-0.8-1.2-1.2-0.5-0.5-1-1-1.5-1.5-0.4-0.4-0.7-0.8-1.1-1.2-0.5-0.5-1-1.1-1.4-1.7-0.3-0.4-0.7-0.8-1-1.2-0.5-0.6-1-1.2-1.4-1.8-0.3-0.4-0.6-0.8-0.9-1.1-0.5-0.7-1-1.4-1.5-2.1-0.2-0.3-0.4-0.6-0.6-0.9-0.7-1-1.4-2.1-2-3.2-0.1-0.2-0.2-0.4-0.3-0.6-0.5-0.9-1-1.8-1.5-2.7-0.2-0.4-0.4-0.8-0.6-1.2-0.4-0.7-0.8-1.4-1.1-2.2-0.2-0.5-0.4-0.9-0.6-1.4-0.3-0.7-0.6-1.4-0.9-2.1-0.2-0.5-0.4-1-0.6-1.5-0.3-0.7-0.5-1.4-0.8-2-0.2-0.5-0.4-1-0.6-1.6-0.2-0.7-0.5-1.4-0.7-2.1-0.2-0.5-0.3-1.1-0.5-1.6-0.2-0.7-0.4-1.4-0.6-2.1-0.1-0.5-0.3-1.1-0.4-1.6-0.2-0.7-0.3-1.4-0.5-2.1-0.1-0.5-0.2-1.1-0.3-1.6-0.1-0.7-0.3-1.5-0.4-2.2-0.1-0.5-0.2-1.1-0.3-1.6-0.1-0.8-0.2-1.6-0.3-2.4-0.1-0.5-0.1-1-0.2-1.5-0.1-0.9-0.1-1.8-0.2-2.7 0-0.4-0.1-0.9-0.1-1.3-0.1-1.3-0.1-2.7-0.1-4v0-128c0-44.7 36.4-81.1 81.1-81.1h89.6v-89.6c0-24-9.3-46.5-26.2-63.4s-39.4-26.2-63.4-26.2h-10.3c-6 18.3-16.2 35.1-30.2 49.1-20.9 20.9-47.9 33.4-77.1 35.8-0.1 0-0.3 0-0.4 0-1.5 0.1-3 0.2-4.5 0.3-0.3 0-0.6 0-0.8 0-1.5 0.1-3 0.1-4.5 0.1h-0.2c-1.5 0-3 0-4.5-0.1-0.3 0-0.6 0-0.8 0-1.5-0.1-3-0.2-4.6-0.3-0.1 0-0.3 0-0.4 0-29.1-2.4-56.2-14.9-77.1-35.8-14-14-24.2-30.8-30.2-49.1h-106.1c-6 18.3-16.2 35.1-30.2 49.1-20.9 20.9-47.9 33.4-77.1 35.8-0.1 0-0.3 0-0.4 0-1.5 0.1-3 0.2-4.6 0.3-0.3 0-0.6 0-0.8 0-1.5 0.1-3 0.1-4.5 0.1h-0.2c-1.5 0-3 0-4.5-0.1-0.3 0-0.6 0-0.8 0-1.5-0.1-3-0.2-4.6-0.3-0.1 0-0.3 0-0.4 0-29.1-2.4-56.2-14.9-77.1-35.8-14-14-24.2-30.8-30.2-49.1h-10.3c-24 0-46.5 9.3-63.4 26.2s-26.2 39.4-26.2 63.4c0 21.2-17.2 38.4-38.4 38.4s-38.4-17.2-38.4-38.4c0-44.5 17.3-86.3 48.7-117.7s73.2-48.7 117.7-48.7h10.3c6-18.3 16.2-35.1 30.2-49.1 23.4-23.4 54.4-36.2 87.5-36.2s64.1 12.9 87.5 36.2c14 14 24.2 30.8 30.2 49.1h106c6-18.3 16.2-35.1 30.2-49.1 23.4-23.4 54.4-36.2 87.5-36.2 33 0 64.1 12.9 87.5 36.2 14 14 24.2 30.8 30.2 49.1h10.3c44.5 0 86.3 17.3 117.7 48.7s48.7 73.2 48.7 117.7v213.4c0 6.7-1.8 13.2-5.1 19zM374.5 73.5c-8.9-8.9-20.6-13.7-33.2-13.7s-24.3 4.9-33.2 13.7c-8.9 8.9-13.7 20.6-13.7 33.2v0c0 0.8 0 1.6 0.1 2.4 0 0.1 0 0.3 0 0.4 0 0.7 0.1 1.3 0.2 2v0.1c2.3 21.9 19.7 39.4 41.6 41.8 0.1 0 0.2 0 0.3 0 0.6 0.1 1.1 0.1 1.7 0.1 0.2 0 0.5 0 0.7 0 0.5 0 1 0 1.4 0 0.3 0 0.6 0 0.9 0s0.6 0 0.9 0c0.5 0 1 0 1.4 0 0.2 0 0.5 0 0.7 0 0.6 0 1.1-0.1 1.7-0.1 0.1 0 0.2 0 0.3 0 21.9-2.4 39.3-19.8 41.6-41.8v-0.1c0.1-0.7 0.1-1.3 0.2-2 0-0.1 0-0.3 0-0.4 0-0.8 0.1-1.6 0.1-2.4v0c0.1-12.6-4.8-24.4-13.7-33.2zM715.9 73.5c-8.9-8.9-20.7-13.7-33.2-13.7s-24.3 4.9-33.2 13.7c-8.9 8.9-13.7 20.6-13.7 33.2v0c0 0.8 0 1.6 0.1 2.4 0 0.1 0 0.3 0 0.4 0 0.7 0.1 1.3 0.2 2v0.1c2.3 21.9 19.7 39.4 41.6 41.8 0.1 0 0.2 0 0.3 0 0.6 0.1 1.1 0.1 1.7 0.1 0.2 0 0.5 0 0.7 0 0.5 0 1 0 1.4 0 0.3 0 0.6 0 0.9 0s0.6 0 0.9 0c0.5 0 1 0 1.4 0 0.2 0 0.5 0 0.7 0 0.6 0 1.1-0.1 1.7-0.1 0.1 0 0.2 0 0.3 0 21.9-2.4 39.4-19.8 41.6-41.8v-0.1c0.1-0.7 0.1-1.3 0.2-2 0-0.1 0-0.2 0-0.4 0-0.8 0.1-1.6 0.1-2.4v0c0-12.6-4.9-24.4-13.7-33.2zM810.7 401.1c-2.3 0-4.3 2-4.3 4.3v128c0 2.3 2 4.3 4.3 4.3h32.7l56.9-99.8v-36.8h-89.6zM85.3 452.3h170.7c21.2 0 38.4 17.2 38.4 38.4s-17.2 38.4-38.4 38.4h-170.7c-21.2 0-38.4-17.2-38.4-38.4s17.2-38.4 38.4-38.4zM85.3 324.3h85.3c21.2 0 38.4 17.2 38.4 38.4s-17.2 38.4-38.4 38.4h-85.3c-21.2 0-38.4-17.2-38.4-38.4s17.2-38.4 38.4-38.4z" />
<glyph unicode="&#xe92e;" glyph-name="star_full" d="M279.89 331.092l-47.361-276.908c-1.28-8.105 1.92-16 8.533-20.905 6.614-4.695 15.36-5.335 22.4-1.708l248.532 130.988 248.535-130.775c3.2-1.705 6.612-2.345 10.025-2.345 4.48 0 8.748 1.28 12.588 4.052 6.612 4.692 9.812 12.8 8.532 20.908l-47.36 276.905 201.175 196.055c5.76 5.76 7.892 14.080 5.332 21.972-2.56 7.68-9.172 13.44-17.28 14.508l-277.972 40.32-124.375 251.519c-7.252 14.506-31.145 14.506-38.185 0l-124.375-251.735-277.972-40.532c-8.106-1.068-14.72-6.828-17.28-14.508s-0.426-16.212 5.334-21.972l201.174-195.84zM385.702 563.2c7.040 1.065 13.012 5.332 16 11.732l110.292 223.147 110.080-223.147c3.2-6.4 9.175-10.668 16-11.732l246.188-35.84-178.132-173.655c-5.12-4.905-7.255-11.945-6.188-18.985l42.028-245.335-220.16 115.84c-3.2 1.708-6.615 2.348-10.028 2.348s-6.828-0.852-10.028-2.348l-219.945-115.625 42.025 245.332c1.28 6.828-1.065 14.080-6.185 18.988l-178.134 173.652 246.186 35.628zM385.702 563.2c7.040 1.065 13.012 5.332 16 11.732l110.292 223.147 110.080-223.147c3.2-6.4 9.175-10.668 16-11.732l246.188-35.84-178.132-173.655c-5.12-4.905-7.255-11.945-6.188-18.985l42.028-245.335-220.16 115.84c-3.2 1.708-6.615 2.348-10.028 2.348s-6.828-0.852-10.028-2.348l-219.945-115.625 42.025 245.332c1.28 6.828-1.065 14.080-6.185 18.988l-178.134 173.652 246.186 35.628z" />
<glyph unicode="&#xe92f;" glyph-name="star_half" d="M401.702 574.932c-2.988-6.4-8.96-10.668-16-11.732l-246.186-35.628 178.134-173.652c5.12-4.908 7.465-12.16 6.185-18.988l-42.025-245.332 219.945 115.625c3.2 1.495 6.615 2.348 10.028 2.348l0.212 590.507-110.292-223.147zM511.995 866.559v-68.48l110.080-223.147c3.2-6.4 9.175-10.668 16-11.732l246.188-35.84-178.132-173.655c-5.12-4.905-7.255-11.945-6.188-18.985l42.028-245.335-220.16 115.84c-3.133 1.672-6.472 2.319-9.815 2.348v-45.012l248.535-130.775c3.2-1.705 6.612-2.345 10.025-2.345 4.48 0 8.748 1.28 12.588 4.052 6.612 4.692 9.812 12.8 8.532 20.908l-47.36 276.905 201.175 196.055c5.76 5.76 7.892 14.080 5.332 21.972-2.56 7.68-9.172 13.44-17.28 14.508l-277.972 40.32-124.375 251.519c-3.63 7.261-11.43 10.888-19.2 10.88zM279.89 331.092l-47.361-276.908c-1.28-8.105 1.92-16 8.533-20.905 6.614-4.695 15.36-5.335 22.4-1.708l248.532 130.988v45.012h-0.212c-3.412 0-6.828-0.852-10.028-2.348l-219.945-115.625 42.025 245.332c1.28 6.828-1.065 14.080-6.185 18.988l-178.134 173.652 246.186 35.628c7.040 1.065 13.012 5.332 16 11.732l110.292 223.147v68.48c-7.749-0.008-15.47-3.635-18.985-10.88l-124.375-251.735-277.972-40.532c-8.106-1.068-14.72-6.828-17.28-14.508s-0.426-16.212 5.334-21.972l201.174-195.84z" />
<glyph unicode="&#xe930;" glyph-name="Support" d="M883.935 655.741h-259.809v181.551c0 67.453-55.882 122.708-124.101 122.708h-375.925c-68.218 0-124.099-55.254-124.099-122.708v-248.285c0-67.453 55.881-122.708 124.099-122.708l1.451-56.689c0-26.552 15.966-49.516 40.641-59.561 7.983-3.589 16.692-5.023 25.4-5.023 17.417 0 34.109 6.459 46.447 18.657l60.235 59.558v-201.641c0-76.782 63.137-138.496 140.065-138.496h193.044l128.453-127.012c13.064-12.918 31.206-20.093 49.349-20.093 8.709 0 18.143 1.436 26.852 5.023 26.125 10.765 42.819 35.881 42.819 63.148v78.935h5.079c77.652 0 140.065 62.431 140.065 138.496v294.927c0 76.782-63.137 138.496-140.065 138.496v0.717zM198.123 426.115v76.063c0 20.093-15.966 35.881-36.286 35.881h-37.738c-28.303 0-51.527 22.963-51.527 50.949v248.285c0 27.986 23.223 50.949 51.527 50.949h375.925c28.303 0 51.528-22.963 51.528-50.949v-181.551h-113.213c-74.025 0-134.259-57.405-139.338-129.884l-100.877-99.743zM951.427 221.601c0-37.315-30.479-66.737-67.492-66.737h-41.367c-20.319 0-36.285-15.788-36.285-35.878l5.079-112.663-139.338 137.777c-6.533 6.459-15.967 10.765-25.4 10.765h-208.284c-37.737 0-67.492 30.139-67.492 66.737v294.927c0 37.315 30.479 66.737 67.492 66.737h444.872c37.737 0 67.492-30.139 67.492-66.737v-294.927h0.724zM773.12 417.92c-22.4 0-40.32-17.92-40.32-40.32s17.92-40.32 40.32-40.32c22.4 0 40.32 17.92 40.32 40.32s-17.92 40.32-40.32 40.32zM643.195 417.92c-22.4 0-40.32-17.92-40.32-40.32s17.92-40.32 40.32-40.32c22.4 0 40.32 17.92 40.32 40.32s-17.92 40.32-40.32 40.32zM513.283 337.92c22.267 0 40.32 18.051 40.32 40.32 0 22.267-18.053 40.32-40.32 40.32s-40.32-18.053-40.32-40.32c0-22.269 18.053-40.32 40.32-40.32z" />
<glyph unicode="&#xe931;" glyph-name="trash" d="M896.005 789.333h-132.268c-9.902 48.153-36.104 91.42-74.186 122.508s-85.719 48.097-134.881 48.159h-85.332c-49.16-0.062-96.796-17.071-134.881-48.159-38.083-31.088-64.282-74.355-74.186-122.508h-132.266c-11.316 0-22.168-4.495-30.17-12.497s-12.497-18.854-12.497-30.17c0-11.316 4.495-22.168 12.497-30.17s18.854-12.497 30.17-12.497h42.667v-554.668c0.068-56.558 22.566-110.781 62.559-150.774 39.994-39.992 94.215-62.492 150.776-62.559h256c56.558 0.067 110.781 22.566 150.774 62.559s62.492 94.216 62.559 150.774v554.668h42.668c11.315 0 22.167 4.495 30.17 12.497 8 8.002 12.495 18.854 12.495 30.17s-4.495 22.168-12.495 30.17c-8.003 8.002-18.854 12.497-30.17 12.497zM469.338 874.667h85.332c26.465-0.032 52.273-8.251 73.884-23.528 21.609-15.277 37.965-36.866 46.82-61.805h-326.74c8.858 24.939 25.211 46.528 46.822 61.805 21.609 15.278 47.416 23.496 73.882 23.528zM768.005 149.332c0-33.946-13.486-66.504-37.491-90.509s-56.563-37.491-90.509-37.491h-256c-33.948 0-66.506 13.486-90.511 37.491s-37.489 56.563-37.489 90.509v554.668h512v-554.668zM426.668 191.997c11.315 0 22.167 4.495 30.17 12.498 8 8 12.495 18.854 12.495 30.17v256c0 11.315-4.495 22.167-12.495 30.17-8.003 8.003-18.854 12.498-30.17 12.498-11.318 0-22.17-4.495-30.17-12.498-8.003-8.003-12.498-18.854-12.498-30.17v-256c0-11.315 4.495-22.17 12.498-30.17 8-8.003 18.852-12.498 30.17-12.498zM597.33 191.997c11.315 0 22.167 4.495 30.17 12.498 8 8 12.495 18.854 12.495 30.17v256c0 11.315-4.495 22.167-12.495 30.17-8.003 8.003-18.854 12.498-30.17 12.498-11.318 0-22.17-4.495-30.17-12.498-8.003-8.003-12.498-18.854-12.498-30.17v-256c0-11.315 4.495-22.17 12.498-30.17 8-8.003 18.852-12.498 30.17-12.498z" />
<glyph unicode="&#xe932;" glyph-name="user" d="M512 448c50.632 0 100.127 15.014 142.226 43.144s74.911 68.111 94.287 114.89c19.377 46.776 24.445 98.25 14.569 147.909-9.879 49.659-34.26 95.274-70.062 131.076-35.804 35.802-81.418 60.184-131.077 70.062s-101.133 4.808-147.909-14.568c-46.779-19.376-86.761-52.188-114.89-94.287s-43.144-91.594-43.144-142.226c0.067-67.876 27.062-132.951 75.057-180.943 47.992-47.995 113.068-74.99 180.943-75.057zM512 874.666c33.754 0 66.752-10.009 94.817-28.762s49.94-45.408 62.858-76.593c12.918-31.185 16.297-65.501 9.713-98.607-6.587-33.106-22.84-63.516-46.71-87.386-23.867-23.867-54.277-40.12-87.383-46.707-33.106-6.584-67.42-3.205-98.606 9.713s-57.841 34.793-76.593 62.858c-18.755 28.065-28.764 61.064-28.764 94.817 0 45.264 17.981 88.673 49.989 120.679 32.005 32.006 75.415 49.987 120.678 49.987zM512 362.668c-101.809-0.113-199.414-40.604-271.404-112.594s-112.483-169.597-112.596-271.406c0-11.315 4.495-22.167 12.497-30.17 8.002-8 18.854-12.495 30.17-12.495s22.168 4.495 30.17 12.495c8.002 8.003 12.497 18.854 12.497 30.17 0 79.212 31.467 155.18 87.477 211.19 56.010 56.013 131.978 87.478 211.19 87.478s155.18-31.465 211.19-87.478c56.010-56.010 87.478-131.978 87.478-211.19 0-11.315 4.495-22.167 12.495-30.17 8.003-8 18.854-12.495 30.17-12.495 11.318 0 22.17 4.495 30.17 12.495 8.003 8.003 12.498 18.854 12.498 30.17-0.113 101.809-40.607 199.416-112.596 271.406s-169.595 112.481-271.404 112.594z" />
<glyph unicode="&#xe933;" glyph-name="Worldwide" d="M1020.37 390.628c2.179 18.883 3.63 38.49 3.63 57.372 0 201.17-116.925 375.467-286.139 458.984-1.452 1.453-3.633 1.453-5.084 2.179-66.813 31.955-141.617 50.837-220.777 50.837-83.517 0-161.951-20.335-230.945-55.921-2.906-1.452-5.084-2.179-7.263-3.631-162.677-85.697-273.792-256.362-273.792-452.448 0-74.803 16.704-145.974 45.753-209.884 1.453-5.084 3.631-10.166 7.262-14.525 76.982-156.867 230.945-268.708 412.505-285.412 15.25-1.452 30.502-2.179 46.479-2.179 262.172 0 478.592 197.537 508.37 451.722 0 0.727 0 1.452 0 2.906zM894.73 663.693c-26.872 0-60.28-5.084-106.033-21.061-21.061-7.263-50.836-13.071-73.349 0-15.98 9.441-26.872 27.599-29.778 50.112-5.809 42.121 21.788 100.221 43.576 137.259 68.992-39.217 127.091-97.316 166.308-167.035l-0.724 0.724zM270.889 814.752c9.441-35.586 25.418-80.613 45.752-106.031 39.217-47.931 87.148-70.446 125.64-88.602 54.469-26.145 52.288-35.587 48.658-46.479-3.63-10.168-7.263-17.428-56.648-16.704-46.479 0.727-109.66 1.454-155.415-58.826-33.407-44.298-31.954-95.137-31.228-135.078 1.453-51.564 0-76.982-35.586-98.043-32.681-18.883-78.434-4.357-103.126 6.536-23.966 53.742-37.038 113.293-37.038 176.476 0 153.236 79.16 288.318 198.264 366.752h0.727zM161.952 183.649c4.357 0 8.715-0.727 13.799-0.727 23.966 0 49.384 5.084 74.076 18.883 74.804 43.574 73.35 112.566 71.899 162.678-0.727 34.86-1.454 65.362 16.704 90.053 21.786 29.051 50.836 30.502 95.862 29.775 42.849-0.724 106.76-1.452 127.818 68.995 23.967 79.885-39.941 110.387-87.148 132.902-34.132 15.977-71.898 34.132-100.948 68.992-13.798 16.703-27.597 59.552-36.311 95.864 53.742 23.24 113.293 37.038 175.749 37.038 53.018 0 103.854-10.167 150.333-26.871-24.694-43.574-58.099-114.746-49.385-177.929 6.536-43.574 29.775-80.612 63.91-101.673 15.977-9.441 39.217-18.883 70.444-18.883 18.883 0 40.671 3.63 65.362 12.344 62.456 21.788 92.234 18.883 116.198 12.347 13.798-42.847 21.788-88.602 22.515-135.808-50.839 19.61-129.999 38.492-194.634 0-61.729-36.311-64.635-91.505-67.54-131.448-2.179-34.132-4.357-52.291-23.24-66.813-32.681-23.967-53.742-23.967-81.339-23.967-26.87 0-61.729 0-103.127-23.24-68.992-38.492-76.255-119.104-65.359-185.193-103.854 23.242-193.181 82.793-254.912 164.859l-0.726-2.179zM512.727 7.898c-6.536 0-12.347 0-18.883 0.727-8.714 36.311-20.334 107.484 23.24 131.448 25.418 13.798 42.847 14.525 68.265 13.798 32.681 0 73.352 0 124.915 38.492 47.204 34.86 50.109 84.244 52.288 120.556 2.179 38.492 4.357 57.372 31.229 73.352 45.028 26.143 112.568 4.357 151.785-13.801-35.587-206.979-215.695-365.299-432.84-365.299v0.727z" />
<glyph unicode="&#xe934;" glyph-name="Empty-Card" d="M758.403 646.399h-69.12c-1.28 96.64-80 174.72-177.28 174.72s-176-78.080-177.28-174.72h-69.12c-24.96 0-45.44-20.48-45.44-45.44v-480.64c0-24.96 20.48-45.44 45.44-45.44h492.16c24.96 0 45.44 20.48 45.44 45.44v480.64c0 24.96-20.48 45.44-45.44 45.44h0.64zM512.643 757.119c61.44 0 112-49.28 113.28-110.72h-227.2c1.28 61.44 51.84 110.72 113.28 110.72h0.64zM740.483 138.879h-456.32v443.52h455.040v-442.88l1.28-0.64zM419.843 396.8c-16.64 0-30.080-16.64-30.080-37.12s13.44-37.12 30.080-37.12c16.64 0 30.080 16.64 30.080 37.12s-13.44 37.12-30.080 37.12zM604.155 396.8c-16.64 0-30.080-16.64-30.080-37.12s13.44-37.12 30.080-37.12c16.64 0 30.080 16.64 30.080 37.12s-13.44 37.12-30.080 37.12zM561.915 251.519h-99.84c-8.96 0-16-7.040-16-16s7.040-16 16-16h99.84c8.96 0 16 7.040 16 16s-7.040 16-16 16z" />
<glyph unicode="&#xe935;" glyph-name="tiktok" d="M414.717-0.64c-163.2 0-295.68 132.48-295.68 295.68s132.48 295.68 295.68 295.68c17.28 0 31.36-14.080 31.36-31.36v-138.88c0-17.28-14.080-31.36-31.36-31.36-51.2 0-93.44-41.6-93.44-93.44s41.6-93.44 93.44-93.44c51.84 0 93.44 41.6 93.44 93.44v568.96c0 17.28 14.083 31.36 31.363 31.36h138.88c17.28 0 31.36-14.080 31.36-31.36 0-89.6 72.96-162.56 162.56-162.56 17.28 0 31.36-14.080 31.36-31.36v-138.88c0-17.28-14.080-31.36-31.36-31.36-56.96 0-112.64 12.8-162.56 38.4v-242.56c0-163.2-132.48-295.68-295.683-295.68l0.64-1.28zM383.357 525.44c-113.28-15.36-200.96-112.64-200.96-230.4 0-128 104.32-232.32 232.32-232.32 128.003 0 232.323 104.32 232.323 232.32v298.88c0 12.16 6.4 23.040 17.28 28.16s23.040 4.48 32.64-2.56c42.88-30.72 92.16-49.92 144.64-55.040v76.16c-99.2 14.080-178.56 92.8-192 192h-78.080v-538.24c0-86.4-70.403-156.8-156.803-156.8s-156.8 70.4-156.8 156.8c0 75.52 53.76 138.88 124.8 153.6v76.8l0.64 0.64z" />
<glyph unicode="&#xe936;" glyph-name="pinterest" d="M392.325-1.285c-5.76 0-11.52 0-16.64 1.92-23.040 4.48-42.88 17.28-55.68 37.12-13.44 19.2-17.92 42.88-13.44 65.92l91.52 471.683c9.6 47.36 55.68 78.080 103.040 69.12s78.72-55.68 69.12-103.040l-27.52-140.163c37.76 8.32 71.040 28.16 95.36 56.963 30.72 37.12 42.88 83.84 33.92 131.84-12.16 65.28-65.92 118.4-130.56 129.28-49.28 8.32-96.64-4.48-133.76-35.84-36.48-30.72-57.6-76.16-57.6-124.16v-1.28c-1.28-46.72-40.32-84.48-87.68-84.48s-87.68 38.4-87.68 85.76c0 102.4 45.44 198.4 125.44 262.4 79.36 64.64 184.32 88.96 286.080 67.84 126.72-26.88 229.76-129.92 256.64-256.64 21.76-102.4-3.2-206.723-67.84-286.083s-160-125.44-262.4-125.44c-1.28 0-3.2 0-4.48 0l-29.44-151.68c-4.48-23.040-17.92-42.88-37.12-55.68-14.72-9.6-31.36-14.72-48.64-14.72l-0.64-0.64zM483.845 581.117c-10.88 0-21.12-7.68-23.040-19.2l-91.52-471.683c-1.28-6.4 0-12.8 3.84-17.92 3.2-5.12 8.96-8.96 15.36-9.6 12.8-2.56 24.96 5.76 27.52 18.56l34.56 178.56c3.2 16 16.64 28.16 34.56 25.6 88.96-8.96 182.4 28.16 240 99.84 52.48 64.643 72.32 149.123 54.4 232.323-21.76 102.4-104.96 185.6-207.36 207.36-83.2 17.92-167.68-2.56-232.32-54.4-64.64-52.48-101.76-129.92-101.76-213.12 0-12.16 10.24-21.76 23.68-21.76s23.68 10.24 23.68 22.4c0 66.56 29.44 129.28 80.64 172.16s119.040 61.44 185.6 49.92c90.88-15.36 165.76-89.6 183.040-180.48 12.16-66.56-5.12-133.76-48-184.323-44.8-53.76-111.36-83.84-184.32-83.84-9.6 0-18.56 4.48-24.96 11.52s-8.32 17.28-7.040 26.24l35.2 183.043c1.28 6.4 0 12.8-3.84 17.92-3.2 5.12-8.96 8.96-15.36 10.24-1.28 0-3.2 0-4.48 0l1.92 0.64z" />
<glyph unicode="&#xe937;" glyph-name="instagram" d="M712.315 22.4h-400.64c-123.52 0-224 100.48-224 224v403.2c0 123.52 100.48 224 224 224h400.64c123.52 0 224-100.48 224-224v-403.84c0-123.52-100.48-224-224-224v0.64zM311.675 809.6c-88.32 0-160-71.68-160-160v-403.84c0-88.32 71.68-160 160-160h400.64c88.32 0 160 71.68 160 160v403.84c0 88.32-71.68 160-160 160h-400.64zM511.995 218.885c-126.080 0-229.12 102.4-229.12 229.12s102.4 229.12 229.12 229.12c126.72 0 229.12-102.4 229.12-229.12s-102.4-229.12-229.12-229.12zM511.995 612.485c-90.88 0-165.12-74.24-165.12-165.12s74.24-165.12 165.12-165.12c90.88 0 165.12 74.24 165.12 165.12s-74.24 165.12-165.12 165.12zM745.605 643.84c25.452 0 46.080 20.631 46.080 46.080s-20.628 46.080-46.080 46.080c-25.452 0-46.080-20.631-46.080-46.080s20.628-46.080 46.080-46.080z" />
<glyph unicode="&#xe938;" glyph-name="facebook" d="M563.84-5.76h-133.76c-30.080 0-54.4 24.32-54.4 54.4v305.28h-71.68c-30.080 0-54.4 24.32-54.4 54.4v135.683c0 30.080 24.32 54.4 54.4 54.4h71.68v74.24c-1.28 60.8 21.76 118.4 65.28 161.92 42.88 43.52 100.48 67.2 161.28 67.2h119.040c30.080 0 54.4-24.32 54.4-54.4v-120.96c0-30.080-24.32-54.4-54.4-54.4h-85.12c-9.6 0-17.28-7.68-17.28-17.28v-60.8h89.6c30.080 0 54.4-24.32 54.4-54.4v-126.723c0-30.080-24.32-54.4-54.4-54.4h-89.6v-309.76c0-30.080-24.32-54.4-54.4-54.4h-0.64zM439.68 58.24h114.56v309.76c0 30.080 24.32 54.4 54.4 54.4h89.6v107.523h-89.6c-30.080 0-54.4 24.32-54.4 54.4v70.4c0 44.8 36.48 81.28 81.28 81.28h75.52v101.76h-109.44c-44.16 0-85.12-17.28-115.84-48s-47.36-72.32-47.36-116.48v-84.48c0.64-14.72-4.48-28.16-14.72-39.040-10.24-10.24-24.32-16-38.4-16h-71.68v-116.483h71.68c30.080 0 54.4-24.32 54.4-54.4v-304.64z" />
<glyph unicode="&#xe939;" glyph-name="size-h" horiz-adv-x="256" d="M217.6 80l-73.6-73.6v883.2l73.6-73.6c6.4-6.4 16-6.4 22.4 0s6.4 16 0 22.4l-99.2 102.4c-6.4 6.4-16 6.4-22.4 0l-102.4-102.4c-6.4-6.4-6.4-16 0-22.4s16-6.4 22.4 0l73.6 73.6v-883.2l-73.6 73.6c-6.4 6.4-16 6.4-22.4 0s-6.4-16 0-22.4l99.2-102.4c6.4-6.4 16-6.4 22.4 0l102.4 102.4c6.4 6.4 6.4 16 0 22.4s-16 6.4-22.4 0z" />
<glyph unicode="&#xe93a;" glyph-name="size-w" horiz-adv-x="3968" d="M3955.2 499.2l-409.6 409.6c-25.6 25.6-64 25.6-89.6 0s-25.6-76.8 0-102.4l294.4-294.4h-3532.8l294.4 294.4c25.6 25.6 25.6 64 0 89.6s-64 25.6-89.6 0l-409.6-396.8c-12.8-25.6-12.8-76.8 0-102.4l409.6-409.6c25.6-25.6 64-25.6 89.6 0s25.6 76.8 0 102.4l-294.4 294.4h3532.8l-294.4-294.4c-25.6-25.6-25.6-64 0-89.6s64-25.6 89.6 0l409.6 409.6c12.8 12.8 12.8 64 0 89.6z" />
<glyph unicode="&#xe93b;" glyph-name="circle-check" d="M473.801 958.554c-266.7-19.966-473.77-243.131-473.778-510.577 0-282.15 229.827-511.977 511.977-511.977s511.977 229.827 511.977 511.977c-0.010 297.048-253.956 532.752-550.175 510.577zM481.4 856.358c238.342 17.843 440.172-169.373 440.18-408.381 0-226.812-182.77-409.581-409.581-409.581s-409.581 182.77-409.581 409.581c0.007 214.817 164.766 392.345 378.982 408.381zM665.592 601.57c-14.137-0.002-26.935-5.733-36.199-14.999l-168.592-168.592-66.197 66.197c-9.265 9.262-22.062 14.992-36.199 14.992s-26.934-5.729-36.199-14.992v0c-9.262-9.265-14.992-22.062-14.992-36.199s5.729-26.934 14.992-36.199l102.395-102.395c9.265-9.261 22.063-14.99 36.199-14.99s26.933 5.729 36.199 14.99l204.79 204.79c9.262 9.265 14.992 22.062 14.992 36.199s-5.729 26.934-14.992 36.199v0c-9.264 9.266-22.061 14.997-36.198 14.999v0z" />
<glyph unicode="&#xe93c;" glyph-name="message" d="M307.201 678.383c-28.277 0-51.2-22.924-51.2-51.2v0c0-28.277 22.924-51.2 51.2-51.2v0h409.599c28.277 0 51.2 22.924 51.2 51.2v0c0 28.277-22.924 51.2-51.2 51.2v0zM307.201 473.583c-28.277 0-51.2-22.924-51.2-51.2v0c0-28.277 22.924-51.2 51.2-51.2v0h307.2c28.277 0 51.2 22.924 51.2 51.2v0c0 28.277-22.924 51.2-51.2 51.2v0zM204.801 934.383c-112.501 0-204.8-92.299-204.8-204.8v-409.599c0-112.501 92.299-204.8 204.8-204.8h51.2v-102.4c0.022-28.264 22.939-51.167 51.205-51.167 9.709 0 18.787 2.702 26.522 7.396l-0.228-0.128 243.9 146.3h241.8c112.501 0 204.8 92.299 204.8 204.8v409.599c0 112.501-92.299 204.8-204.8 204.8zM204.801 831.983h614.4c57.161 0 102.4-45.24 102.4-102.4v-409.599c0-57.161-45.24-102.4-102.4-102.4h-255.999c-9.714-0.010-18.793-2.723-26.526-7.428l0.227 0.128-178.5-107.1v63.2c-0.002 28.276-22.924 51.197-51.199 51.2h-102.401c-57.161 0-102.4 45.24-102.4 102.4v409.599c0 57.161 45.24 102.4 102.4 102.4z" />
<glyph unicode="&#xe93d;" glyph-name="thumb-up" d="M592.84 933.166c-38.924 0-78.572-12.685-109.895-40.526s-51.789-71.755-51.789-121.158v-53.895c0-89.934-71.75-161.684-161.684-161.684h-161.684c-58.892 0-107.789-48.897-107.789-107.789v-377.263c0-58.892 48.897-107.789 107.789-107.789h107.789c36.413 0 63.898 21.599 83.473 49.79 36.889-29.48 81.578-49.79 132.105-49.79l372.738 0.21c41.644-3.543 80.853 14.747 108.527 42.421s46.324 64.564 56.211 106.737c0.073 0.224 0.219 0.825 0.354 1.43l0.067 0.359 53.895 269.473c0.664 3.163 1.047 6.798 1.053 10.522v0.004c0 88.657-73.027 161.684-161.684 161.684h-107.789v215.579c0 49.403-20.467 93.316-51.789 121.158s-70.97 40.526-109.895 40.526zM592.84 825.377c14.971 0 29.217-5.281 38.315-13.368s15.579-18.071 15.579-40.526v-269.473c0.003-29.764 24.13-53.891 53.894-53.895h161.684c29.728 0 52.146-22.791 53.157-52.21l-51.789-259.052c-6.053-25.599-17.252-44.621-27.474-54.843-10.261-10.261-16.986-11.903-23.264-11.368-1.345 0.126-2.922 0.203-4.513 0.211h-377.276c-60.169 0-107.789 47.621-107.789 107.789v280.421c121.705 25.851 215.579 129.421 215.579 258.527v53.895c0 22.456 6.48 32.439 15.579 40.526s23.344 13.368 38.315 13.368zM107.788 448.114h107.789v-377.263h-107.789z" />
<glyph unicode="&#xe93e;" glyph-name="rosette-discount-check" d="M511.998 959.999c-42.217 0-84.456-16.022-116.292-48.038l-35.728-35.728c-11.516-11.402-27.025-17.805-43.234-17.814h-51.241c-89.952 0-163.931-73.979-163.931-163.931v-51.241c-0.010-16.255-6.453-31.809-17.915-43.334l-35.728-35.728c-63.929-63.683-63.897-168.846 0.1-232.485l35.728-35.728c11.402-11.516 17.805-27.025 17.814-43.234v-51.241c0-89.952 73.979-163.931 163.931-163.931h51.241c16.255-0.010 31.809-6.453 43.334-17.915l35.728-35.728c63.683-63.929 168.846-63.897 232.485 0.102l35.728 35.728c11.516 11.402 27.025 17.805 43.234 17.814h51.241c89.952 0 163.931 73.979 163.931 163.931v51.241c0.010 16.209 6.412 31.718 17.814 43.234l35.833 35.833c63.896 63.65 63.896 168.736 0 232.385l-0.102 0.1-35.731 35.728c-11.39 11.49-17.814 27.1-17.814 43.227v51.241c0 89.952-73.979 163.931-163.931 163.931h-51.241c-16.128 0-31.738 6.424-43.234 17.814l-35.728 35.728c-31.836 32.016-74.076 48.038-116.292 48.038zM511.998 858.218c15.682 0 31.397-6.208 43.634-18.515 0.024-0.024 0.058-0.056 0.091-0.089l0.012-0.011 35.826-35.828c0.024-0.024 0.058-0.056 0.091-0.089l0.012-0.011c30.714-30.568 72.324-47.738 115.59-47.738h51.241c34.566 0 61.449-26.882 61.449-61.449v-51.241c0-43.266 17.17-84.875 47.738-115.592 0.035-0.035 0.068-0.068 0.101-0.101l35.829-35.829c0.035-0.035 0.068-0.068 0.101-0.101l0.001-0.001c24.614-24.477 24.614-62.793 0-87.27-0.035-0.035-0.068-0.068-0.101-0.101l-35.832-35.822c-0.035-0.035-0.068-0.068-0.101-0.101l-0.001-0.001c-30.515-30.687-47.713-72.316-47.738-115.592v-51.241c0-34.566-26.882-61.449-61.449-61.449h-51.241c-43.276-0.025-84.905-17.223-115.592-47.738-0.035-0.035-0.068-0.068-0.101-0.101l-35.829-35.829c-0.035-0.035-0.068-0.068-0.101-0.101l-0.001-0.001c-24.476-24.614-62.793-24.614-87.27 0-0.035 0.035-0.068 0.068-0.101 0.101l-35.829 35.829c-0.035 0.035-0.068 0.068-0.101 0.101l-0.001 0.001c-30.675 30.518-72.204 47.715-115.48 47.74-0.014 0-0.032 0-0.050 0s-0.035 0-0.053 0h-51.239c-34.566 0-61.449 26.882-61.449 61.449v51.241c-0.025 43.276-17.223 84.905-47.738 115.592-0.043 0.046-0.077 0.078-0.109 0.112l-35.819 35.816c-0.043 0.046-0.077 0.078-0.109 0.112l0.010-0.010c-24.614 24.476-24.614 62.793 0 87.27 0.024 0.024 0.056 0.058 0.089 0.091l0.011 0.012 35.828 35.828c0.024 0.024 0.056 0.058 0.089 0.091l0.011 0.012c30.515 30.68 47.714 72.209 47.738 115.485 0 0.014 0 0.032 0 0.050s0 0.035 0 0.053v-0.002 51.241c0 34.566 26.882 61.449 61.449 61.449h51.241c0.014 0 0.032 0 0.050 0s0.035 0 0.053 0h-0.002c43.276 0.025 84.806 17.223 115.492 47.738 0.046 0.043 0.078 0.077 0.112 0.109l35.816 35.819c0.046 0.043 0.078 0.077 0.112 0.109l-0.010-0.010c12.238 12.307 27.953 18.515 43.634 18.515zM665.22 602.214c-14.148-0.002-26.958-5.738-36.229-15.012l-168.734-168.734-66.253 66.253c-9.273 9.27-22.081 15.005-36.229 15.005s-26.957-5.733-36.229-15.005v0c-9.27-9.273-15.005-22.081-15.005-36.229s5.733-26.957 15.005-36.229l102.481-102.481c9.273-9.269 22.082-15.002 36.229-15.002s26.955 5.733 36.229 15.002l204.963 204.963c9.27 9.273 15.005 22.081 15.005 36.229s-5.733 26.957-15.005 36.229v0c-9.271 9.274-22.080 15.010-36.228 15.012v0z" />
<glyph unicode="&#xe93f;" glyph-name="thumb-down" d="M107.789 932.939c-58.892 0-107.789-48.897-107.789-107.789v-377.264c0-58.892 48.897-107.789 107.789-107.789h161.684c89.934 0 161.684-71.75 161.684-161.684v-53.895c0-49.403 20.467-93.316 51.79-121.158s70.971-40.526 109.895-40.526c38.924 0 78.572 12.685 109.895 40.526s51.79 71.755 51.79 121.158v215.58h107.789c88.657 0 161.684 73.027 161.684 161.684-0.005 3.729-0.388 7.364-1.113 10.875l0.061-0.349-53.895 269.473c-0.202 0.965-0.347 1.566-0.503 2.164l0.082-0.375c-9.887 42.173-28.537 79.064-56.212 106.737s-66.882 45.964-108.527 42.421l4.526 0.211h-377.264c-50.528 0-95.216-20.31-132.105-49.79-19.575 28.19-47.062 49.79-83.473 49.79zM812.948 825.36c6.278 0.534 13.003-1.108 23.264-11.368 10.221-10.221 21.421-29.243 27.474-54.843 0.023-0.099 0.081-0.112 0.107-0.211l51.682-258.843c-1.013-29.42-23.43-52.21-53.158-52.21h-161.684c-29.764-0.003-53.891-24.13-53.895-53.894v0-269.473c0-22.456-6.48-32.439-15.579-40.526s-23.344-13.368-38.315-13.368c-14.971 0-29.217 5.281-38.315 13.368s-15.579 18.071-15.579 40.526v53.895c0 129.106-93.873 232.676-215.58 258.527v280.421c0 60.169 47.621 107.789 107.789 107.789h377.264c1.605 0.008 3.181 0.083 4.737 0.226l-0.211-0.015zM107.789 825.15h107.789v-377.264h-107.789z" />
<glyph unicode="&#xe940;" glyph-name="star-2" d="M337.249 641.82l-297.337-43.11-5.266-1.072c-20.106-5.467-34.646-23.558-34.646-45.044 0-13.112 5.415-24.959 14.13-33.427l0.011-0.011 215.406-209.674-50.799-296.172-0.606-5.126c-0.051-0.824-0.082-1.785-0.082-2.754 0-25.739 20.866-46.605 46.605-46.605 7.939 0 15.413 1.985 21.956 5.486l-0.25-0.122 265.926 139.814 265.319-139.814 4.661-2.144c5.061-2.052 10.932-3.243 17.080-3.243 25.739 0 46.605 20.866 46.605 46.605 0 2.792-0.246 5.527-0.717 8.183l0.042-0.281-50.845 296.172 215.5 209.721 3.635 3.962c6.492 7.945 10.424 18.201 10.424 29.376 0 23.383-17.22 42.743-39.669 46.092l-0.256 0.032-297.337 43.155-132.916 269.374c-7.778 15.529-23.567 26.004-41.804 26.004s-34.026-10.474-41.682-25.736l-0.122-0.269-132.963-269.374z" />
<glyph unicode="&#xe941;" glyph-name="star" d="M511.995 937.254c-0.001 0-0.002 0-0.003 0-18.215 0-33.989-10.448-41.659-25.677l-0.122-0.268-133-269.459-297.315-43.15c-22.691-3.398-39.896-22.754-39.896-46.127 0-13.064 5.375-24.873 14.033-33.337l215.485-209.75-50.797-296.223c-0.429-2.376-0.675-5.11-0.675-7.902 0-25.745 20.869-46.614 46.614-46.614 7.935 0 15.408 1.983 21.949 5.481l-0.25-0.122 265.909 139.827 265.363-139.737c6.312-3.403 13.813-5.402 21.781-5.402 25.745 0 46.614 20.869 46.614 46.614 0 2.775-0.243 5.494-0.708 8.135l0.040-0.28-50.887 296.223 215.476 209.741c8.675 8.473 14.054 20.287 14.054 33.356 0 23.346-17.162 42.682-39.558 46.083l-0.258 0.033-297.406 43.15-132.909 269.459c-7.791 15.497-23.566 25.945-41.781 25.945-0.033 0-0.067 0-0.099 0h0.005zM511.995 785.228l102.049-206.646c6.8-13.546 19.638-23.194 34.884-25.458l0.255-0.031 228.039-33.045-165.316-160.947c-8.674-8.473-14.053-20.287-14.053-33.356 0-2.785 0.245-5.512 0.712-8.162l-0.042 0.281 38.871-227.129-203.277 107.146c-6.293 3.38-13.771 5.365-21.711 5.365s-15.418-1.986-21.962-5.487l0.25 0.122-204.096-107.238 38.963 227.219c0.427 2.369 0.671 5.097 0.671 7.882 0 13.069-5.379 24.884-14.044 33.348l-165.326 160.955 228.039 33.045c15.501 2.296 28.339 11.943 35.017 25.221l0.122 0.268z" />
<glyph unicode="&#xe942;" glyph-name="sort-descending-2" d="M90.354 929.887c-49.188 0-90.354-41.166-90.354-90.354v-240.944c0-49.188 41.166-90.354 90.354-90.354h240.944c49.188 0 90.354 41.166 90.354 90.354v240.944c0 49.188-41.166 90.354-90.354 90.354zM120.471 809.416h180.707v-180.707h-180.707zM90.354 387.765c-49.188 0-90.354-41.166-90.354-90.354v-240.944c0-49.188 41.166-90.354 90.354-90.354h240.944c49.188 0 90.354 41.166 90.354 90.354v240.944c0 49.188-41.166 90.354-90.354 90.354zM120.471 267.294h180.707v-180.707h-180.707zM602.357 327.53c-16.632-0.003-31.69-6.745-42.589-17.647v0c-10.898-10.9-17.639-25.957-17.639-42.589s6.74-31.689 17.639-42.589l180.707-180.707c10.9-10.896 25.958-17.636 42.589-17.636s31.687 6.74 42.589 17.636l180.707 180.707c10.898 10.9 17.639 25.957 17.639 42.589s-6.74 31.689-17.639 42.589v0c-10.9 10.898-25.957 17.639-42.589 17.639s-31.689-6.74-42.589-17.639l-138.118-138.118-138.118 138.118c-10.899 10.902-25.956 17.644-42.588 17.647v0zM783.065 869.652c-33.267 0-60.236-26.969-60.236-60.236v0-722.83c0-33.267 26.969-60.236 60.236-60.236v0c33.267 0 60.236 26.969 60.236 60.236v0 722.83c0 33.267-26.969 60.236-60.236 60.236v0z" />
<glyph unicode="&#xe943;" glyph-name="sort-ascending-2" d="M740.476 852.004l-180.707-180.707c-10.897-10.9-17.639-25.957-17.639-42.589s6.74-31.689 17.639-42.589v0c10.9-10.897 25.957-17.639 42.589-17.639s31.689 6.74 42.589 17.639l138.118 138.118 138.118-138.118c10.9-10.897 25.957-17.639 42.589-17.639s31.689 6.74 42.589 17.639v0c10.897 10.9 17.639 25.957 17.639 42.589s-6.74 31.689-17.639 42.589l-180.707 180.707c-10.9 10.896-25.958 17.636-42.589 17.636s-31.687-6.74-42.589-17.636v0zM90.353 929.886c-49.188 0-90.354-41.166-90.354-90.354v-240.943c0-49.188 41.166-90.354 90.354-90.354h240.943c49.188 0 90.354 41.166 90.354 90.354v240.943c0 49.188-41.166 90.354-90.354 90.354zM120.471 809.415h180.707v-180.707h-180.707zM90.353 387.765c-49.188 0-90.354-41.166-90.354-90.354v-240.943c0-49.188 41.166-90.354 90.354-90.354h240.943c49.188 0 90.354 41.166 90.354 90.354v240.943c0 49.188-41.166 90.354-90.354 90.354zM120.471 267.294h180.707v-180.707h-180.707zM783.063 869.652c-33.267 0-60.236-26.969-60.236-60.236v0-722.829c0-33.267 26.969-60.236 60.236-60.236v0c33.267 0 60.236 26.969 60.236 60.236v0 722.829c0 33.267-26.969 60.236-60.236 60.236v0z" />
<glyph unicode="&#xe944;" glyph-name="sort-descending-small-big" d="M53.889 340.211c-14.881-0.003-28.354-6.035-38.106-15.79v0c-9.75-9.753-15.782-23.225-15.782-38.106s6.030-28.353 15.782-38.106l161.685-161.685c9.753-9.749 23.226-15.779 38.106-15.779s28.352 6.030 38.106 15.779l161.685 161.685c9.75 9.753 15.782 23.225 15.782 38.106s-6.030 28.353-15.782 38.106v0c-9.753 9.75-23.225 15.782-38.106 15.782s-28.353-6.030-38.106-15.782l-123.579-123.579-123.579 123.579c-9.752 9.754-23.223 15.787-38.105 15.79v0zM215.574 825.267c-29.765 0-53.896-24.13-53.896-53.896v0-646.741c0-29.765 24.13-53.896 53.896-53.896v0c29.765 0 53.896 24.13 53.896 53.896v0 646.741c0 29.765-24.13 53.896-53.896 53.896v0zM628.839 340.211c-48.981 0-89.896-40.915-89.896-89.896v-143.58c0-48.903 40.991-89.896 89.896-89.896h143.58c48.981 0 89.896 40.915 89.896 89.896v143.58c0 48.981-40.915 89.896-89.896 89.896zM646.734 232.42h107.79v-107.79h-107.79zM655.787 879.161c-63.84 0-116.843-53.002-116.843-116.843v-251.37c0-63.84 53.002-116.843 116.843-116.843h251.37c63.84 0 116.843 53.002 116.843 116.843v251.37c0 63.84-53.002 116.843-116.843 116.843zM655.787 771.372h251.37c5.684 0 9.053-3.369 9.053-9.053v-251.37c0-5.684-3.369-9.053-9.053-9.053h-251.37c-5.684 0-9.053 3.369-9.053 9.053v251.37c0 5.684 3.369 9.053 9.053 9.053z" />
<glyph unicode="&#xe945;" glyph-name="sort-ascending-small-big" d="M53.889 340.21c-14.881-0.003-28.354-6.035-38.106-15.79v0c-9.75-9.753-15.782-23.225-15.782-38.106s6.030-28.353 15.782-38.106l161.685-161.685c9.753-9.749 23.226-15.779 38.106-15.779s28.352 6.030 38.106 15.779l161.685 161.685c9.75 9.753 15.782 23.225 15.782 38.106s-6.030 28.353-15.782 38.106v0c-9.753 9.75-23.225 15.782-38.106 15.782s-28.353-6.030-38.106-15.782l-123.579-123.579-123.579 123.579c-9.752 9.754-23.223 15.787-38.105 15.79v0zM215.574 825.266c-29.765 0-53.896-24.13-53.896-53.896v0-646.741c0-29.765 24.13-53.896 53.896-53.896v0c29.765 0 53.896 24.13 53.896 53.896v0 646.741c0 29.765-24.13 53.896-53.896 53.896v0zM628.839 879.16c-48.903 0-89.896-40.991-89.896-89.896v-143.58c0-48.981 40.915-89.896 89.896-89.896h143.58c48.981 0 89.896 40.915 89.896 89.896v143.58c0 48.903-40.991 89.896-89.896 89.896zM646.734 771.371h107.79v-107.79h-107.79zM655.787 501.896c-63.84 0-116.843-53.002-116.843-116.843v-251.37c0-63.863 52.98-116.843 116.843-116.843h251.37c63.84 0 116.843 53.002 116.843 116.843v251.37c0 63.84-53.002 116.843-116.843 116.843h-216.317zM655.787 394.104h251.37c5.684 0 9.053-3.369 9.053-9.053v-251.37c0-5.684-3.369-9.053-9.053-9.053h-251.37c-5.61 0-9.053 3.443-9.053 9.053v251.37c0 5.684 3.369 9.053 9.053 9.053z" />
<glyph unicode="&#xe946;" glyph-name="comment-lines" d="M64 480c0 182.8 187.6 352 448 352s448-169.2 448-352-187.6-352-448-352c-64 0-126 11.8-187 32.4-19.8 6.6-41.4 3.6-58.4-8.4-30.8-21.4-62.8-40-96.8-54.8l12.6-29.2-12.8 29.4c-21-9.2-43-17.2-65.4-23 1 1.8 2.2 3.6 3.2 5.2 28.6 47.4 45.2 98.4 51.4 152.6 2 18.4-4.2 35.4-14.8 47.8-49 58.8-80 125.8-80 200zM512 896c-283 0-512-186.4-512-416 0-93.2 39.2-174.2 94.8-241 0-0.2 0.2-0.2 0.2-0.4-5.2-45.2-19-87-42.6-126.2-13-21.6-27-41.6-43.4-58-9-9.2-11.8-23-6.8-34.8s16.6-19.6 29.6-19.6c57.4 0 115.2 17.8 163.2 38.6 38.4 16.8 74.2 37.4 107.8 61 0.4 0.2 1 0.4 1.4 0.2 66.8-22.4 135.8-35.8 207.8-35.8 283 0 512 186.4 512 416s-229 416-512 416zM288 608c-17.6 0-32-14.4-32-32s14.4-32 32-32h448c17.6 0 32 14.4 32 32s-14.4 32-32 32h-448zM288 416c-17.6 0-32-14.4-32-32s14.4-32 32-32h256c17.6 0 32 14.4 32 32s-14.4 32-32 32h-256z" />
<glyph unicode="&#xe947;" glyph-name="comment" d="M512 832c-260.4 0-448-169.2-448-352 0-74.2 31-141.2 80-200 10.4-12.6 16.8-29.6 14.8-47.8-6.2-54-22.8-105-51.4-152.6-1-1.8-2.2-3.6-3.2-5.2 22.2 5.8 44.4 14 65.4 23v0c34 14.8 66 33.4 96.8 54.8 17 11.8 38.8 15 58.4 8.4 61.2-20.8 123.4-32.6 187.2-32.6 260.4 0 448 169.2 448 352s-187.6 352-448 352zM0 480c0 229.6 229 416 512 416s512-186.4 512-416-229-416-512-416c-72 0-141 13.4-207.6 35.8-0.4 0.2-1 0-1.4-0.2-33.8-23.4-69.4-44.2-107.8-61-48-20.8-105.8-38.6-163.2-38.6-13 0-24.6 7.8-29.6 19.6s-2.2 25.6 6.8 34.8c16.2 16.4 30.4 36.4 43.4 58 23.4 39.2 37.4 81.2 42.6 126.2 0 0-0.2 0.2-0.2 0.4-55.8 66.8-95 147.8-95 241z" />
<glyph unicode="&#xe948;" glyph-name="reply" d="M432 640c-26.6 0-48 21.4-48 48v144l-320-288 320-288v144c0 26.6 21.4 48 48 48h208c141.4 0 256-114.6 256-256 0-16.6-1.4-32.2-4-46.4 36.4 46.8 68 114.2 68 206.4 0 159-129 288-288 288h-240zM448 352v-96c0-25.2-14.8-48.2-38-58.4s-50-6-68.8 10.8l-320 288c-13.4 12.2-21.2 29.4-21.2 47.6s7.8 35.4 21.2 47.6l320 288c18.8 17 45.8 21.2 68.8 10.8s38-33.2 38-58.4v-128h224c194.4 0 352-157.6 352-352 0-226.6-163-327.8-200.4-348.2-5-2.8-10.6-3.8-16.2-3.8-21.8 0-39.4 17.8-39.4 39.4 0 15 8.6 28.8 19.6 39 18.8 17.6 44.4 52.8 44.4 113.4 0 106-86 192-192 192h-192v-32z" />
<glyph unicode="&#xe949;" glyph-name="circle-check-2" d="M512-64c282.77 0 512 229.23 512 512s-229.23 512-512 512v0c-282.77 0-512-229.23-512-512s229.23-512 512-512v0zM738 542l-256-256c-18.8-18.8-49.2-18.8-67.8 0l-128 128c-18.8 18.8-18.8 49.2 0 67.8s49.2 18.8 67.8 0l94-94 222 222.2c18.8 18.8 49.2 18.8 67.8 0s18.8-49.2 0-67.8z" />
<glyph unicode="&#xe94a;" glyph-name="thumbs-down" d="M577.6 99.4c7-25.6 33.4-40.6 59-33.6s40.6 33.4 33.6 59l-9 32.8c-11 40.4-27.8 78.6-49.4 113.8-6.2 9.8-6.4 22.2-0.8 32.4s16.4 16.4 28 16.4l257-0.2c35.4 0 64 28.6 64 64 0 22.6-11.8 42.6-29.6 54-14.4 9.2-19 27.8-10.6 42.6 5.2 9.2 8.2 20 8.2 31.4 0 24.8-14 46.2-34.6 57-8.4 4.4-14.6 12.2-16.6 21.6s0.2 19 6 26.4c8.4 10.8 13.4 24.4 13.4 39 0 28.4-18.4 52.6-44.2 60.8-15.6 5-24.8 21.2-21.4 37.2 1 4.4 1.4 9 1.4 13.8 0 35.4-28.6 64-64 64h-179c-31.6 0-62.4-9.4-88.8-26.8l-77-51.4c-18-12-33.2-27.4-44.8-45.2-9.8-14.8-29.6-18.8-44.4-9.2s-18.8 29.6-9.2 44.4c16.2 24.6 37.4 46.2 62.8 63.2l77 51.4c36.8 24.6 80 37.6 124.2 37.6l179.2 0.2c70.6 0 128-57.4 128-128v-1.2c38.2-22.2 64-63.4 64-110.8 0-17.4-3.6-34.2-9.8-49.4 25.6-23.4 41.8-57 41.8-94.6 0-13-2-25.6-5.6-37.4 23.2-23.2 37.6-55.2 37.6-90.6 0-70.6-57.4-128-128-128h-203.2c12.4-26.2 22.6-53.4 30.2-81.8l9-32.8c16.2-59.6-19-121.2-78.6-137.6s-121.2 19-137.6 78.6l-9 32.8c-17.8 65.2-59.2 121.6-116.4 158l-6.2 4c-23.6 15-43.4 34.2-59 56.4-10.2 14.4-6.6 34.4 8 44.6s34.4 6.6 44.6-8c10.8-15.4 24.4-28.8 40.8-39l6.2-4c70.6-44.8 121.8-114.4 143.8-195l9-32.8zM64 256h128v448h-128v-448zM0 256v448c0 35.4 28.6 64 64 64h128c35.4 0 64-28.6 64-64v-448c0-35.4-28.6-64-64-64h-128c-35.4 0-64 28.6-64 64z" />
<glyph unicode="&#xe94b;" glyph-name="thumbs-up" d="M577.6 796.6c7 25.6 33.4 40.6 59 33.6s40.6-33.4 33.6-59l-9-32.8c-11-40.4-27.8-78.6-49.4-113.8-6.2-9.8-6.4-22.2-0.8-32.4s16.4-16.4 28-16.4l257 0.2c35.4 0 64-28.6 64-64 0-22.6-11.8-42.6-29.6-54-14.4-9.2-19-27.8-10.6-42.6 5.2-9.2 8.2-20 8.2-31.4 0-24.8-14-46.2-34.6-57-8.4-4.4-14.6-12.2-16.6-21.6s0.2-19 6-26.4c8.4-10.8 13.4-24.4 13.4-39 0-28.4-18.4-52.6-44.2-60.8-15.6-5-24.8-21.2-21.4-37.2 1-4.4 1.4-9 1.4-13.8 0-35.4-28.6-64-64-64h-179c-31.6 0-62.4 9.4-88.8 26.8l-77 51.4c-18 12-33.2 27.4-44.8 45.2-9.8 14.8-29.6 18.8-44.4 9.2s-18.8-29.6-9.2-44.4c16.2-24.6 37.4-46.2 62.8-63.2l77-51.4c36.8-24.6 80-37.6 124.2-37.6h179c70.6 0 128 57.4 128 128v1.2c38.2 22.2 64 63.4 64 110.8 0 17.4-3.6 34.2-9.8 49.4 25.8 23.2 42 56.8 42 94.4 0 13-2 25.6-5.6 37.4 23.2 23.2 37.6 55.2 37.6 90.6 0 70.6-57.4 128-128 128h-203.2c12.4 26.2 22.6 53.4 30.2 81.8l9 32.8c16.2 59.6-19 121.2-78.6 137.6s-121.2-19-137.6-78.6l-9-32.8c-17.8-65.2-59.2-121.6-116.4-158l-6.2-4c-23.6-15-43.4-34.2-59-56.4-10.2-14.4-6.6-34.4 8-44.6s34.4-6.6 44.6 8c10.8 15.4 24.4 28.8 40.8 39l6.2 4c70.6 44.8 121.8 114.4 143.8 195l9 32.8zM64 512h128v-448h-128v448zM0 512v-448c0-35.4 28.6-64 64-64h128c35.4 0 64 28.6 64 64v448c0 35.4-28.6 64-64 64h-128c-35.4 0-64-28.6-64-64z" />
<glyph unicode="&#xe94c;" glyph-name="arrow-up-wide-short" horiz-adv-x="1152" d="M278.6 886.6c-12.4 12.4-32.8 12.4-45.2 0l-192-192c-12.4-12.4-12.4-32.8 0-45.2s32.8-12.4 45.2 0l137.4 137.4v-754.8c0-17.6 14.4-32 32-32s32 14.4 32 32v754.8l137.4-137.4c12.4-12.4 32.8-12.4 45.2 0s12.4 32.8 0 45.2l-192 192zM608 32h128c17.6 0 32 14.4 32 32s-14.4 32-32 32h-128c-17.6 0-32-14.4-32-32s14.4-32 32-32zM608 288h256c17.6 0 32 14.4 32 32s-14.4 32-32 32h-256c-17.6 0-32-14.4-32-32s14.4-32 32-32zM608 544h384c17.6 0 32 14.4 32 32s-14.4 32-32 32h-384c-17.6 0-32-14.4-32-32s14.4-32 32-32zM608 800h512c17.6 0 32 14.4 32 32s-14.4 32-32 32h-512c-17.6 0-32-14.4-32-32s14.4-32 32-32z" />
<glyph unicode="&#xe94d;" glyph-name="arrow-down-wide-short" horiz-adv-x="1152" d="M470.6 201.4l-192-192c-12.4-12.4-32.8-12.4-45.2 0l-192 192c-12.4 12.4-12.4 32.8 0 45.2s32.8 12.4 45.2 0l137.4-137.4v754.8c0 17.6 14.4 32 32 32s32-14.4 32-32v-754.8l137.4 137.4c12.4 12.4 32.8 12.4 45.2 0s12.4-32.8 0-45.2zM608 32c-17.6 0-32 14.4-32 32s14.4 32 32 32h128c17.6 0 32-14.4 32-32s-14.4-32-32-32h-128zM608 288c-17.6 0-32 14.4-32 32s14.4 32 32 32h256c17.6 0 32-14.4 32-32s-14.4-32-32-32h-256zM608 544c-17.6 0-32 14.4-32 32s14.4 32 32 32h384c17.6 0 32-14.4 32-32s-14.4-32-32-32h-384zM608 800c-17.6 0-32 14.4-32 32s14.4 32 32 32h512c17.6 0 32-14.4 32-32s-14.4-32-32-32h-512z" />
<glyph unicode="&#xe94e;" glyph-name="sliders" d="M0 128c0-17.6 14.4-32 32-32h131.2c14.8-73 79.4-128 156.8-128s142 55 156.8 128h515.2c17.6 0 32 14.4 32 32s-14.4 32-32 32h-515.2c-14.8 73-79.4 128-156.8 128s-142-55-156.8-128h-131.2c-17.6 0-32-14.4-32-32zM224 128c0 53.019 42.981 96 96 96s96-42.981 96-96v0c0-53.019-42.981-96-96-96s-96 42.981-96 96v0zM608 448c0 53.019 42.981 96 96 96s96-42.981 96-96v0c0-53.019-42.981-96-96-96s-96 42.981-96 96v0zM704 608c-77.4 0-142-55-156.8-128h-515.2c-17.6 0-32-14.4-32-32s14.4-32 32-32h515.2c14.8-73 79.4-128 156.8-128s142 55 156.8 128h131.2c17.6 0 32 14.4 32 32s-14.4 32-32 32h-131.2c-14.8 73-79.4 128-156.8 128zM384 672c-53.019 0-96 42.981-96 96s42.981 96 96 96v0c53.019 0 96-42.981 96-96s-42.981-96-96-96v0zM540.8 800c-14.8 73-79.4 128-156.8 128s-142-55-156.8-128h-195.2c-17.6 0-32-14.4-32-32s14.4-32 32-32h195.2c14.8-73 79.4-128 156.8-128s142 55 156.8 128h451.2c17.6 0 32 14.4 32 32s-14.4 32-32 32h-451.2z" />
<glyph unicode="&#xe94f;" glyph-name="pen-line" horiz-adv-x="1152" d="M859.6 880.8c-18.8 18.8-49.2 18.8-67.8 0l-109.8-109.6 153.2-153.2 109.6 109.6c18.8 18.8 18.8 49.2 0 67.8l-85.2 85.4zM166.2 255.2c-15.2-15.2-26.2-33.8-32.2-54.4l-54.8-185.6 185.6 54.6c20.6 6 39.2 17.2 54.4 32.2l470.8 470.8-153.2 153.2-470.6-470.8zM746.4 926c43.8 43.8 114.6 43.8 158.4 0l85.2-85.2c43.8-43.8 43.8-114.6 0-158.4l-625.4-625.6c-22.8-22.8-50.8-39.4-81.6-48.4l-242-71.2c-11.2-3.4-23.4-0.2-31.6 8s-11.4 20.4-8 31.6l71.2 242c9 30.8 25.8 58.8 48.4 81.6l625.4 625.6zM480 0h640c17.6 0 32-14.4 32-32s-14.4-32-32-32h-640c-17.6 0-32 14.4-32 32s14.4 32 32 32z" />
<glyph unicode="&#xe950;" glyph-name="exclamation" horiz-adv-x="256" d="M160 864c0 17.6-14.4 32-32 32s-32-14.4-32-32v-608c0-17.6 14.4-32 32-32s32 14.4 32 32v608zM128 16c26.51 0 48 21.49 48 48s-21.49 48-48 48v0c-26.51 0-48-21.49-48-48s21.49-48 48-48v0z" />
<glyph unicode="&#xe951;" glyph-name="message-check" d="M384 128c0 35.4-28.6 64-64 64h-192c-35.4 0-64 28.6-64 64v576c0 35.4 28.6 64 64 64h768c35.4 0 64-28.6 64-64v-576c0-35.4-28.6-64-64-64h-277.4c-13.8 0-27.4-4.4-38.4-12.8l-196.2-147.2v96zM128 960c-70.6 0-128-57.4-128-128v-576c0-70.6 57.4-128 128-128h192v-160c0-12.2 6.8-23.2 17.6-28.6s23.8-4.2 33.6 3l247.4 185.6h277.4c70.6 0 128 57.4 128 128v576c0 70.6-57.4 128-128 128h-768zM726.6 665.4c12.4 12.4 12.4 32.8 0 45.2s-32.8 12.4-45.2 0l-233.4-233.4-105.4 105.4c-12.4 12.4-32.8 12.4-45.2 0s-12.4-32.8 0-45.2l128-128c12.4-12.4 32.8-12.4 45.2 0l256 256z" />
<glyph unicode="&#xe952;" glyph-name="message-smile" d="M384 128c0 35.4-28.6 64-64 64h-192c-35.4 0-64 28.6-64 64v576c0 35.4 28.6 64 64 64h768c35.4 0 64-28.6 64-64v-576c0-35.4-28.6-64-64-64h-277.4c-13.8 0-27.4-4.4-38.4-12.8l-196.2-147.2v96zM128 960c-70.6 0-128-57.4-128-128v-576c0-70.6 57.4-128 128-128h192v-160c0-12.2 6.8-23.2 17.6-28.6s23.8-4.2 33.6 3l247.4 185.6h277.4c70.6 0 128 57.4 128 128v576c0 70.6-57.4 128-128 128h-768zM384 592c26.51 0 48 21.49 48 48s-21.49 48-48 48v0c-26.51 0-48-21.49-48-48s21.49-48 48-48v0zM640 592c26.51 0 48 21.49 48 48s-21.49 48-48 48v0c-26.51 0-48-21.49-48-48s21.49-48 48-48v0zM311.8 455.8c-13.2-11.8-14.2-32-2.6-45.2 49.8-55.6 122.2-90.6 202.8-90.6s153 35 202.8 90.6c11.8 13.2 10.6 33.4-2.6 45.2s-33.4 10.6-45.2-2.6c-38-42.4-93.4-69.2-155-69.2s-117 26.8-155 69.4c-11.8 13.2-32 14.2-45.2 2.6z" />
<glyph unicode="&#xe953;" glyph-name="message-pen" d="M384 128c0 35.4-28.6 64-64 64h-192c-35.4 0-64 28.6-64 64v576c0 35.4 28.6 64 64 64h768c35.4 0 64-28.6 64-64v-576c0-35.4-28.6-64-64-64h-277.4c-13.8 0-27.4-4.4-38.4-12.8l-196.2-147.2v96zM128 960c-70.6 0-128-57.4-128-128v-576c0-70.6 57.4-128 128-128h192v-160c0-12.2 6.8-23.2 17.6-28.6s23.8-4.2 33.6 3l247.4 185.6h277.4c70.6 0 128 57.4 128 128v576c0 70.6-57.4 128-128 128h-768zM632.6 664.6c9.8-9.8 9.8-25.8 0-35.6l-16.2-16.2-35.6 35.6 16.2 16.2c9.8 9.8 25.8 9.8 35.6 0zM414.2 481.8l121.4 121.4 35.6-35.6-121.6-121.6c-4.2-4.2-9.2-7-14.8-8.4l-38.8-9.6 9.8 39c1.4 5.6 4.4 10.8 8.4 14.8zM551.6 710l-182.8-183c-12.2-12.4-21-27.8-25.2-44.6l-22.6-90.6c-2.8-11 0.4-22.4 8.4-30.4s19.4-11.2 30.4-8.4l90.6 22.6c16.8 4.2 32.4 13 44.6 25.2l182.8 183c34.8 34.8 34.8 91.2 0 126s-91.4 34.8-126.2 0z" />
<glyph unicode="&#xe954;" glyph-name="paper-plane-top" d="M6.8 803.4c-12 24-7.8 53 10.6 72.6s47 25.4 71.8 15l896-384c23.6-10 38.8-33.2 38.8-58.8s-15.2-48.8-38.8-58.8l-896-384c-24.6-10.6-53.4-4.6-71.8 15s-22.6 48.6-10.6 72.6l177.6 355-177.6 355.4zM240 416l-176-352 821.4 352h-645.4zM885.4 480l-821.4 352 176-352h645.4z" />
<glyph unicode="&#xe955;" glyph-name="gift" d="M730.2 896c-35.2 0-67.8-18-86.4-47.8l-90-144.2h182.2c53 0 96 43 96 96s-43 96-96 96h-5.8zM470.2 704l-90 144.2c-18.6 29.8-51.2 47.8-86.4 47.8h-5.8c-53 0-96-43-96-96s43-96 96-96h182.2zM512 758l77.6 124c30.4 48.4 83.4 78 140.6 78h5.8c88.4 0 160-71.6 160-160 0-36-12-69.2-32-96h64c53 0 96-43 96-96v-128c0-41.8-26.8-77.4-64-90.6v-325.4c0-70.6-57.4-128-128-128h-640c-70.6 0-128 57.4-128 128v325.4c-37.2 13.2-64 48.8-64 90.6v128c0 53 43 96 96 96h64c-20 26.8-32 60-32 96 0 88.4 71.6 160 160 160h5.8c57.2 0 110.4-29.4 140.6-78l77.6-124zM288 640h-192c-17.6 0-32-14.4-32-32v-128c0-17.6 14.4-32 32-32h384v192h-192zM544 640v-192h384c17.6 0 32 14.4 32 32v128c0 17.6-14.4 32-32 32h-384zM480 384h-352v-320c0-35.4 28.6-64 64-64h288v384zM544 0h288c35.4 0 64 28.6 64 64v320h-352v-384z" />
<glyph unicode="&#xe956;" glyph-name="truck-fast" horiz-adv-x="1280" d="M256 896h448c35.4 0 64-28.6 64-64v-640h-267c-26.4 74.6-97.4 128-181 128-49.2 0-94-18.4-128-48.8v112.8h-64v-256c0-106 86-192 192-192s192 86 192 192h256c0-106 86-192 192-192s192 86 192 192h96c17.6 0 32 14.4 32 32s-14.4 32-32 32h-32v296.4c0 23-8.2 45-23.2 62.4l-157.4 183.6c-18.2 21.4-44.8 33.6-72.8 33.6h-130.6v64c0 70.6-57.4 128-128 128h-448c-70.6 0-128-57.4-128-128v-64h-96c-17.6 0-32-14.4-32-32s14.4-32 32-32h448c17.6 0 32 14.4 32 32s-14.4 32-32 32h-288v64c0 35.4 28.6 64 64 64zM1141.8 512h-309.8v192h130.6c9.4 0 18.2-4 24.2-11.2l155-180.8zM832 448h320v-256h-11c-26.4 74.6-97.4 128-181 128-49.2 0-94-18.4-128-48.8v176.8zM192 128c0 70.692 57.308 128 128 128s128-57.308 128-128v0c0-70.692-57.308-128-128-128s-128 57.308-128 128v0zM960 256c70.692 0 128-57.308 128-128s-57.308-128-128-128v0c-70.692 0-128 57.308-128 128s57.308 128 128 128v0zM96 640c-17.6 0-32-14.4-32-32s14.4-32 32-32h448c17.6 0 32 14.4 32 32s-14.4 32-32 32h-448zM32 512c-17.6 0-32-14.4-32-32s14.4-32 32-32h448c17.6 0 32 14.4 32 32s-14.4 32-32 32h-448z" />
<glyph unicode="&#xe957;" glyph-name="bag" horiz-adv-x="882" d="M616.065-64h-349.659c-49.951 0-91.577 16.65-124.878 49.951s-58.276 74.927-66.602 116.553l-74.927 432.911c0 16.65 0 41.626 0 58.276s16.65 41.626 33.301 58.276c16.65 16.65 33.301 24.976 49.951 41.626 16.65 8.325 41.626 16.65 58.276 16.65h99.902v66.602c0 49.951 16.65 99.902 58.276 141.528 74.927 74.927 208.13 74.927 283.057 0 33.301-33.301 58.276-83.252 58.276-141.528v-66.602h99.902c24.976 0 41.626 0 58.276-16.65 16.65-8.325 33.301-24.976 49.951-41.626s24.976-33.301 33.301-58.276c0-16.65 0-41.626 0-58.276l-66.602-424.585c0-49.951-33.301-91.577-66.602-116.553-33.301-33.301-83.252-49.951-124.878-49.951zM149.854 618.667c-8.325 0-16.65 0-24.976 0 0 0-16.65-8.325-24.976-16.65 0 0-8.325-16.65-16.65-24.976 0-8.325 0-16.65 0-24.976l66.602-424.585c0-24.976 16.65-49.951 41.626-66.602 16.65-16.65 49.951-24.976 74.927-24.976h357.984c24.976 0 49.951 8.325 74.927 24.976 16.65 16.65 33.301 41.626 41.626 66.602l66.602 424.585c0 8.325 0 16.65 0 24.976s0 16.65-16.65 24.976c0 0-16.65 8.325-24.976 16.65 0 0-16.65 0-24.976 0h-99.902v-116.553c0-24.976-16.65-41.626-41.626-41.626s-41.626 16.65-41.626 41.626v116.553h-233.106v-116.553c0-24.976-16.65-41.626-41.626-41.626s-41.626 16.65-41.626 41.626v116.553h-99.902zM324.683 701.919h233.106v66.602c0 33.301-8.325 58.276-33.301 83.252-41.626 41.626-116.553 41.626-158.179 0-24.976-24.976-33.301-49.951-33.301-83.252v-66.602z" />
<glyph unicode="&#xe958;" glyph-name="pill" horiz-adv-x="5376" d="M496.164 944.156h4217.4c274.024 0 496.164-222.14 496.164-496.164v-0.003c0-274.024-222.14-496.164-496.164-496.164h-4217.4c-274.024 0-496.164 222.14-496.164 496.164v0.003c0 274.024 222.14 496.164 496.164 496.164z" />
<glyph unicode="&#xe959;" glyph-name="Icone-Bag" horiz-adv-x="912" d="M650.481-64h-386.223c-45.737 0-91.474 15.246-124.506 45.737-35.573 27.95-58.442 68.605-66.065 114.342l-73.687 439.583c-2.541 20.328 0 38.114 2.541 55.901 5.082 17.787 15.246 35.573 27.95 50.819s27.95 25.409 45.737 33.032c17.787 7.623 38.114 12.705 55.901 12.705h127.047v83.851c0 48.278 20.328 96.556 55.901 132.129 73.687 71.146 200.734 71.146 271.881 0 35.573-35.573 55.901-81.31 55.901-132.129v-83.851h127.047c20.328 0 38.114-5.082 55.901-12.705s33.032-20.328 45.737-33.032c12.705-15.246 22.868-30.491 27.95-50.819 5.082-17.787 7.623-38.114 2.541-55.901l-71.146-442.124c-7.623-43.196-30.491-83.851-66.065-114.342-35.573-27.95-78.769-45.737-124.506-45.737zM137.211 642.382c-12.705 0-25.409-2.541-38.114-7.623s-22.868-12.705-30.491-22.868c-7.623-10.164-15.246-20.328-17.787-30.491-2.541-12.705-5.082-22.868 0-35.573l71.146-442.124c5.082-33.032 22.868-63.524 48.278-83.851 25.409-22.868 60.983-33.032 94.015-33.032h386.223c35.573 0 68.605 12.705 94.015 33.032 25.409 22.868 43.196 50.819 48.278 83.851l71.146 442.124c0 12.705 0 22.868 0 35.573-2.541 12.705-10.164 22.868-17.787 30.491-7.623 10.164-17.787 17.787-30.491 22.868s-25.409 7.623-38.114 7.623h-127.047v-139.752h-48.278v139.752h-289.667v-139.752h-48.278v139.752h-127.047zM312.536 690.66h289.667v83.851c0 38.114-15.246 71.146-43.196 99.097-53.36 53.36-152.457 53.36-205.816 0-27.95-25.409-43.196-60.983-43.196-99.097v-83.851z" />
</font>
</defs>
</svg>
