<?xml version="1.0" standalone="no"?>
<!DOCTYPE svg PUBLIC "-//W3C//DTD SVG 1.1//EN" "http://www.w3.org/Graphics/SVG/1.1/DTD/svg11.dtd" >
<svg xmlns="http://www.w3.org/2000/svg">
<metadata></metadata>
<defs>
<font id="carton_sixregular" horiz-adv-x="1032" >
<font-face units-per-em="2048" ascent="1638" descent="-410" />
<missing-glyph horiz-adv-x="400" />
<glyph horiz-adv-x="2048" />
<glyph horiz-adv-x="2048" />
<glyph unicode="&#xd;" horiz-adv-x="2048" />
<glyph unicode=" "  horiz-adv-x="400" />
<glyph unicode="&#x09;" horiz-adv-x="400" />
<glyph unicode="&#xa0;" horiz-adv-x="400" />
<glyph unicode="!" horiz-adv-x="363" d="M35 273l281 12l-13 -285l-255 -4q-9 162 -13 277zM58 1444l270 13q-35 -648 -48 -1037l-197 -5q-8 572 -25 1029z" />
<glyph unicode="&#x22;" horiz-adv-x="731" d="M35 1449l283 9q20 -311 -49 -440.5t-186 -133.5l-17 130q113 31 121 161l-139 -13zM405 1449l283 9q20 -311 -49 -440.5t-186 -133.5l-17 130q113 31 121 161l-139 -13z" />
<glyph unicode="$" horiz-adv-x="923" d="M41 423l204 19q32 -313 201.5 -296.5t183.5 158t-280.5 281t-304.5 457t269.5 432t426.5 -63t133 -485.5l-248 -19q-20 365 -157 359t-175.5 -169.5t95 -264t296 -196.5t183 -251.5t-106.5 -328.5t-421 -141.5t-299 509.5zM379 1700l152 4q10 -873 1 -2006l-149 -13 q17 1218 -4 2015z" />
<glyph unicode="&#x26;" horiz-adv-x="1010" d="M64 386q-29 278 188 389q-150 109 -163 314t116.5 339t357 81.5t265.5 -404.5l-220 -34q-4 229 -156 226t-139 -214t241 -217l10 -171q-300 -34 -285.5 -243t189 -209.5t130.5 364.5l344 57l33 -179l-151 -37q-16 -277 -163.5 -370t-357.5 -31.5t-239 339.5z" />
<glyph unicode="'" horiz-adv-x="373" d="M35 1449l283 9q20 -311 -49 -440.5t-186 -133.5l-17 130q113 31 121 161l-139 -13z" />
<glyph unicode="," horiz-adv-x="373" d="M35 274l283 9q20 -311 -49 -440.5t-186 -133.5l-17 130q113 31 121 161l-139 -13z" />
<glyph unicode="-" horiz-adv-x="701" d="M53 557l4 200l596 17l-13 -239z" />
<glyph unicode="." horiz-adv-x="351" d="M35 273l281 12l-13 -285l-255 -4q-9 162 -13 277z" />
<glyph unicode="0" horiz-adv-x="965" d="M67 867q32 378 259 505t415.5 -84.5t146.5 -628.5t-301 -509.5t-405.5 123.5t-114.5 594zM279 750.5q8 -265.5 76.5 -360t183.5 -15t136.5 347.5t-79 401t-213 12.5t-104.5 -386z" />
<glyph unicode="1" horiz-adv-x="386" d="M35 1159l1 199l315 4q-13 -635 -13 -1264l-197 -4q-4 430 -3 1065h-103z" />
<glyph unicode="2" horiz-adv-x="806" d="M51 1075q-16 226 139.5 349.5t362.5 65t197 -411.5t-433 -708l454 -15l-4 -218l-680 20l-23 227q437 366 468.5 637.5t-115 275t-156.5 -236.5z" />
<glyph unicode="3" horiz-adv-x="863" d="M35 1105q38 352 265.5 404.5t357 -81.5t116.5 -339t-163 -314q217 -111 188 -389t-239 -339.5t-357.5 31.5t-163.5 370l219 35q-2 -241 155 -240.5t171.5 209.5t-285.5 243l10 171q228 6 241 217t-139 214t-156 -226z" />
<glyph unicode="4" horiz-adv-x="886" d="M35 606q263 446 474 860h213l4 -835h121l4 -207l-120 -4v-316h-209v311l-478 9zM272 618l257 9l-9 476q-145 -265 -248 -485z" />
<glyph unicode="5" horiz-adv-x="896" d="M35 409l213 34q12 -311 189 -294t187.5 284t-153.5 295.5t-202 -142.5l-196 9l8 760l703 30l13 -222l-520 -38l-11 -284q98 145 323 82t248.5 -356.5t-99 -468.5t-400 -140.5t-303.5 451.5z" />
<glyph unicode="6" horiz-adv-x="856" d="M37 652q2 447 128.5 598t379 125t248.5 -404l-210 -4q7 213 -153 194t-174 -422q111 89 252 73.5t227 -122t61.5 -349.5t-206.5 -322t-368.5 53.5t-184.5 579.5zM265 572q-1 -320 140 -344t189.5 118.5t-40.5 238.5t-289 -13z" />
<glyph unicode="7" horiz-adv-x="803" d="M35 1368l725 28l8 -258l-321 -1164l-238 26l309 1142l-478 -24z" />
<glyph unicode="8" horiz-adv-x="850" d="M44 321q-9 145 32 239t141 165q-182 170 -166 392t126.5 290t250 61.5t233.5 -104.5t106.5 -245t-23.5 -230t-151 -159q182 -105 202 -251t-20.5 -273.5t-162 -185t-255 -36.5t-219 106.5t-94.5 230.5zM242.5 1077q-14.5 -126 148.5 -254q104 47 138 102.5t28 148 t-64 126.5t-147 18.5t-103.5 -141.5zM247 355q19 -153 148.5 -162t172 106t4 205t-175.5 123q-168 -119 -149 -272z" />
<glyph unicode="9" horiz-adv-x="866" d="M64.5 1037q29.5 233 211.5 312t368.5 -53.5t184.5 -579.5t-108.5 -598t-364 -125t-283.5 374l210 34q23 -213 183 -194t144 422q-111 -89 -252 -73.5t-232 132t-61.5 349.5zM271.5 1021.5q-48.5 -142.5 40.5 -238.5t289 13q1 320 -140 344t-189.5 -118.5z" />
<glyph unicode=":" horiz-adv-x="359" d="M35 1221l285 -13l4 -255q-162 -9 -277 -13zM39 413l281 12l-13 -285l-255 -4q-9 162 -13 277z" />
<glyph unicode=";" horiz-adv-x="377" d="M35 1221l285 -13l4 -255q-162 -9 -277 -13zM39 409l283 9q20 -311 -49 -440.5t-186 -133.5l-17 130q113 31 121 161l-139 -13z" />
<glyph unicode="?" horiz-adv-x="801" d="M51 1075q-16 226 139.5 349.5t362.5 65t210 -389.5t-279 -477l-10 -221l-177 -2l-5 349q252 62 262 303t-136.5 244.5t-156.5 -236.5zM251 273l281 12l-13 -285l-255 -4q-9 162 -13 277z" />
<glyph unicode="A" d="M35 -74q123 644 265 1541h366q135 -602 331 -1491h-245l-51 346l-376 14l-52 -406zM340 581l346 -8q-97 410 -207 631z" />
<glyph unicode="B" horiz-adv-x="953" d="M35 1422q98 10 185 10q210 0 352 -60q202 -84 204 -384v-10q0 -293 -216 -382q289 -45 289 -304q0 -60 -16 -134q-78 -349 -660 -349q-56 0 -117 3q-7 782 -21 1610zM248 81q383 25 389 208v6q0 178 -384 194zM263 1161l16 -433q295 20 305 230v13q0 191 -300 190h-21z " />
<glyph unicode="C" horiz-adv-x="1061" d="M98 960q63 412 434 486q42 8 80 9q303 0 397 -517l-250 -77q-34 329 -170 329q-27 0 -59 -13q-188 -79 -212 -407q-4 -56 -4 -107q0 -245 100 -355q92 -102 185 -103q29 -1 57 9q124 40 124 370l220 -25q7 -25 7 -60q-1 -102 -59 -284q-78 -243 -348 -267q-19 -2 -38 -2 q-244 0 -380 290q-103 218 -103 486q0 114 19 238z" />
<glyph unicode="D" horiz-adv-x="979" d="M35 1483q71 6 136 6q223 0 383 -67q206 -86 298 -441q33 -126 33 -246q0 -219 -108 -419q-142 -263 -573 -262q-77 0 -162 8zM248 308q15 -1 30 0q253 0 337 165q51 100 51 228q0 95 -29 207q-67 260 -384 286z" />
<glyph unicode="E" horiz-adv-x="728" d="M35 1376q335 16 658 30l-6 -314q-211 15 -434 18l6 -414l384 -4l-20 -234h-340v-289l400 6v-258q-185 5 -378 5q-128 0 -259 -2q8 263 8 544q0 435 -19 912z" />
<glyph unicode="F" horiz-adv-x="697" d="M35 1361l627 19v-303l-402 9l-2 -415l334 9l-3 -224l-312 -5l20 -468l-238 -5q0 407 -24 1383z" />
<glyph unicode="G" horiz-adv-x="1030" d="M96 908q61 593 466 593q7 0 14 -1q386 -9 386 -490q0 -41 -3 -86l-239 -24v32q0 321 -147 321q-11 0 -23 -2q-178 -27 -243 -381q-25 -138 -25 -247q0 -170 62 -271q94 -152 219 -152h19q138 13 181 276l-253 -4l1 211l463 3v-9q0 -556 -240 -685q-90 -49 -178 -49 q-150 0 -293 139q-180 175 -180 586q0 111 13 240z" />
<glyph unicode="H" horiz-adv-x="875" d="M35 1455l256 -6l-15 -679h333l4 595h221l6 -1348l-246 -6l15 529l-356 12l-5 -607l-207 6q0 865 -6 1504z" />
<glyph unicode="I" horiz-adv-x="322" d="M35 32q15 332 15 729q0 286 -8 605l245 7q-13 -381 -13 -794q0 -263 5 -540z" />
<glyph unicode="J" horiz-adv-x="897" d="M35 277l249 41q10 -299 141 -299q19 0 41 7q128 38 128 772q0 257 -16 599l230 35q17 -350 17 -618q0 -595 -83 -782q-114 -260 -365 -260q-13 0 -26 1q-271 14 -316 504z" />
<glyph unicode="K" horiz-adv-x="1016" d="M35 1495l255 -5v-717q270 390 467 689l224 -154q-369 -453 -516 -664q308 -413 459 -584l-185 -180q-292 392 -462 614l-12 -605l-223 -12q5 266 5 573q0 473 -12 1045z" />
<glyph unicode="L" horiz-adv-x="750" d="M35 1365l224 20q-3 -410 -3 -697.5t3 -452.5l452 21l4 -271l-649 -13q-25 868 -31 1393z" />
<glyph unicode="M" horiz-adv-x="1194" d="M35 1425l283 35l276 -963l152 1054l353 -17l60 -1545l-222 8q-14 503 -44 1176q-95 -547 -152 -967l-258 -11q-140 435 -237 896l6 -1049l-211 -15q5 194 5 456q0 394 -11 942z" />
<glyph unicode="N" horiz-adv-x="907" d="M35 1302l277 -15l342 -906v83q0 264 -13 978h226q-5 -241 -5 -546q0 -432 10 -994l-221 -10q-122 304 -388 938q-3 -176 -4 -337q0 -222 7 -416l-220 -6q3 143 3 322q0 375 -14 909z" />
<glyph unicode="O" horiz-adv-x="1085" d="M72 790q36 360 294 482q97 45 187 45q151 1 283 -125q175 -165 175 -461q-1 -67 -9 -139q-48 -398 -341 -514q-98 -39 -182 -39q-168 1 -278 157q-136 192 -136 469q0 60 7 125zM279 656q9 -210 108 -300q54 -49 122 -49q57 1 125 35q148 76 172 287q4 33 3 65 q0 168 -110 279q-69 69 -142 69q-67 0 -138 -57q-141 -113 -140 -305q-1 -12 0 -24z" />
<glyph unicode="P" horiz-adv-x="935" d="M35 1378q21 -749 34 -1356h211q-14 307 -15 1105q42 4 79 4q236 -1 280 -149q13 -45 13 -84q1 -108 -101 -164q-138 -77 -329 -84l-7 -264q524 96 612 387q27 90 28 169q0 176 -136 299q-160 144 -504 145q-78 -1 -165 -8z" />
<glyph unicode="Q" horiz-adv-x="1067" d="M74 795q-6 -66 -6 -127q0 -336 180 -500q144 -129 303 -129q78 0 159 31q249 94 286 509q6 75 6 144q0 313 -136 505q-111 156 -279 156q-83 0 -181 -38q-294 -117 -332 -551zM262 732q24 256 172 358q69 48 129 48q68 0 125 -62q106 -118 115 -380v-29q0 -240 -147 -337 q-71 -46 -136 -46q-79 0 -151 68q-111 104 -111 303q0 37 4 77zM462 511l300 -664l172 107l-322 642z" />
<glyph unicode="R" horiz-adv-x="903" d="M35 1408q21 -714 34 -1391h194q-7 119 -7 376q0 292 9 763q67 10 122 10q197 0 237 -126q13 -43 13 -82q1 -108 -101 -184q-138 -104 -329 -112l-7 -210l189 20q107 -177 223 -580l253 51q-211 443 -299 578q230 141 266 375q6 39 7 75q0 185 -151 327q-133 125 -427 125 q-103 0 -226 -15z" />
<glyph unicode="S" horiz-adv-x="923" d="M41 423l204 19q30 -297 180 -297q9 1 17 1q164 16 178 158q1 7 1 13q-1 135 -277 267q-290 140 -299 458v21q-1 301 269 411q110 45 199 44q138 0 228 -108q134 -162 134 -432q0 -26 -1 -53l-248 -19q-20 359 -153 359h-4q-137 -5 -175 -169q-9 -37 -9 -71 q-1 -115 103 -193q134 -100 292 -196t178 -252q3 -22 3 -44q0 -136 -110 -285q-107 -146 -331 -146q-41 1 -85 5q-289 32 -294 509z" />
<glyph unicode="T" horiz-adv-x="909" d="M35 1453q339 4 833 52l6 -301l-307 10q1 -689 24 -1109l-255 -13q17 297 17 694q0 190 -4 403q-146 0 -301 -26q2 28 2 61q0 94 -15 229z" />
<glyph unicode="U" horiz-adv-x="921" d="M63 1226l232 7q-15 -284 -15 -484q0 -377 54 -455q44 -64 109 -64q57 0 131 50q107 72 107 537q0 216 -23 516l228 10q0 -866 -51.5 -1074.5t-275.5 -280.5q-58 -18 -111 -18q-152 0 -263 152q-126 173 -126 839q0 124 4 265z" />
<glyph unicode="V" horiz-adv-x="1036" d="M35 1343l224 46l231 -991l253 1013l258 -40l-413 -1276l-246 -5z" />
<glyph unicode="W" horiz-adv-x="1422" d="M35 1387l277 63l90 -975l157 719l271 6l170 -777l131 1012l256 -32q-112 -609 -257 -1347h-272l-165 867l-185 -798l-218 -21q-115 646 -255 1283z" />
<glyph unicode="X" horiz-adv-x="1051" d="M35 1334l248 44l220 -581l211 586l262 -24l-297 -712l337 -730l-231 -28l-281 601l-221 -524l-223 28l269 654z" />
<glyph unicode="Y" horiz-adv-x="1074" d="M35 1294l232 44l244 -547l307 575l221 -57l-430 -748q-1 -76 -1 -147q0 -262 9 -462l-242 -7q20 355 20 566v53z" />
<glyph unicode="Z" horiz-adv-x="811" d="M35 1047l6 261l683 32l10 -287l-443 -800l485 31l-12 -270q-281 0 -705 -11l-6 256l426 813q-174 -8 -444 -25z" />
<glyph unicode="a" d="M35 -74q123 644 265 1541h366q135 -602 331 -1491h-245l-51 346l-376 14l-52 -406zM340 581l346 -8q-97 410 -207 631z" />
<glyph unicode="b" horiz-adv-x="953" d="M35 1422q98 10 185 10q210 0 352 -60q202 -84 204 -384v-10q0 -293 -216 -382q289 -45 289 -304q0 -60 -16 -134q-78 -349 -660 -349q-56 0 -117 3q-7 782 -21 1610zM248 81q383 25 389 208v6q0 178 -384 194zM263 1161l16 -433q295 20 305 230v13q0 191 -300 190h-21z " />
<glyph unicode="c" horiz-adv-x="1061" d="M98 960q63 412 434 486q42 8 80 9q303 0 397 -517l-250 -77q-34 329 -170 329q-27 0 -59 -13q-188 -79 -212 -407q-4 -56 -4 -107q0 -245 100 -355q92 -102 185 -103q29 -1 57 9q124 40 124 370l220 -25q7 -25 7 -60q-1 -102 -59 -284q-78 -243 -348 -267q-19 -2 -38 -2 q-244 0 -380 290q-103 218 -103 486q0 114 19 238z" />
<glyph unicode="d" horiz-adv-x="979" d="M35 1483q71 6 136 6q223 0 383 -67q206 -86 298 -441q33 -126 33 -246q0 -219 -108 -419q-142 -263 -573 -262q-77 0 -162 8zM248 308q15 -1 30 0q253 0 337 165q51 100 51 228q0 95 -29 207q-67 260 -384 286z" />
<glyph unicode="e" horiz-adv-x="728" d="M35 1376q335 16 658 30l-6 -314q-211 15 -434 18l6 -414l384 -4l-20 -234h-340v-289l400 6v-258q-185 5 -378 5q-128 0 -259 -2q8 263 8 544q0 435 -19 912z" />
<glyph unicode="f" horiz-adv-x="697" d="M35 1361l627 19v-303l-402 9l-2 -415l334 9l-3 -224l-312 -5l20 -468l-238 -5q0 407 -24 1383z" />
<glyph unicode="g" horiz-adv-x="1030" d="M96 908q61 593 466 593q7 0 14 -1q386 -9 386 -490q0 -41 -3 -86l-239 -24v32q0 321 -147 321q-11 0 -23 -2q-178 -27 -243 -381q-25 -138 -25 -247q0 -170 62 -271q94 -152 219 -152h19q138 13 181 276l-253 -4l1 211l463 3v-9q0 -556 -240 -685q-90 -49 -178 -49 q-150 0 -293 139q-180 175 -180 586q0 111 13 240z" />
<glyph unicode="h" horiz-adv-x="875" d="M35 1455l256 -6l-15 -679h333l4 595h221l6 -1348l-246 -6l15 529l-356 12l-5 -607l-207 6q0 865 -6 1504z" />
<glyph unicode="i" horiz-adv-x="322" d="M35 32q15 332 15 729q0 286 -8 605l245 7q-13 -381 -13 -794q0 -263 5 -540z" />
<glyph unicode="j" horiz-adv-x="897" d="M35 277l249 41q10 -299 141 -299q19 0 41 7q128 38 128 772q0 257 -16 599l230 35q17 -350 17 -618q0 -595 -83 -782q-114 -260 -365 -260q-13 0 -26 1q-271 14 -316 504z" />
<glyph unicode="k" horiz-adv-x="1016" d="M35 1495l255 -5v-717q270 390 467 689l224 -154q-369 -453 -516 -664q308 -413 459 -584l-185 -180q-292 392 -462 614l-12 -605l-223 -12q5 266 5 573q0 473 -12 1045z" />
<glyph unicode="l" horiz-adv-x="750" d="M35 1365l224 20q-3 -410 -3 -697.5t3 -452.5l452 21l4 -271l-649 -13q-25 868 -31 1393z" />
<glyph unicode="m" horiz-adv-x="1194" d="M35 1425l283 35l276 -963l152 1054l353 -17l60 -1545l-222 8q-14 503 -44 1176q-95 -547 -152 -967l-258 -11q-140 435 -237 896l6 -1049l-211 -15q5 194 5 456q0 394 -11 942z" />
<glyph unicode="n" horiz-adv-x="907" d="M35 1302l277 -15l342 -906v83q0 264 -13 978h226q-5 -241 -5 -546q0 -432 10 -994l-221 -10q-122 304 -388 938q-3 -176 -4 -337q0 -222 7 -416l-220 -6q3 143 3 322q0 375 -14 909z" />
<glyph unicode="o" horiz-adv-x="1085" d="M72 790q36 360 294 482q97 45 187 45q151 1 283 -125q175 -165 175 -461q-1 -67 -9 -139q-48 -398 -341 -514q-98 -39 -182 -39q-168 1 -278 157q-136 192 -136 469q0 60 7 125zM279 656q9 -210 108 -300q54 -49 122 -49q57 1 125 35q148 76 172 287q4 33 3 65 q0 168 -110 279q-69 69 -142 69q-67 0 -138 -57q-141 -113 -140 -305q-1 -12 0 -24z" />
<glyph unicode="p" horiz-adv-x="935" d="M35 1378q21 -749 34 -1356h211q-14 307 -15 1105q42 4 79 4q237 0 280 -149q13 -45 13 -84q0 -107 -101 -164q-138 -77 -329 -84l-7 -264q524 96 612 387q27 90 27 169q0 177 -135 299q-160 144 -504 144q-78 0 -165 -7z" />
<glyph unicode="q" horiz-adv-x="1067" d="M74 795q-6 -66 -6 -127q0 -336 180 -500q144 -129 303 -129q78 0 159 31q249 94 286 509q6 75 6 144q0 313 -136 505q-111 156 -279 156q-83 0 -181 -38q-294 -117 -332 -551zM262 732q24 256 172 358q69 48 129 48q68 0 125 -62q106 -118 115 -380v-29q0 -240 -147 -337 q-71 -46 -136 -46q-79 0 -151 68q-111 104 -111 303q0 37 4 77zM462 511l300 -664l172 107l-322 642z" />
<glyph unicode="r" horiz-adv-x="903" d="M35 1408q21 -714 34 -1391h194q-7 119 -7 376q0 292 9 763q67 10 122 10q197 0 237 -126q13 -43 13 -82q1 -108 -101 -184q-138 -104 -329 -112l-7 -210l189 20q107 -177 223 -580l253 51q-211 443 -299 578q230 141 266 375q6 39 7 75q0 185 -151 327q-133 125 -427 125 q-103 0 -226 -15z" />
<glyph unicode="s" horiz-adv-x="923" d="M41 423l204 19q30 -297 180 -297q9 1 17 1q164 16 178 158q1 7 1 13q-1 135 -277 267q-290 140 -299 458v21q-1 301 269 411q110 45 199 44q138 0 228 -108q134 -162 134 -432q0 -26 -1 -53l-248 -19q-20 359 -153 359h-4q-137 -5 -175 -169q-9 -37 -9 -71 q-1 -115 103 -193q134 -100 292 -196t178 -252q3 -22 3 -44q0 -136 -110 -285q-107 -146 -331 -146q-41 1 -85 5q-289 32 -294 509z" />
<glyph unicode="t" horiz-adv-x="909" d="M35 1453q339 4 833 52l6 -301l-307 10q1 -689 24 -1109l-255 -13q17 297 17 694q0 190 -4 403q-146 0 -301 -26q2 28 2 61q0 94 -15 229z" />
<glyph unicode="u" horiz-adv-x="921" d="M63 1226l232 7q-15 -284 -15 -484q0 -377 54 -455q44 -64 109 -64q57 0 131 50q107 72 107 537q0 216 -23 516l228 10q0 -866 -51.5 -1074.5t-275.5 -280.5q-58 -18 -111 -18q-152 0 -263 152q-126 173 -126 839q0 124 4 265z" />
<glyph unicode="v" horiz-adv-x="1036" d="M35 1343l224 46l231 -991l253 1013l258 -40l-413 -1276l-246 -5z" />
<glyph unicode="w" horiz-adv-x="1422" d="M35 1387l277 63l90 -975l157 719l271 6l170 -777l131 1012l256 -32q-112 -609 -257 -1347h-272l-165 867l-185 -798l-218 -21q-115 646 -255 1283z" />
<glyph unicode="x" horiz-adv-x="1051" d="M35 1334l248 44l220 -581l211 586l262 -24l-297 -712l337 -730l-231 -28l-281 601l-221 -524l-223 28l269 654z" />
<glyph unicode="y" horiz-adv-x="1074" d="M35 1294l232 44l244 -547l307 575l221 -57l-430 -748q-1 -76 -1 -147q0 -262 9 -462l-242 -7q20 355 20 566v53z" />
<glyph unicode="z" horiz-adv-x="811" d="M35 1047l6 261l683 32l10 -287l-443 -800l485 31l-12 -270q-281 0 -705 -11l-6 256l426 813q-174 -8 -444 -25z" />
<glyph unicode="&#xa1;" horiz-adv-x="363" d="M35 -78q35 648 48 1037l197 5q8 -572 25 -1029zM47 1094l13 285l255 4q9 -162 13 -277z" />
<glyph unicode="&#xad;" horiz-adv-x="701" d="M53 557l4 200l596 17l-13 -239z" />
<glyph unicode="&#xbf;" horiz-adv-x="801" d="M38 279q-3 331 279 477l10 221l177 2l5 -349q-252 -62 -262 -303t136.5 -244.5t156.5 236.5l210 -15q16 -226 -139.5 -349.5t-362.5 -65t-210 389.5zM269 1094l13 285l255 4q9 -162 13 -277z" />
<glyph unicode="&#xc0;" d="M35 -74q123 644 265 1541h366q135 -602 331 -1491h-245l-51 346l-376 14l-52 -406zM244 1698l93 149q142 -112 251 -210l-91 -108q-143 101 -253 169zM340 581l346 -8q-97 410 -207 631z" />
<glyph unicode="&#xc1;" d="M35 -74q123 644 265 1541h366q135 -602 331 -1491h-245l-51 346l-376 14l-52 -406zM340 581l346 -8q-97 410 -207 631zM365 1643q110 98 251 210l94 -149q-111 -68 -254 -169z" />
<glyph unicode="&#xc2;" d="M35 -74q123 644 265 1541h366q135 -602 331 -1491h-245l-51 346l-376 14l-52 -406zM175 1637l319 200l312 -204l-86 -111l-227 122l-257 -123zM340 581l346 -8q-97 410 -207 631z" />
<glyph unicode="&#xc3;" d="M35 -74q123 644 265 1541h366q135 -602 331 -1491h-245l-51 346l-376 14l-52 -406zM140 1544q-7 220 123 254t288 -56.5t154 66.5l111 -8q-5 -203 -110.5 -237t-272 53t-163.5 -71zM340 581l346 -8q-97 410 -207 631z" />
<glyph unicode="&#xc4;" d="M35 -74q123 644 265 1541h366q135 -602 331 -1491h-245l-51 346l-376 14l-52 -406zM151 1673q0 55 39 94.5t95 39.5q55 0 94.5 -39.5t39.5 -94.5q0 -56 -39.5 -95.5t-94.5 -39.5q-56 0 -95 39.5t-39 95.5zM340 581l346 -8q-97 410 -207 631zM557 1673q0 55 39 94.5 t95 39.5q55 0 94.5 -39.5t39.5 -94.5q0 -56 -39.5 -95.5t-94.5 -39.5q-56 0 -95 39.5t-39 95.5z" />
<glyph unicode="&#xc5;" d="M35 -74q123 644 265 1541h366q135 -602 331 -1491h-245l-51 346l-376 14l-52 -406zM285 1706q0 76 54.5 130.5t130.5 54.5q77 0 131.5 -54.5t54.5 -130.5q0 -77 -54.5 -131.5t-131.5 -54.5q-76 0 -130.5 54.5t-54.5 131.5zM340 581l346 -8q-97 410 -207 631zM399 1707 q0 -28 22 -48.5t54 -20.5t54 20.5t22 48.5q0 29 -22 49t-54 20t-54 -20t-22 -49z" />
<glyph unicode="&#xc6;" horiz-adv-x="1366" d="M35 -73q155 886 272 1553q604 -10 1024 22l-14 -318l-424 23l4 -420l376 -10l-9 -232h-344l-4 -290l393 8l8 -250h-644l14 308l-362 18l-53 -412h-237zM340 581l346 -8l6 642l-213 -11z" />
<glyph unicode="&#xc7;" horiz-adv-x="1061" d="M98 960q-63 -413 84.5 -724.5t418 -287.5t348 267t51.5 344l-220 25q0 -329 -123.5 -369.5t-243 93t-95 462t212 407.5t228.5 -316l250 77q-106 582 -477 508.5t-434 -486.5zM351 -228q28 -163 171 -166t203 50.5t51 140.5t-138 123l5 111l-117 -3l-18 -179 q126 -6 143.5 -66.5t-74 -75t-91.5 81.5z" />
<glyph unicode="&#xc8;" horiz-adv-x="728" d="M35 1376q335 16 658 30l-6 -314q-211 15 -434 18l6 -414l384 -4l-20 -234h-340v-289l400 6v-258q-309 9 -637 3q20 671 -11 1456zM206 1698l93 149q142 -112 251 -210l-91 -108q-143 101 -253 169z" />
<glyph unicode="&#xc9;" horiz-adv-x="728" d="M35 1376q335 16 658 30l-6 -314q-211 15 -434 18l6 -414l384 -4l-20 -234h-340v-289l400 6v-258q-309 9 -637 3q20 671 -11 1456zM187 1643q110 98 251 210l94 -149q-111 -68 -254 -169z" />
<glyph unicode="&#xca;" horiz-adv-x="728" d="M35 1376q335 16 658 30l-6 -314q-211 15 -434 18l6 -414l384 -4l-20 -234h-340v-289l400 6v-258q-309 9 -637 3q20 671 -11 1456zM37 1637l319 200l312 -204l-86 -111l-227 122l-257 -123z" />
<glyph unicode="&#xcb;" horiz-adv-x="744" d="M35 1673q0 55 39.5 94.5t94.5 39.5q56 0 95 -39.5t39 -94.5q0 -56 -39 -95.5t-95 -39.5q-55 0 -94.5 39.5t-39.5 95.5zM37 1376q335 16 658 30l-5 -314q-212 15 -434 18l5 -414l384 -4l-20 -234h-340v-289l401 6v-258q-310 9 -637 3q19 671 -12 1456zM441 1673 q0 55 39.5 94.5t94.5 39.5q56 0 95 -39.5t39 -94.5q0 -56 -39 -95.5t-95 -39.5q-55 0 -94.5 39.5t-39.5 95.5z" />
<glyph unicode="&#xcc;" horiz-adv-x="414" d="M35 1698l94 149q141 -112 250 -210l-91 -108q-142 101 -253 169zM74 32q26 571 7 1334l245 7q-22 -623 -8 -1334z" />
<glyph unicode="&#xcd;" horiz-adv-x="414" d="M35 1643q109 98 251 210l93 -149q-110 -68 -253 -169zM83 32q25 571 7 1334l245 7q-23 -623 -9 -1334z" />
<glyph unicode="&#xce;" horiz-adv-x="701" d="M35 1637l319 200l312 -204l-86 -111l-227 122l-257 -123zM223 32q25 571 7 1334l245 7q-22 -623 -8 -1334z" />
<glyph unicode="&#xcf;" horiz-adv-x="744" d="M35 1673q0 55 39.5 94.5t94.5 39.5q56 0 95 -39.5t39 -94.5q0 -56 -39 -95.5t-95 -39.5q-55 0 -94.5 39.5t-39.5 95.5zM237 32q25 571 7 1334l245 7q-22 -623 -8 -1334zM441 1673q0 55 39.5 94.5t94.5 39.5q56 0 95 -39.5t39 -94.5q0 -56 -39 -95.5t-95 -39.5 q-55 0 -94.5 39.5t-39.5 95.5z" />
<glyph unicode="&#xd0;" horiz-adv-x="1103" d="M35 654l519 -4l4 204l-515 8zM159 1483l7 -1421q568 -55 735 254.5t75 664.5t-297.5 441t-519.5 61zM372 308l5 886q317 -25 384 -285.5t-22 -435.5t-367 -165z" />
<glyph unicode="&#xd1;" horiz-adv-x="907" d="M35 1302l277 -15l342 -906q3 213 -13 1061h226q-12 -582 5 -1540l-221 -10q-122 304 -388 938q-8 -417 3 -753l-220 -6q10 443 -11 1231zM102 1544q-7 220 123 254t288 -56.5t154 66.5l111 -8q-5 -203 -110.5 -237t-272 53t-163.5 -71z" />
<glyph unicode="&#xd2;" horiz-adv-x="1085" d="M71.5 790.5q36.5 360.5 294 481.5t471 -80.5t166 -599t-341.5 -514.5t-460 117.5t-129.5 595zM279 656q9 -209 108 -299.5t246.5 -15t172 287.5t-106.5 344t-280 12t-140 -329zM342 1598l93 149q142 -112 251 -210l-91 -108q-143 101 -253 169z" />
<glyph unicode="&#xd3;" horiz-adv-x="1085" d="M71.5 790.5q36.5 360.5 294 481.5t471 -80.5t166 -599t-341.5 -514.5t-460 117.5t-129.5 595zM279 656q9 -209 108 -299.5t246.5 -15t172 287.5t-106.5 344t-280 12t-140 -329zM343 1543q110 98 251 210l94 -149q-111 -68 -254 -169z" />
<glyph unicode="&#xd4;" horiz-adv-x="1085" d="M71.5 790.5q36.5 360.5 294 481.5t471 -80.5t166 -599t-341.5 -514.5t-460 117.5t-129.5 595zM213 1537l319 200l312 -204l-86 -111l-227 122l-257 -123zM279 656q9 -209 108 -299.5t246.5 -15t172 287.5t-106.5 344t-280 12t-140 -329z" />
<glyph unicode="&#xd5;" horiz-adv-x="1085" d="M71.5 790.5q36.5 360.5 294 481.5t471 -80.5t166 -599t-341.5 -514.5t-460 117.5t-129.5 595zM188 1424q-7 220 123 254t288 -56.5t154 66.5l111 -8q-5 -203 -110.5 -237t-272 53t-163.5 -71zM279 656q9 -209 108 -299.5t246.5 -15t172 287.5t-106.5 344t-280 12 t-140 -329z" />
<glyph unicode="&#xd6;" horiz-adv-x="1085" d="M71.5 790.5q36.5 360.5 294 481.5t471 -80.5t166 -599t-341.5 -514.5t-460 117.5t-129.5 595zM191 1552q0 55 39 94.5t95 39.5q55 0 94.5 -39.5t39.5 -94.5q0 -56 -39.5 -95.5t-94.5 -39.5q-56 0 -95 39.5t-39 95.5zM279 656q9 -209 108 -299.5t246.5 -15t172 287.5 t-106.5 344t-280 12t-140 -329zM597 1552q0 55 39 94.5t95 39.5q55 0 94.5 -39.5t39.5 -94.5q0 -56 -39.5 -95.5t-94.5 -39.5q-56 0 -95 39.5t-39 95.5z" />
<glyph unicode="&#xd8;" horiz-adv-x="1085" d="M71.5 790.5q-36.5 -360.5 129.5 -595t460 -117.5t341.5 514.5t-166 599t-471 80.5t-294 -481.5zM132 -80l143 -87q308 755 703 1572l-199 95q-304 -760 -647 -1580zM279 656q-9 209 140 329t280 -12t106.5 -344t-172 -287.5t-246.5 15t-108 299.5z" />
<glyph unicode="&#xd9;" horiz-adv-x="921" d="M63 1226l232 7q-44 -819 39 -939t240 -14t84 1053l228 10q0 -866 -51.5 -1074.5t-275.5 -280t-374 134t-122 1103.5zM296 1598l93 149q142 -112 251 -210l-91 -108q-143 101 -253 169z" />
<glyph unicode="&#xda;" horiz-adv-x="921" d="M63 1226l232 7q-44 -819 39 -939t240 -14t84 1053l228 10q0 -866 -51.5 -1074.5t-275.5 -280t-374 134t-122 1103.5zM297 1543q110 98 251 210l94 -149q-111 -68 -254 -169z" />
<glyph unicode="&#xdb;" horiz-adv-x="921" d="M63 1226l232 7q-44 -819 39 -939t240 -14t84 1053l228 10q0 -866 -51.5 -1074.5t-275.5 -280t-374 134t-122 1103.5zM147 1537l319 200l312 -204l-86 -111l-227 122l-257 -123z" />
<glyph unicode="&#xdc;" horiz-adv-x="921" d="M63 1226l232 7q-44 -819 39 -939t240 -14t84 1053l228 10q0 -866 -51.5 -1074.5t-275.5 -280t-374 134t-122 1103.5zM135 1552q0 55 39 94.5t95 39.5q55 0 94.5 -39.5t39.5 -94.5q0 -56 -39.5 -95.5t-94.5 -39.5q-56 0 -95 39.5t-39 95.5zM541 1552q0 55 39 94.5t95 39.5 q55 0 94.5 -39.5t39.5 -94.5q0 -56 -39.5 -95.5t-94.5 -39.5q-56 0 -95 39.5t-39 95.5z" />
<glyph unicode="&#xdd;" horiz-adv-x="1074" d="M35 1294l232 44l244 -547l307 575l221 -57l-430 -748q-3 -354 8 -609l-242 -7q23 401 20 619zM370 1563q110 98 251 210l94 -149q-111 -68 -254 -169z" />
<glyph unicode="&#xde;" horiz-adv-x="927" d="M35 1428q2 -507 10 -1462l204 -4l8 278q254 -28 444.5 149t92.5 513t-620 262l15 -264q188 73 323.5 -4t96 -248.5t-337.5 -164.5q-32 738 -25 965z" />
<glyph unicode="&#xdf;" horiz-adv-x="1827" d="M41 423l204 19q32 -313 196.5 -296.5t178.5 158t-275.5 281t-299.5 457t269.5 432t426.5 -63t133 -485.5l-248 -19q-20 365 -157 359t-175.5 -169.5t95 -264t291 -196.5t178 -251.5t-106.5 -328.5t-416 -141.5t-294 509.5zM954 584l248 19q19 -365 156.5 -358.5 t176 169.5t-95.5 243.5t-291.5 176.5t-177.5 296.5t106.5 348.5t415.5 116.5t295 -509.5l-235 -19q-32 313 -181.5 296.5t-163.5 -178t276 -281t299.5 -437t-269.5 -431.5t-426 63t-133 485z" />
<glyph unicode="&#xe0;" d="M35 -74q123 644 265 1541h366q135 -602 331 -1491h-245l-51 346l-376 14l-52 -406zM244 1698l93 149q142 -112 251 -210l-91 -108q-143 101 -253 169zM340 581l346 -8q-97 410 -207 631z" />
<glyph unicode="&#xe1;" d="M35 -74q123 644 265 1541h366q135 -602 331 -1491h-245l-51 346l-376 14l-52 -406zM340 581l346 -8q-97 410 -207 631zM365 1643q110 98 251 210l94 -149q-111 -68 -254 -169z" />
<glyph unicode="&#xe2;" d="M35 -74q123 644 265 1541h366q135 -602 331 -1491h-245l-51 346l-376 14l-52 -406zM175 1637l319 200l312 -204l-86 -111l-227 122l-257 -123zM340 581l346 -8q-97 410 -207 631z" />
<glyph unicode="&#xe3;" d="M35 -74q123 644 265 1541h366q135 -602 331 -1491h-245l-51 346l-376 14l-52 -406zM140 1544q-7 220 123 254t288 -56.5t154 66.5l111 -8q-5 -203 -110.5 -237t-272 53t-163.5 -71zM340 581l346 -8q-97 410 -207 631z" />
<glyph unicode="&#xe4;" d="M35 -74q123 644 265 1541h366q135 -602 331 -1491h-245l-51 346l-376 14l-52 -406zM151 1673q0 55 39 94.5t95 39.5q55 0 94.5 -39.5t39.5 -94.5q0 -56 -39.5 -95.5t-94.5 -39.5q-56 0 -95 39.5t-39 95.5zM340 581l346 -8q-97 410 -207 631zM557 1673q0 55 39 94.5 t95 39.5q55 0 94.5 -39.5t39.5 -94.5q0 -56 -39.5 -95.5t-94.5 -39.5q-56 0 -95 39.5t-39 95.5z" />
<glyph unicode="&#xe5;" d="M35 -74q123 644 265 1541h366q135 -602 331 -1491h-245l-51 346l-376 14l-52 -406zM285 1706q0 76 54.5 130.5t130.5 54.5q77 0 131.5 -54.5t54.5 -130.5q0 -77 -54.5 -131.5t-131.5 -54.5q-76 0 -130.5 54.5t-54.5 131.5zM340 581l346 -8q-97 410 -207 631zM399 1707 q0 -28 22 -48.5t54 -20.5t54 20.5t22 48.5q0 29 -22 49t-54 20t-54 -20t-22 -49z" />
<glyph unicode="&#xe6;" horiz-adv-x="1366" d="M35 -73q155 886 272 1553q604 -10 1024 22l-14 -318l-424 23l4 -420l376 -10l-9 -232h-344l-4 -290l393 8l8 -250h-644l14 308l-362 18l-53 -412h-237zM340 581l346 -8l6 642l-213 -11z" />
<glyph unicode="&#xe7;" horiz-adv-x="1061" d="M98 960q-63 -413 84.5 -724.5t418 -287.5t348 267t51.5 344l-220 25q0 -329 -123.5 -369.5t-243 93t-95 462t212 407.5t228.5 -316l250 77q-106 582 -477 508.5t-434 -486.5zM351 -228q28 -163 171 -166t203 50.5t51 140.5t-138 123l5 111l-117 -3l-18 -179 q126 -6 143.5 -66.5t-74 -75t-91.5 81.5z" />
<glyph unicode="&#xe8;" horiz-adv-x="728" d="M35 1376q335 16 658 30l-6 -314q-211 15 -434 18l6 -414l384 -4l-20 -234h-340v-289l400 6v-258q-309 9 -637 3q20 671 -11 1456zM206 1698l93 149q142 -112 251 -210l-91 -108q-143 101 -253 169z" />
<glyph unicode="&#xe9;" horiz-adv-x="728" d="M35 1376q335 16 658 30l-6 -314q-211 15 -434 18l6 -414l384 -4l-20 -234h-340v-289l400 6v-258q-309 9 -637 3q20 671 -11 1456zM187 1643q110 98 251 210l94 -149q-111 -68 -254 -169z" />
<glyph unicode="&#xea;" horiz-adv-x="728" d="M35 1376q335 16 658 30l-6 -314q-211 15 -434 18l6 -414l384 -4l-20 -234h-340v-289l400 6v-258q-309 9 -637 3q20 671 -11 1456zM37 1637l319 200l312 -204l-86 -111l-227 122l-257 -123z" />
<glyph unicode="&#xeb;" horiz-adv-x="744" d="M35 1673q0 55 39.5 94.5t94.5 39.5q56 0 95 -39.5t39 -94.5q0 -56 -39 -95.5t-95 -39.5q-55 0 -94.5 39.5t-39.5 95.5zM37 1376q335 16 658 30l-5 -314q-212 15 -434 18l5 -414l384 -4l-20 -234h-340v-289l401 6v-258q-310 9 -637 3q19 671 -12 1456zM441 1673 q0 55 39.5 94.5t94.5 39.5q56 0 95 -39.5t39 -94.5q0 -56 -39 -95.5t-95 -39.5q-55 0 -94.5 39.5t-39.5 95.5z" />
<glyph unicode="&#xec;" horiz-adv-x="414" d="M35 1698l94 149q141 -112 250 -210l-91 -108q-142 101 -253 169zM74 32q26 571 7 1334l245 7q-22 -623 -8 -1334z" />
<glyph unicode="&#xed;" horiz-adv-x="414" d="M35 1643q109 98 251 210l93 -149q-110 -68 -253 -169zM83 32q25 571 7 1334l245 7q-23 -623 -9 -1334z" />
<glyph unicode="&#xee;" horiz-adv-x="701" d="M35 1637l319 200l312 -204l-86 -111l-227 122l-257 -123zM223 32q25 571 7 1334l245 7q-22 -623 -8 -1334z" />
<glyph unicode="&#xef;" horiz-adv-x="744" d="M35 1673q0 55 39.5 94.5t94.5 39.5q56 0 95 -39.5t39 -94.5q0 -56 -39 -95.5t-95 -39.5q-55 0 -94.5 39.5t-39.5 95.5zM237 32q25 571 7 1334l245 7q-22 -623 -8 -1334zM441 1673q0 55 39.5 94.5t94.5 39.5q56 0 95 -39.5t39 -94.5q0 -56 -39 -95.5t-95 -39.5 q-55 0 -94.5 39.5t-39.5 95.5z" />
<glyph unicode="&#xf0;" horiz-adv-x="1103" d="M35 654l519 -4l4 204l-515 8zM159 1483l7 -1421q568 -55 735 254.5t75 664.5t-297.5 441t-519.5 61zM372 308l5 886q317 -25 384 -285.5t-22 -435.5t-367 -165z" />
<glyph unicode="&#xf1;" horiz-adv-x="907" d="M35 1302l277 -15l342 -906q3 213 -13 1061h226q-12 -582 5 -1540l-221 -10q-122 304 -388 938q-8 -417 3 -753l-220 -6q10 443 -11 1231zM102 1544q-7 220 123 254t288 -56.5t154 66.5l111 -8q-5 -203 -110.5 -237t-272 53t-163.5 -71z" />
<glyph unicode="&#xf2;" horiz-adv-x="1085" d="M71.5 790.5q36.5 360.5 294 481.5t471 -80.5t166 -599t-341.5 -514.5t-460 117.5t-129.5 595zM279 656q9 -209 108 -299.5t246.5 -15t172 287.5t-106.5 344t-280 12t-140 -329zM342 1598l93 149q142 -112 251 -210l-91 -108q-143 101 -253 169z" />
<glyph unicode="&#xf3;" horiz-adv-x="1085" d="M71.5 790.5q36.5 360.5 294 481.5t471 -80.5t166 -599t-341.5 -514.5t-460 117.5t-129.5 595zM279 656q9 -209 108 -299.5t246.5 -15t172 287.5t-106.5 344t-280 12t-140 -329zM343 1543q110 98 251 210l94 -149q-111 -68 -254 -169z" />
<glyph unicode="&#xf4;" horiz-adv-x="1085" d="M71.5 790.5q36.5 360.5 294 481.5t471 -80.5t166 -599t-341.5 -514.5t-460 117.5t-129.5 595zM213 1537l319 200l312 -204l-86 -111l-227 122l-257 -123zM279 656q9 -209 108 -299.5t246.5 -15t172 287.5t-106.5 344t-280 12t-140 -329z" />
<glyph unicode="&#xf5;" horiz-adv-x="1085" d="M71.5 790.5q36.5 360.5 294 481.5t471 -80.5t166 -599t-341.5 -514.5t-460 117.5t-129.5 595zM188 1424q-7 220 123 254t288 -56.5t154 66.5l111 -8q-5 -203 -110.5 -237t-272 53t-163.5 -71zM279 656q9 -209 108 -299.5t246.5 -15t172 287.5t-106.5 344t-280 12 t-140 -329z" />
<glyph unicode="&#xf6;" horiz-adv-x="1085" d="M71.5 790.5q36.5 360.5 294 481.5t471 -80.5t166 -599t-341.5 -514.5t-460 117.5t-129.5 595zM191 1552q0 55 39 94.5t95 39.5q55 0 94.5 -39.5t39.5 -94.5q0 -56 -39.5 -95.5t-94.5 -39.5q-56 0 -95 39.5t-39 95.5zM279 656q9 -209 108 -299.5t246.5 -15t172 287.5 t-106.5 344t-280 12t-140 -329zM597 1552q0 55 39 94.5t95 39.5q55 0 94.5 -39.5t39.5 -94.5q0 -56 -39.5 -95.5t-94.5 -39.5q-56 0 -95 39.5t-39 95.5z" />
<glyph unicode="&#xf8;" horiz-adv-x="1085" d="M71.5 790.5q-36.5 -360.5 129.5 -595t460 -117.5t341.5 514.5t-166 599t-471 80.5t-294 -481.5zM132 -80l143 -87q308 755 703 1572l-199 95q-304 -760 -647 -1580zM279 656q-9 209 140 329t280 -12t106.5 -344t-172 -287.5t-246.5 15t-108 299.5z" />
<glyph unicode="&#xf9;" horiz-adv-x="921" d="M63 1226l232 7q-44 -819 39 -939t240 -14t84 1053l228 10q0 -866 -51.5 -1074.5t-275.5 -280t-374 134t-122 1103.5zM296 1598l93 149q142 -112 251 -210l-91 -108q-143 101 -253 169z" />
<glyph unicode="&#xfa;" horiz-adv-x="921" d="M63 1226l232 7q-44 -819 39 -939t240 -14t84 1053l228 10q0 -866 -51.5 -1074.5t-275.5 -280t-374 134t-122 1103.5zM297 1543q110 98 251 210l94 -149q-111 -68 -254 -169z" />
<glyph unicode="&#xfb;" horiz-adv-x="921" d="M63 1226l232 7q-44 -819 39 -939t240 -14t84 1053l228 10q0 -866 -51.5 -1074.5t-275.5 -280t-374 134t-122 1103.5zM147 1537l319 200l312 -204l-86 -111l-227 122l-257 -123z" />
<glyph unicode="&#xfc;" horiz-adv-x="921" d="M63 1226l232 7q-44 -819 39 -939t240 -14t84 1053l228 10q0 -866 -51.5 -1074.5t-275.5 -280t-374 134t-122 1103.5zM135 1552q0 55 39 94.5t95 39.5q55 0 94.5 -39.5t39.5 -94.5q0 -56 -39.5 -95.5t-94.5 -39.5q-56 0 -95 39.5t-39 95.5zM541 1552q0 55 39 94.5t95 39.5 q55 0 94.5 -39.5t39.5 -94.5q0 -56 -39.5 -95.5t-94.5 -39.5q-56 0 -95 39.5t-39 95.5z" />
<glyph unicode="&#xfd;" horiz-adv-x="1074" d="M35 1294l232 44l244 -547l307 575l221 -57l-430 -748q-3 -354 8 -609l-242 -7q23 401 20 619zM370 1563q110 98 251 210l94 -149q-111 -68 -254 -169z" />
<glyph unicode="&#xfe;" horiz-adv-x="927" d="M35 1428q2 -507 10 -1462l204 -4l8 278q254 -28 444.5 149t92.5 513t-620 262l15 -264q188 73 323.5 -4t96 -248.5t-337.5 -164.5q-32 738 -25 965z" />
<glyph unicode="&#xff;" horiz-adv-x="1074" d="M35 1294l232 44l244 -547l307 575l221 -57l-430 -748q-3 -354 8 -609l-242 -7q23 401 20 619zM198 1562q0 55 39 94.5t95 39.5q55 0 94.5 -39.5t39.5 -94.5q0 -56 -39.5 -95.5t-94.5 -39.5q-56 0 -95 39.5t-39 95.5zM604 1562q0 55 39 94.5t95 39.5q55 0 94.5 -39.5 t39.5 -94.5q0 -56 -39.5 -95.5t-94.5 -39.5q-56 0 -95 39.5t-39 95.5z" />
<glyph unicode="&#x152;" horiz-adv-x="1540" d="M71.5 790.5q-36.5 -360.5 129.5 -595t460 -117.5t341.5 514.5t-166 599t-471 80.5t-294 -481.5zM279 656q-9 209 140 329t280 -12t106.5 -344t-172 -287.5t-246.5 15t-108 299.5zM800 1342q31 -685 11 -1356q328 6 637 -3v258l-400 -6v289h340l20 234l-384 4l-6 314 q223 -3 434 -18l6 314q-323 -14 -658 -30z" />
<glyph unicode="&#x153;" horiz-adv-x="1540" d="M71.5 790.5q-36.5 -360.5 129.5 -595t460 -117.5t341.5 514.5t-166 599t-471 80.5t-294 -481.5zM279 656q-9 209 140 329t280 -12t106.5 -344t-172 -287.5t-246.5 15t-108 299.5zM800 1342q31 -685 11 -1356q328 6 637 -3v258l-400 -6v289h340l20 234l-384 4l-6 314 q223 -3 434 -18l6 314q-323 -14 -658 -30z" />
<glyph unicode="&#x178;" horiz-adv-x="1074" d="M35 1294l232 44l244 -547l307 575l221 -57l-430 -748q-3 -354 8 -609l-242 -7q23 401 20 619zM198 1562q0 55 39 94.5t95 39.5q55 0 94.5 -39.5t39.5 -94.5q0 -56 -39.5 -95.5t-94.5 -39.5q-56 0 -95 39.5t-39 95.5zM604 1562q0 55 39 94.5t95 39.5q55 0 94.5 -39.5 t39.5 -94.5q0 -56 -39.5 -95.5t-94.5 -39.5q-56 0 -95 39.5t-39 95.5z" />
<glyph unicode="&#x2000;" horiz-adv-x="945" />
<glyph unicode="&#x2001;" horiz-adv-x="1891" />
<glyph unicode="&#x2002;" horiz-adv-x="945" />
<glyph unicode="&#x2003;" horiz-adv-x="1891" />
<glyph unicode="&#x2004;" horiz-adv-x="630" />
<glyph unicode="&#x2005;" horiz-adv-x="472" />
<glyph unicode="&#x2006;" horiz-adv-x="315" />
<glyph unicode="&#x2007;" horiz-adv-x="315" />
<glyph unicode="&#x2008;" horiz-adv-x="236" />
<glyph unicode="&#x2009;" horiz-adv-x="378" />
<glyph unicode="&#x200a;" horiz-adv-x="105" />
<glyph unicode="&#x2010;" horiz-adv-x="701" d="M53 557l4 200l596 17l-13 -239z" />
<glyph unicode="&#x2011;" horiz-adv-x="701" d="M53 557l4 200l596 17l-13 -239z" />
<glyph unicode="&#x2012;" horiz-adv-x="701" d="M53 557l4 200l596 17l-13 -239z" />
<glyph unicode="&#x2013;" horiz-adv-x="701" d="M53 557l4 200l596 17l-13 -239z" />
<glyph unicode="&#x2014;" horiz-adv-x="883" d="M53 557l4 200l786 -3l-3 -199z" />
<glyph unicode="&#x2018;" horiz-adv-x="373" d="M39 884q-20 311 49 440.5t186 133.5l17 -130q-113 -31 -121 -161l139 -7l3 -267z" />
<glyph unicode="&#x2019;" horiz-adv-x="373" d="M35 1449l283 9q20 -311 -49 -440.5t-186 -133.5l-17 130q113 31 121 161l-139 -13z" />
<glyph unicode="&#x201a;" horiz-adv-x="373" d="M35 274l283 9q20 -311 -49 -440.5t-186 -133.5l-17 130q113 31 121 161l-139 -13z" />
<glyph unicode="&#x201c;" horiz-adv-x="731" d="M39 884q-20 311 49 440.5t186 133.5l17 -130q-113 -31 -121 -161l139 13l-7 -287zM409 884q-20 311 49 440.5t186 133.5l17 -130q-113 -31 -121 -161l139 -17l3 -257z" />
<glyph unicode="&#x201d;" horiz-adv-x="731" d="M35 1449l283 9q20 -311 -49 -440.5t-186 -133.5l-17 130q113 31 121 161l-139 -13zM405 1449l283 9q20 -311 -49 -440.5t-186 -133.5l-17 130q113 31 121 161l-139 -13z" />
<glyph unicode="&#x201e;" horiz-adv-x="731" d="M35 278l283 9q20 -311 -49 -440.5t-186 -133.5l-17 130q113 31 121 161l-139 -13zM405 278l283 9q20 -311 -49 -440.5t-186 -133.5l-17 130q113 31 121 161l-139 -13z" />
<glyph unicode="&#x2022;" horiz-adv-x="351" d="M41 879h262l-7 -285l-254 8q-2 162 -1 277z" />
<glyph unicode="&#x2026;" horiz-adv-x="1257" d="M35 273l281 12l-13 -285l-255 -4q-9 162 -13 277zM444 16q0 162 3 277l261 -2l-9 -285zM845 281l281 12l-13 -285l-255 -4q-9 162 -13 277z" />
<glyph unicode="&#x202f;" horiz-adv-x="378" />
<glyph unicode="&#x205f;" horiz-adv-x="472" />
<glyph unicode="&#x25fc;" horiz-adv-x="1385" d="M0 0v1385h1385v-1385h-1385z" />
</font>
</defs>
</svg>
