<?xml version="1.0" standalone="no"?>
<!DOCTYPE svg PUBLIC "-//W3C//DTD SVG 1.1//EN" "http://www.w3.org/Graphics/SVG/1.1/DTD/svg11.dtd" >
<svg xmlns="http://www.w3.org/2000/svg">
<metadata></metadata>
<defs>
<font id="phoenix_risingregular" horiz-adv-x="1040" >
<font-face units-per-em="2048" ascent="1638" descent="-410" />
<missing-glyph horiz-adv-x="1024" />
<glyph horiz-adv-x="2048" />
<glyph horiz-adv-x="2048" />
<glyph unicode="&#xd;" horiz-adv-x="2048" />
<glyph unicode=" "  horiz-adv-x="1024" />
<glyph unicode="&#x09;" horiz-adv-x="1024" />
<glyph unicode="&#xa0;" horiz-adv-x="1024" />
<glyph unicode="!" horiz-adv-x="622" d="M109 82l186 -244l4 6l98 -98l178 242l-155 186h108v979l-96 96v13h-258v-992h12l35 -37zM135 82l156 207l164 -199l-160 -217zM190 82l58 -76l61 -39l29 39l-137 90zM195 291v950h217v-950h-217zM215 113l135 -90l29 40l-135 89zM238 350l24 -14h82l-106 67v-53zM238 436 l129 -84v51l-129 84v-51zM238 520l129 -82v49l-129 84v-51zM238 606l129 -82v47l-129 84v-49zM238 692l129 -84v45l-129 84v-45zM238 778l129 -84v43l-129 84v-43zM238 860l129 -82v43l-129 82v-43zM238 946l129 -84v41l-129 84v-41zM238 1032l129 -84v39l-129 84v-39z M238 1116l129 -82v37l-129 84v-39zM250 1196l117 -76v33l-66 43h-51zM258 170l135 -88l6 6l-80 98l-32 21zM281 -37l14 -16l2 6z" />
<glyph unicode="&#x22;" horiz-adv-x="817" d="M94 1264l76 -504h12l97 -96h167l17 116l4 -20h12l96 -96h168l76 493l-98 96l2 11l-162 96l-153 -88l-146 88zM117 1251l143 84l141 -84l-69 -471h-144zM168 1200l6 -41l154 -100l6 33zM182 1106l8 -43l127 -82l5 35zM182 1239l158 -102l4 32l-133 86zM197 1016l8 -47 l100 -66l4 39zM211 922l6 -48l76 -47l6 37zM223 831l2 -6h8zM250 1278l100 -66l2 17l-92 55zM414 1251l145 84l141 -84l-71 -471h-144zM463 1225l172 -111l4 29l-154 100l-22 -14v-4zM471 1167l6 -37l146 -94l4 31zM485 1077l7 -37l118 -79l6 30zM500 985l6 -41l94 -61l4 32 zM514 891l6 -43l35 -23h37l2 15zM530 1268l115 -76l4 27l-96 63z" />
<glyph unicode="#" horiz-adv-x="933" d="M-68 272h15l96 -96h41l-47 -184h14l96 -96h193l10 41l41 -41h201l74 280h217l55 209l-98 96l2 11h123l49 208l-99 97l5 12h-74l49 178l-98 96l4 13h-209l-12 -47l-35 34l4 13h-207l-76 -287h-211l-47 -221h15l94 -94h-133zM-41 293l43 180h191l36 135h-194l39 180h209 l75 287h164l-78 -287h86l78 287h164l-80 -287h201l-43 -180h-207l-41 -135h215l-49 -180h-215l-76 -281h-168l84 281h-86l-82 -281h-162l76 281h-180zM14 338h70l-59 39zM31 401l100 -63h66l-9 -37l64 -41l12 45l-188 123h-39zM90 651h21l-19 13zM98 698l72 -47h70l-131 86z M119 428l153 -98l2 8h66l-137 90h-84zM121 57h12l-10 6zM129 84l37 -27h27l12 37l-62 41zM147 156l62 -41l14 49l-61 43zM162 743l188 -125l10 31h11l-142 94h-67zM168 229l63 -41l13 48l-64 38zM229 442l160 -104h64l-11 -35l60 -39l12 45l-178 115h-39l6 22l-61 39z M250 516l61 -41l11 41l-62 39zM268 588l64 -41l10 41l-61 39zM293 743l141 -94h70l-182 119l-7 -25h-22zM332 801l59 -39l12 37l-63 39zM350 874l62 -40l10 34l-62 41zM354 469h88l35 137h-84zM369 57h20l-16 11zM369 946l63 -41l8 35l-61 39zM379 92l51 -35h14l11 41 l-62 41zM389 424l131 -86h76l-133 86h-74zM389 1018l62 -39l10 31l-31 20h-39zM401 164l60 -41l12 45l-59 39zM420 743l182 -118l8 26h19l-142 92h-67zM422 233l59 -38l13 45l-60 39zM481 449l170 -111h72l-137 90h-43l6 25l-57 36zM502 522l57 -37l12 35l-61 39zM520 594 l60 -39l12 37l-62 41zM551 743l141 -92h66l-187 121l-8 -29h-12zM582 809l59 -39l10 33l-61 39zM602 881l60 -39l8 32l-60 39zM621 954l61 -39l8 29l-61 39zM641 1026l59 -41l9 29l-23 16h-45v-4zM647 428l94 -63l11 38l-37 25h-68zM684 743l131 -86l8 33l-80 53h-59z M813 743l21 -12l4 12h-25z" />
<glyph unicode="$" d="M-4 299q61 -182 186 -276l60 -60q61 -61 141 -94v-35h12l97 -96h221v104q373 49 372 391q0 145 -96 238l-55 53q-53 80 -162 140l-59 20v223q6 -18 18 -53l8 2l99 -96l241 98q-45 106 -110 170l-60 57q-78 100 -196 148v14l-97 96v13h-233v-101q-152 -27 -246 -118 q-102 -100 -102 -248q0 -154 139 -258l59 -58q43 -41 123 -86l27 -10v-297q-4 0 -8 4q-8 27 -8 66v55l-97 96v17zM23 289l227 98v-35q0 -147 153 -205v404l-151 55q-197 100 -197 283q0 145 105 241q94 88 243 109v96h193v-92q264 -37 362 -274l-213 -88q-35 127 -149 163 v-342l176 -61q197 -102 197 -305q0 -332 -373 -379v-102h-193v102q-281 33 -380 332zM82 258q16 -45 41 -86l256 -168q12 -2 70 -8v-33l96 -63h8v53zM96 272l457 -292v16q27 2 49 6l-153 100v-12q-170 43 -224 158l-75 47zM100 889q0 -14 2 -23l822 -532v2q0 23 -4 43 l-818 532q-2 -6 -2 -22zM106 946l152 -98q-8 25 -12 53l-131 84q-4 -14 -9 -39zM109 819q8 -31 28 -61l219 -142l93 -34v-25l104 -70v45zM129 1018l119 -78q4 20 12 35l-115 74q-6 -10 -16 -31zM160 123q61 -72 157 -103zM168 1077l108 -71q8 8 23 26l-106 68q-8 -6 -25 -23 zM178 307l35 -22q-2 12 -6 34zM225 1126l105 -69q8 6 28 18l-104 68q-10 -6 -29 -17zM236 78v2l2 -2h-2zM250 664v2l2 -2h-2zM291 913q0 -90 112 -141v275q-34 -14 -69 -43q-43 -43 -43 -91zM299 1163l107 -69q12 2 38 10l-110 72q-12 -4 -35 -13zM389 1190l164 -109v23 q10 -4 18 -6l17 -4l-158 102q-14 -2 -41 -6zM449 -61v-39h59zM449 131l192 -123q12 2 57 15l-112 73l-33 -8v31l-104 67v-55zM449 215l104 -70v56l-104 67v-53zM449 299l104 -68v52l-104 69v-53zM449 385l104 -68v50l-104 67v-49zM449 473l104 -72v48l-104 69v-45zM449 725 l462 -301q-6 27 -26 61l-234 152l-98 35v28l-104 70v-45zM449 811l104 -70v43l-104 68v-41zM449 897l104 -70v39l-104 68v-37zM449 983l104 -70v37l-104 68v-35zM449 1065l104 -68v35l-104 68v-35zM449 1235l405 -262l29 12l-434 281v-31zM494 1292l59 -39v29l-16 10h-43z M596 145q141 39 141 185q0 102 -141 151v-336zM616 106l113 -73q29 10 47 20l-110 72q-23 -10 -50 -19zM657 1186l209 -135q-72 98 -209 135zM684 489q8 -4 21 -14zM692 143l109 -73q18 12 35 28l-109 72q-10 -10 -35 -27zM713 287v71q4 -16 4 -28q0 -23 -4 -43zM745 193 l113 -72q8 10 23 33l-117 75q-6 -23 -19 -36zM750 989q14 -20 24 -47l31 12zM772 389q4 -14 10 -51l133 -86q2 12 7 39zM774 260l121 -80q10 18 12 39l-127 82q-2 -14 -6 -41zM967 492q2 -5 10 -11zM999 317h2l84 -84z" />
<glyph unicode="%" horiz-adv-x="1873" d="M201 899q0 -94 12 -131q21 -59 84 -125q25 -25 43 -37l63 -61q94 -92 256 -92h33l-352 -549h18l97 -97h245l222 345q16 -53 84 -119q23 -20 38 -31l68 -68q90 -90 254 -90q160 0 255 91.5t95 250.5q0 162 -94 254l-63 62q-100 143 -302 143h-24l354 549l-98 96l8 13h-260 l-246 -383q-25 84 -76 133l-63 61q-98 141 -301 141q-164 0 -257 -96t-93 -260zM221 899q0 154 88 245t242 91q160 0 250 -88t90 -248q0 -154 -90 -242t-244 -88q-156 0 -246 88q-63 61 -78 117q-12 33 -12 125zM266 889q0 -27 4 -47l111 -72q-14 23 -21 57zM266 928l86 -56 v41l-80 54q-2 -12 -6 -39zM281 795q6 -27 26 -62l174 -112q37 -6 76 -7h2zM281 1004l73 -48l8 33l-71 47q-8 -18 -10 -32zM309 1071l68 -43l8 14q2 6 6 11l-65 45l-9 -13q-4 -6 -8 -14zM356 1126l66 -41l12 9q6 4 15 8l-70 43q-16 -12 -23 -19zM379 -76l870 1358h209 l-868 -1358h-211zM395 905q0 -182 162 -182q166 0 166 176q0 182 -160 182q-168 0 -168 -176zM422 1167l74 -49l43 6l-82 54q-16 -2 -35 -11zM461 -33h69l-49 33zM494 16l73 -47l25 39l-74 47zM512 772v31q0 162 154 162q12 0 28 -4q8 -29 8 -62q0 -156 -145 -156h-22 q-8 0 -19 5q-4 12 -4 24zM514 682l98 -66q31 4 52 13l-78 51q-10 -2 -29 -2q-23 0 -43 4zM520 1190l111 -72q63 -16 96 -61l111 -74q-4 23 -11 37l-262 170h-45zM532 76l74 -47l25 37l-74 49zM569 135l74 -49l25 39l-74 49zM608 197l74 -50l23 37l-74 49zM635 688l70 -45 q16 6 34 21l-63 41q-23 -10 -41 -17zM647 258l74 -49l22 35l-75 47zM686 317l74 -49l20 35l-73 47zM686 1167l84 -55q-33 33 -84 55zM707 727l61 -39q14 10 23 25l-62 39q-8 -14 -22 -25zM723 377l76 -47l18 30l-74 48zM748 786l65 -41q4 8 12 29l-67 43q-4 -20 -10 -31z M760 983q2 -12 6 -39l82 -53v8q0 16 -2 27zM762 438l74 -49l20 31l-76 47zM766 860l72 -47l6 31l-76 49v-16q0 -8 -2 -17zM801 496l73 -47l19 30l-74 49zM838 557l75 -49l19 31l-74 47zM877 616l73 -47l19 27l-74 49zM915 678l74 -47l17 24l-74 50zM930 289q0 154 87 245 t240 91q156 0 249 -90.5t93 -245.5q0 -154 -91 -241t-244 -87q-154 0 -244 86q-63 59 -80 117q-10 35 -10 125zM954 737l74 -47l16 25l-73 47zM973 301l90 -59q-4 20 -4 47l-82 53q0 -14 -4 -41zM975 260q2 -16 6 -51l131 -84q-23 27 -39 70zM983 377l78 -51q2 14 6 41 l-74 47q-8 -18 -10 -37zM991 797l74 -49l14 24l-73 49zM995 162q23 -49 56 -82l86 -55q43 -16 102 -21zM1008 446l69 -45q6 16 17 33l-68 41q-6 -8 -18 -29zM1030 858l74 -49l14 22l-74 48zM1049 504l67 -43q12 12 29 22l-70 45q-8 -6 -14 -12zM1069 918l74 -48l12 19 l-74 49zM1104 295q0 -182 160 -182q168 0 168 176q0 182 -160 182q-168 0 -168 -176zM1106 977l76 -47l12 18l-76 49zM1112 551l76 -49q14 4 39 8l-82 53q-18 -4 -33 -12zM1145 1038l74 -47l12 17l-74 49zM1178 82l122 -78q18 2 54 8l-86 56h-4q-49 0 -86 14zM1184 1098 l73 -47l13 16l-76 47zM1202 578l98 -64q109 -10 152 -98l100 -66l-4 21q-2 10 -6 20l-295 191q-14 0 -45 -4zM1221 162v31q0 162 153 161q12 0 29 -4q8 -29 8 -61q0 -156 -147 -156q-18 0 -39 4q-4 12 -4 25zM1223 1157l73 -47l9 16l-72 48zM1260 1219l73 -48l10 13l-73 47z M1323 74l74 -47l37 18l-66 43q-29 -12 -45 -14zM1335 573l174 -112q-59 92 -174 112zM1362 1239l10 -8l6 8h-16zM1401 106l61 -40q14 12 27 26l-62 39q-12 -16 -26 -25zM1448 162l63 -41q6 10 17 31l-66 43q-6 -20 -14 -33zM1470 231l72 -45q2 10 6 33l-73 47q0 -14 -5 -35z M1470 354q0 -12 5 -39l79 -53q2 10 2 27v8zM1612 449l4 -5z" />
<glyph unicode="&#x26;" horiz-adv-x="1355" d="M59 315q0 -164 168 -295l47 -45q141 -135 357 -135q244 0 416 142l26 -27h8l97 -96h340l-97 96h9l-195 178q96 76 168 195l-98 96l2 2q0 2 2 4l-187 160q-80 -100 -166 -195l-141 142q240 106 240 301v10q0 111 -76 184l-64 62q-94 154 -340 153q-147 0 -247 -71 q-111 -78 -111 -220v-8q0 -121 125 -252q-283 -135 -283 -381zM80 315q0 41 12 88q49 186 285 287q-135 131 -139 258q-4 135 102 211q94 68 235 68q143 0 244 -66q115 -74 119 -211q4 -201 -254 -307l274 -276q76 80 166 194l158 -133q-80 -131 -182 -197l278 -256h-297 l-131 134q-174 -152 -422 -152q-225 0 -356 141q-92 100 -92 217zM127 309q2 -20 8 -61l383 -248h10q33 0 74 4l-141 90q-121 23 -166 107zM127 338l154 -98q-10 27 -13 61l-135 88q-2 -16 -6 -51zM141 414l127 -82q2 16 11 47l-119 78q-12 -23 -19 -43zM147 217 q33 -80 97 -123l57 -39q57 -39 172 -51zM172 479l117 -76q6 14 20 39l-110 72q-18 -18 -27 -35zM217 535l111 -72q12 14 30 31l-108 69q-20 -16 -33 -28zM276 582l107 -68q18 10 33 23l-105 69q-10 -6 -18 -12zM281 961q0 -25 6 -46l223 -145q-27 33 -53 76zM287 1001 l143 -94q-8 18 -8 41v4l-127 82zM303 864q16 -37 43 -71l361 -236l-103 102l8 5zM313 315q6 -184 230 -184q115 0 266 100l-297 312q-203 -101 -199 -228zM313 1069l115 -76q4 16 12 29l-108 70q-6 -6 -19 -23zM344 623l102 -66l39 21l-102 65q-12 -8 -39 -20zM365 1120 l104 -67q14 10 29 16l-107 70q-8 -6 -26 -19zM422 659l518 -335l-123 122l-358 228q-12 -4 -37 -15zM430 188v29q0 104 170 201l174 -182q-135 -84 -231 -84q-68 0 -109 16q-4 10 -4 20zM434 1159l115 -76q20 4 47 4l-125 82q-18 -2 -37 -10zM465 950q2 -57 100 -178 q152 78 150 170q-4 102 -105 102q-149 0 -145 -94zM516 88l123 -80q31 2 61 12l-108 72q-25 -4 -49 -4h-27zM530 1182l363 -236v2q0 20 -2 31l-316 205h-22q-12 0 -23 -2zM575 727l76 -49q12 6 39 16l-80 51zM582 848v4q0 70 112 76q-8 -59 -104 -119q-8 23 -8 39zM629 98 l102 -67q33 10 49 20l-96 66q-29 -12 -55 -19zM629 483l116 -121l488 -315l-158 146zM647 768l82 -53l31 18l-86 55q-8 -8 -27 -20zM676 1174l192 -127q-53 96 -192 127zM705 815l88 -59q8 4 14 10l12 12l-94 60l-10 -11q-6 -6 -10 -12zM713 129l96 -63q20 8 41 24l-92 62 q-10 -8 -45 -23zM745 874l103 -67q6 8 14 24l-108 70q-2 -8 -4 -14zM752 985q6 -16 6 -37l123 -78q4 10 8 27zM782 1133q8 -4 23 -15zM786 166l91 -60l16 13q8 6 18 14l-88 57q-23 -16 -37 -24zM846 258l31 -33l-25 -18l82 -53q4 4 10 9t10 9l70 -76l125 -80h70zM963 307 l86 -55q18 8 34 22l-94 60zM1012 358l100 -65l31 24l-107 70zM1061 414l106 -70q16 16 23 25l-107 69q-6 -8 -22 -24zM1106 467l106 -68l13 19l-70 59l-27 17q-4 -8 -10 -15z" />
<glyph unicode="'" horiz-adv-x="485" d="M94 1264l76 -504h12l97 -96h167l74 493l-98 96l2 11l-162 96zM117 1251l143 84l141 -84l-69 -471h-144zM168 1200l6 -41l154 -100l6 33zM182 1106l8 -43l127 -82l5 35zM182 1239l158 -102l4 32l-133 86zM197 1016l8 -47l100 -66l4 39zM211 922l6 -48l76 -47l6 37z M223 831l2 -6h8zM250 1278l100 -66l2 17l-92 55z" />
<glyph unicode="(" horiz-adv-x="622" d="M98 442q0 -397 303 -866l9 4l98 -98l190 82l-22 37q-256 420 -256 733q0 373 287 811l-99 96q2 4 3 5t3 5l-217 72q-299 -500 -299 -881zM119 442q0 365 289 854l174 -57q-279 -428 -279 -803q0 -336 258 -741l14 -23l-163 -69q-293 457 -293 839zM162 422q0 -10 2 -23 l100 -65q-4 29 -4 57l-98 64v-33zM164 369q2 -18 8 -58l104 -67l-4 28q-2 14 -6 31zM164 485l94 -61v29q0 10 2 20l-94 62q-2 -12 -2 -25v-25zM170 565l90 -59q0 16 4 47l-88 57zM176 281q2 -20 10 -64l113 -74l-16 66zM182 643l86 -55l6 43l-84 53zM195 184l18 -69l121 -80 q-16 41 -25 76zM201 719l80 -55l8 38l-80 54q-2 -6 -8 -37zM219 788l80 -49q4 23 10 37l-78 51q-4 -12 -12 -39zM223 82q12 -43 27 -78l133 -84q-20 43 -35 82zM244 858l75 -49q4 20 13 35l-76 49zM262 -23q14 -31 41 -92l148 -96q-37 61 -52 98zM268 926l76 -47q4 12 12 34 l-73 45zM279 299v2l2 -2h-2zM297 993l74 -47l14 31l-74 47zM315 -143q16 -33 52 -95l120 -79l21 10q-23 35 -39 65zM326 18v2l2 -2h-2zM328 1059l73 -47q4 10 13 28l-72 47zM360 1124l74 -47l12 25l-71 47zM385 -270q14 -25 45 -72l39 18zM393 1186l74 -49l14 26l-73 47z M442 1239l62 -39l10 14z" />
<glyph unicode=")" horiz-adv-x="622" d="M-6 1243q281 -418 280 -786q0 -371 -270 -779l12 -28l13 -4l94 -95l178 -67q301 459 301 870q0 453 -303 863l-74 73q-18 23 -26 37zM25 -332q270 408 270 789q0 371 -270 776l165 70q295 -403 295 -846q0 -406 -292 -852zM92 -309l82 -33q6 8 19 29l-72 49 q-6 -6 -14.5 -22.5t-14.5 -22.5zM92 1212l180 -116q-16 31 -34 57l-113 74zM127 -254l74 -47q8 16 28 49l-73 49zM137 1137q20 -33 35 -62l162 -104l-25 55zM162 -190l76 -48q8 16 26 48l-76 47q-8 -16 -26 -47zM172 1245l8 -4l-4 6zM195 -127l77 -49l23 47l-76 51z M205 1010l16 -31q6 -14 12 -29l144 -94q-6 18 -19 53zM225 -63l78 -52q10 20 21 52l-78 49q-8 -16 -21 -49zM252 2l80 -51l20 49l-82 51zM254 895q14 -31 22 -57l132 -86q-6 31 -15 53zM276 72l84 -54l15 48l-84 55q-4 -16 -15 -49zM291 786q4 -16 14 -51l121 -80l-8 52z M297 145l86 -57q4 16 14 47l-88 55q-4 -25 -12 -45zM315 217l88 -55q8 27 11 45l-90 57q-2 -10 -5 -22zM317 686l9 -51l110 -72l-4 45zM328 291l92 -58l8 50l-94 61q-2 -18 -6 -53zM332 592l4 -47l106 -70q0 27 -4 47zM336 373l96 -64l4 49l-96 64q0 -16 -4 -49zM338 504 q2 -10 2 -23v-24l98 -66q4 25 4 47z" />
<glyph unicode="*" horiz-adv-x="718" d="M25 899l16 -2l84 -84l160 -217l2 6l98 -96l72 137l75 -76l218 97l-105 118l111 17l-21 245l-96 95v18l-82 -39l-70 72l2 12l-247 53l16 -174l-100 49zM57 915l109 189l117 -55l-19 180l203 -45l-10 -135l164 77l16 -213l-123 -18l111 -125l-189 -82l-65 119l-90 -172 l-129 178l73 82zM129 950l45 -4l-35 23zM156 999l98 -63l61 -8l-18 -21l57 -37l15 29l34 -59l109 -72l39 18l-377 244zM209 809l16 -23l64 -41l16 33l-80 51zM250 856l72 -49l16 33l-64 41zM293 997l172 -112l-39 43l27 4l-121 78l4 -33zM315 1171l2 -20l99 -61l2 30l-68 43 zM324 1100l4 -41l80 -53l2 36zM434 989l76 -49l49 6l-92 60zM438 776l19 -31l18 7zM510 1026l78 -51l-2 37l-47 28z" />
<glyph unicode="+" horiz-adv-x="1079" d="M88 375h12l97 -96h233v-275h12l97 -96h211v371h333v198l-96 96v13h-233v256l-97 96v12h-227v-364h-342v-211zM109 395v170h342v365h186v-365h330v-170h-334v-370h-182v370h-342zM152 438h30l-30 21v-21zM152 492l84 -54h75l-125 82h-34v-28zM240 520l125 -82h77l-127 82 h-75zM373 520l217 -141v47l-146 94h-71zM496 68h4l-4 2v-2zM496 100l49 -32h45v24l-94 62v-54zM496 184l94 -61v53l-94 62v-54zM496 270l94 -61v51l-94 59v-49zM496 354l94 -59v49l-94 59v-49zM496 524l133 -86h67l-200 131v-45zM496 612l96 -63v43l-96 63v-43zM496 694 l96 -61v41l-96 65v-45zM496 780l96 -65v43l-96 63v-41zM496 864l96 -61v39l-70 45h-26v-23zM635 520l127 -82h67l-127 82h-67zM764 520l125 -82h33v23l-93 59h-65zM893 520l29 -18v18h-29z" />
<glyph unicode="," horiz-adv-x="520" d="M49 -274l19 -7l92 -92l184 -63l217 387l2 -2l43 59l-198 234l-54 53l-49 57l-215 -250l78 -79zM78 -262l115 289l-74 75l186 220l180 -211l-36 -52l-213 -374zM135 -236l80 -26l6 14l-71 47zM154 -186l75 -50l29 48l-82 55zM178 104l66 -69l-11 -21l103 -63l24 45 l-178 113zM180 -119l86 -53l25 45l-90 59zM195 125l174 -115l26 43l-168 109zM207 -51l92 -60l27 45l-99 64zM244 180l162 -106l4 8l20 27l-14 14l-142 94zM291 236l69 -46l-55 62z" />
<glyph unicode="-" horiz-adv-x="731" d="M76 274h12l96 -96h545v211l-96 96v13h-557v-224zM96 295v182h516v-182h-516zM141 381l19 -41h49l-41 94h-27v-53zM195 434l41 -94h51l-41 94h-51zM270 434l43 -94h49l-40 94h-52zM350 434l41 -94h47l-41 94h-47zM426 434l45 -94h45l-43 94h-47zM508 434l41 -94h18v51 l-18 43h-41z" />
<glyph unicode="." horiz-adv-x="520" d="M76 82l174 -266l6 8l96 -96l164 249l-166 252l-76 76l-26 41zM102 82l146 223l147 -225l-145 -223zM156 82l18 -31l107 -65l28 41l-133 86zM186 129l133 -84l25 35l-10 14l-119 78zM199 16l51 -77l22 30zM225 190l78 -49l-55 82z" />
<glyph unicode="/" horiz-adv-x="835" d="M-39 -66h16l97 -96h233l639 1344l-98 96l6 12h-248zM-6 -45l624 1315h203l-624 -1315h-203zM61 -2h37l-28 18zM78 31l53 -33h37l14 29l-80 53zM109 96l81 -53l21 47l-80 53zM139 162l82 -56l23 48l-82 53zM172 225l80 -51l20 43l-82 51zM203 291l80 -51l20 41l-82 51z M231 354l80 -53l23 43l-82 51zM262 420l82 -51l18 39l-81 51zM295 485l80 -51l16 35l-80 53zM326 551l80 -51l16 35l-80 51zM356 616l80 -53l17 33l-80 53zM387 680l80 -51l16 33l-80 53zM418 745l80 -53l16 35l-80 51zM449 809l79 -51l17 30l-82 54zM479 874l80 -51l14 29 l-79 53zM510 940l80 -51l14 29l-80 51zM543 1006l80 -52l12 27l-80 51zM573 1069l78 -51l13 26l-78 50zM604 1135l80 -52l10 25l-78 51zM635 1200l80 -51l8 20l-78 54zM725 1227l20 -15l5 15h-25z" />
<glyph unicode="0" d="M16 614q0 -453 220 -602l53 -53q119 -119 325 -119q258 0 383 240q96 184 97 457q0 254 -107 430q-41 66 -78 102l-47 45q-129 180 -350 180q-262 0 -391 -221q-104 -178 -105 -459zM37 614q0 272 98 445q125 215 377 215q233 0 360 -213q104 -176 105 -422 q0 -270 -94 -451q-121 -231 -371 -231q-475 0 -475 657zM82 590l2 -55l145 -93l-6 54zM82 623l139 -91v23q0 12 -2 27l-137 90v-49zM84 504q2 -18 6 -58l160 -104q-4 20 -14 64zM84 709l135 -91v23q0 12 2 23l-131 88zM94 416q4 -20 12 -64l254 -164l19 41l-78 52l-18 -35 q-8 20 -21 61zM94 786l129 -86l6 43l-129 84q-2 -14 -6 -41zM109 862l124 -82l9 39l-123 80q-6 -14 -10 -37zM115 319q8 -35 24 -71l379 -248q25 2 76 8l-129 84q-57 8 -119 64l4 10zM129 932l121 -80q2 18 10 37l-119 78q-4 -12 -12 -35zM154 211q27 -57 82 -113l102 -67 q68 -27 139 -29zM156 1001l118 -75q4 10 15 30l-117 74q-8 -12 -16 -29zM190 1063l115 -74q6 8 19 27l-113 74zM236 1118l112 -71q8 8 25 20l-113 74q-8 -6 -24 -23zM264 608q0 -154 27 -248l323 680q-43 31 -102 31q-139 0 -203 -174q-45 -123 -45 -289zM293 1167l117 -75 q14 8 32 12l-123 80l-12 -8q-6 -4 -14 -9zM311 303l80 -51l19 41l-78 51zM344 369l78 -52l16 39l-78 52zM365 1204l137 -90h10q25 0 49 -4l-162 104q-16 -2 -34 -10zM375 434l78 -51l18 37l-80 51zM383 606q10 88 43 174q47 129 117 160zM399 166q47 -35 113 -35 q231 0 231 504q0 111 -22 213zM406 500l77 -51l17 34l-78 52zM436 565l78 -51l16 33l-79 51zM461 1227l413 -269q-6 14 -20 46l-348 225h-25q-10 0 -20 -2zM467 629l78 -49l16 32l-78 52zM498 692l77 -49l15 33l-76 51zM516 88l109 -72q29 10 53 21l-96 61q-35 -10 -66 -10z M528 760l78 -53l15 32l-78 52zM559 823l78 -49l14 29l-78 51zM563 160l154 329q-25 -286 -154 -329zM590 889l78 -49l12 26l-76 52zM604 1219l193 -125q-78 96 -193 125zM610 109l92 -60q10 6 39 29l-90 57q-23 -18 -41 -26zM621 954l77 -49l13 25l-78 51zM651 1018l78 -49 l2 4v-8l178 -115q-4 10 -6 20l-4 21l-235 153zM672 154l90 -58q12 12 29 33l-93 59q-12 -20 -26 -34zM713 213l96 -61q14 16 22 34l-100 64zM743 281l103 -70q6 12 16 37l-108 71q-4 -10 -11 -38zM750 905l12 -43l164 -106l-6 37zM762 352l112 -73q4 12 15 36l-119 76z M772 807q4 -20 4 -20.5t4 -22.5l154 -98l-2 36zM776 430l123 -80q2 12 8 37l-127 84zM784 506l131 -84q2 14 7 41l-136 88zM784 717q2 -10 2 -21v-20l146 -94q2 10 2 18v18zM788 590l138 -88q0 12 4 37l-142 92v-41z" />
<glyph unicode="1" d="M25 850h22l96 -96h240v-799h12l97 -96h258v1294l-97 96v13h-149zM80 870l432 371h121v-1266h-230v895h-323zM201 913h24l-14 11zM238 946l51 -33h63l-86 58zM295 995l125 -82h26v-16l142 -92v39l-266 174zM350 1044l238 -153v37l-211 137zM408 1092l180 -115v33l-158 102 zM446 16h5l-5 4v-4zM446 47l46 -31h88l-134 88v-57zM446 133l142 -92v53l-142 92v-53zM446 217l142 -94v53l-142 92v-51zM446 299l142 -90v51l-142 92v-53zM446 387l142 -92v49l-142 92v-49zM446 473l142 -94v47l-142 92v-45zM446 559l142 -94v45l-142 92v-43zM446 643 l142 -92v45l-142 92v-45zM446 725l142 -90v43l-142 92v-45zM446 813l142 -94v43l-142 90v-39zM463 1141l125 -82v35l-103 65zM520 1188l68 -45v33l-31 20h-29z" />
<glyph unicode="2" d="M14 41v-86h13l96 -96h911v215l-96 96v12h-219q356 369 356 615q0 160 -96 256l-57 57q-129 178 -418 178q-223 0 -351 -123t-128 -346v-43h12l96 -96h260v37q0 113 59.5 178.5t170.5 65.5q31 0 65 -11q12 -35 12 -73q0 -229 -686 -836zM35 -25v58q686 606 686 844 q0 92 -54.5 146t-146.5 54q-117 0 -180.5 -69.5t-63.5 -188.5v-22h-231v22q0 215 122 332t337 117q197 0 315 -84q139 -96 139 -285q0 -281 -485 -737h445v-187h-883zM90 23l8 -7h99l-66 43zM92 874l51 -32h68l-115 73q0 -14 -4 -41zM104 948l132 -86q2 14 6 41l-127 82 q-8 -18 -11 -37zM129 1018l121 -80q4 12 14 35l-119 76q-6 -10 -16 -31zM143 72l86 -56h95l-142 93zM164 1079l117 -75q6 8 20 26l-115 74q-14 -10 -22 -25zM201 123l161 -107h89l-213 142zM215 1133l115 -74l24 18l-114 76q-8 -8 -25 -20zM254 174l238 -158h86l-154 101 h-64l27 26l-98 64zM281 1176l116 -76q12 4 35 12l-121 78q-10 -4 -30 -14zM305 223l101 -63l32 30l-98 66zM358 274l99 -65l35 31l-101 67zM362 1206l132 -86q8 2 26 2q16 0 25 -2l-146 94q-12 -2 -37 -8zM410 326l100 -66l31 31l-103 65zM459 377l102 -66l31 31l-105 68 q-6 -6 -14 -16.5t-14 -16.5zM467 1223l446 -291l-6 37l-391 256h-31q-8 0 -18 -2zM471 117l154 -101h84l-156 101h-82zM508 432l102 -67l29 28l-104 68q-6 -8 -13 -15zM557 487l105 -69q8 8 22 28l-104 70q-8 -8 -23 -29zM598 117l154 -101h84l-156 101h-82zM602 543 l105 -68q6 8 12 14l12 13l-108 69q-8 -12 -21 -28zM608 1217l281 -183q-10 25 -29 49l-184 119q-23 4 -68 15zM643 598l107 -70l22 31l-108 70q-4 -8 -21 -31zM684 657l109 -69q6 8 18 28l-109 72zM719 719l112 -72q6 10 17 29l-115 74q-4 -10 -14 -31zM729 117l145 -92v51 l-65 41h-80zM737 997q6 -16 19 -47l155 -100q2 10 2 31zM748 786l116 -73q8 12 13 24l-119 80q-2 -10 -10 -31zM764 862l129 -84l8 29l-137 90v-35zM860 117l14 -8v8h-14z" />
<glyph unicode="3" d="M6 326q0 -213 141 -312l62 -59q121 -117 381 -117q217 0 340 94q141 109 141 320q0 156 -80 233l-55 54q121 84 121 262q0 152 -94 246l-58 57q-125 180 -418 180q-424 0 -462 -430h12l96 -96h260v37q0 84 66 129q57 39 143 39q39 0 76 -13q10 -31 10 -61q0 -72 -76 -135 q-57 -41 -125 -52h2q-57 -4 -170 -10l21 -100h12l97 -96h28q111 0 203 -56q29 -47 29 -102q0 -88 -78 -135q-63 -39 -158 -39q-53 0 -98 10v10l8 76l-98 96l2 13h-281v-43zM27 326v22h237l-6 -59q4 -145 215 -146q106 0 174 43q82 51 82 152q0 125 -119 205q-104 70 -235 69 h-17l-12 60q51 2 146 10q86 14 147 66q70 59 70 141q0 88 -59.5 139t-149.5 51q-94 0 -154 -43q-70 -49 -70 -139v-23h-229q33 389 440 390q188 0 312 -84q141 -96 141 -277q0 -190 -147 -270q162 -68 161 -279q0 -205 -135 -307q-121 -92 -332 -92q-461 0 -460 371zM70 303 l2 -12l194 -127q-41 37 -49 88l-80 51h-67zM76 262q2 -35 16 -69l293 -191q45 -4 96 -4zM100 950l47 -30h70l-106 67q-8 -18 -11 -37zM109 156q59 -111 225 -146zM123 1022l115 -76q4 23 10 37l-109 70q-6 -10 -16 -31zM160 1083l104 -67q8 8 21 24l-105 68q-10 -8 -20 -25z M182 303l31 -20v8l2 12h-33zM209 1137l106 -68q8 6 29 18l-108 68q-8 -6 -27 -18zM276 1178l111 -72q18 8 37 10l-115 74q-16 -2 -33 -12zM319 129l203 -129q41 0 78 6l-147 92q-74 2 -134 31zM360 1206l127 -82h13q18 0 43 -4l-142 94zM471 1219l422 -273l-6 37l-365 236 h-51zM498 98l135 -86q18 6 57 17l-123 80q-16 -4 -69 -11zM504 639q10 -2 31 -10l-19 12zM557 653l348 -223q-8 29 -16 53l-209 135q-10 2 -33 7l15 6l-62 41zM600 117l117 -78q23 8 45 24l-111 74q-20 -10 -51 -20zM627 1204l231 -149q-23 37 -51 61l-88 58q-43 18 -92 30z M633 690l69 -45q12 6 39 17l-77 51q-10 -8 -31 -23zM676 152l110 -72q10 6 19 14l14 15l-108 71q-16 -16 -35 -28zM692 737l88 -57q10 6 29 20l-96 64q-6 -8 -21 -27zM700 522q29 -31 50 -76l161 -104v27q0 8 -2 18zM727 1001q10 -23 10 -22.5t8 -22.5l148 -96q4 20 4 33z M731 203l109 -72q12 14 22 33l-110 74q-6 -16 -21 -35zM733 797l109 -70q4 4 8 10l8 13l-115 75q-4 -16 -10 -28zM752 866l125 -78q8 14 10 29l-133 86v-14q0 -14 -2 -23zM762 266l115 -73q12 23 14 36l-121 78q-4 -25 -8 -41zM766 393q6 -23 6 -47l129 -84q2 14 6 41z" />
<glyph unicode="4" d="M-20 209h12l96 -96h473v-158h12l97 -96h239v254h156v213l-96 96v12h-56v731l-96 97v12h-176l-661 -942v-123zM0 229v95l651 929h146v-839h151v-185h-155v-254h-211v254h-582zM43 272h16l-16 11v-11zM43 309l55 -37h88l-116 76zM84 367l145 -95h84l-204 134zM123 424 l82 -51l24 37l-79 51zM166 483l80 -51l24 35l-80 51zM207 543l80 -54l22 35l-80 51zM223 360l135 -88h84l-137 88h-82zM248 600l80 -51l22 31l-82 53zM281 406h313v450zM289 659l80 -51l20 31l-80 51zM330 719l80 -53l20 30l-80 54zM354 360l138 -88h75l-135 88h-78z M369 776l80 -53l22 31l-80 51zM412 834l77 -52l21 29l-78 51zM453 893l77 -51l21 28l-80 50zM485 360l136 -88h6v-4l123 -80v50l-189 122h-76zM485 426l88 125v-125h-88zM494 952l79 -51l17 25l-80 51zM535 1012l79 -51l17 22l-80 51zM575 1067l177 -115v33l-160 105z M616 1126l136 -88v33l-121 76zM618 360l136 -88h69l-184 121v-33h-21zM627 16h82l-82 54v-54zM627 98l123 -80v54l-123 80v-54zM627 184l123 -80v52l-123 80v-52zM639 432l246 -160h20v31l-100 66h-53v34l-113 74v-45zM639 518l113 -76v45l-113 76v-45zM639 600l113 -72v43 l-113 74v-45zM639 686l113 -74v41l-113 76v-43zM639 772l113 -74v39l-113 74v-39zM639 858l113 -74v35l-113 74v-35zM639 944l113 -76v35l-113 74v-33zM657 1184l95 -62v31l-80 51zM752 1210zM868 369l37 -25v25h-37z" />
<glyph unicode="5" d="M-25 168l25 -31q55 -70 100 -104l56 -53q145 -139 385 -140q244 0 380 130t136 372q0 182 -111 289l-59 57q-23 31 -56 64h5q-137 119 -342 120l12 56h500v215l-97 96v12h-723l-120 -669l18 -7l92 -92l76 -26q158 88 283 88q88 0 141 -29q18 -43 18 -92q0 -260 -250 -260 q-102 0 -176 49l-4 10l-84 82q-6 10 -16 31zM4 166l154 137q82 -160 286 -160q131 0 201 75t70 206q0 115 -86 180q-78 57 -197 58q-127 0 -282 -87l-60 21l115 635h684v-187h-498l-41 -217q70 25 142 25q195 0 317 -104q131 -111 131 -304q0 -236 -132 -361.5t-370 -125.5 q-276 0 -422 193zM63 160q102 -123 275 -152l-256 168zM96 188l289 -186q14 -2 27 -2h45q10 0 20 2l-186 119q-72 29 -121 80l-37 22zM141 625h4l7 4l-9 4zM147 666l35 -23l43 19l-69 45zM162 741l102 -65q14 4 45 14l-141 92zM176 819l182 -119q20 2 60 7l-94 59 q-6 -4 -31 -14l6 30l-117 76zM188 893l117 -74l6 37l-116 76zM203 971l116 -76l7 37l-117 76zM217 1047l115 -76l6 35l-115 75zM231 1124l115 -77l6 32l-116 76zM264 1186l154 -99h51l-150 99h-55zM358 104l156 -100q33 2 68 12l-129 82h-9q-43 0 -86 6zM360 782l123 -80 q63 -6 115 -30l-195 125q-14 -4 -43 -15zM393 1186l152 -99h51l-150 99h-53zM455 807l434 -283q-2 14 -6 27l-9 24l-356 232q-10 2 -26 2h-19q-8 0 -18 -2zM496 102l120 -77q16 6 52 18l-109 72q-31 -10 -63 -13zM524 1186l152 -99h49l-150 99h-51zM586 125l106 -70 q14 8 43 27l-104 68q-23 -16 -45 -25zM598 799l248 -160q-76 125 -248 160zM653 1186l152 -99h39v7l-142 92h-49zM655 166l103 -68q12 10 33 33l-105 66zM672 623q43 -37 63 -84l162 -105v27q0 8 -2 18zM702 221l105 -69q14 14 24 34l-108 68q-8 -16 -21 -33zM735 283 l111 -72q6 12 16 37l-114 76q-4 -14 -13 -41zM752 489q2 -16 6 -47l133 -88l4 41zM754 358l120 -77q2 6 9 36l-125 82q0 -14 -4 -41zM788 1186l56 -37v27l-15 10h-41z" />
<glyph unicode="6" d="M33 346q0 -199 143 -311q6 -6 23 -19l49 -47q10 -12 35 -32q125 -98 323 -99q199 0 328 103q141 111 141 305q0 172 -106 278q-2 0 -6 4l-48 47q-74 115 -231 164l375 435l-98 98l8 10h-322l-487 -590q-127 -153 -127 -346zM53 346q0 188 121 334l481 582h271l-457 -531 q33 6 68 6q184 0 301 -100q121 -106 120 -289q0 -188 -137 -295q-125 -98 -317 -98q-195 0 -318 96q-133 107 -133 295zM98 330q0 -37 8 -62l416 -270q27 2 78 6l-137 90q-143 16 -201 129zM98 358l148 -96q-10 31 -13 64l-131 84q-4 -25 -4 -52zM106 436l127 -82q0 27 7 49 l-123 80q-8 -27 -11 -47zM113 236q16 -45 45 -86l209 -138q39 -8 112 -14zM125 510l123 -80q8 20 18 37l-123 82q-6 -12 -18 -39zM156 575l127 -83q4 4 14 15t14 15l-135 88q-8 -10 -20 -35zM195 635l143 -92q18 14 37 22l-156 101l-12 -15zM229 78q10 -8 21 -15l20 -12z M240 690l88 -55l24 27l-88 57zM276 342q0 -94 63.5 -150.5t160.5 -56.5q231 0 231 213q0 98 -57.5 151.5t-155.5 53.5q-100 0 -168 -55q-74 -60 -74 -156zM287 748l88 -58l24 27l-90 57zM332 801l90 -58l22 29l-90 57zM336 629l74 -49q25 10 51 12l-86 55q-12 -6 -39 -18z M377 856l90 -57l22 24l-90 62zM393 240q0 90 66 143h2q70 53 160 53q41 0 75 -12q14 -39 15 -76q0 -193 -211 -192q-55 0 -99 18q-8 27 -8 66zM412 666l106 -70q47 0 82 -8l-147 94zM422 913l94 -61l21 25l-93 59zM469 969l92 -62l21 23l-93 61zM500 692l407 -264 q-8 29 -16 53l-326 211q-10 2 -28 2h-19q-8 0 -18 -2zM510 92l123 -80q18 6 55 17l-106 69q-35 -6 -72 -6zM516 1024l92 -61l21 22l-97 62zM559 1077l96 -61l19 22l-96 62zM606 1133l96 -62l17 19l-96 63zM614 106l101 -67l24 12q12 6 23 15l-98 61q-16 -10 -50 -21z M647 682l211 -137q-70 104 -211 137zM651 1188l99 -62l16 19l-100 61zM690 143l94 -61q10 6 19 14l14 15l-96 63zM729 504q18 -25 33 -66l153 -100v27q0 8 -2 18zM737 197l101 -64q14 14 24 31l-104 69q-4 -10 -21 -36zM737 1219l58 -39l16 18l-33 21h-41zM766 262l113 -72 q6 12 16 37l-121 78q-2 -14 -8 -43zM774 389q2 -10 2 -20v-25l129 -84q2 14 6 41zM948 545l15 -17q-5 7 -15 17z" />
<glyph unicode="7" d="M49 1024h12l97 -96h454l-110 -201h-250v-219h12l72 -76l-270 -475h16l96 -96h273l309 551h221v206l-70 68l199 358l16 99l-98 98l2 10h-981v-227zM70 1044v187h938l-15 -82l-245 -442h116v-179h-215l-309 -551h-240l316 551h-144v179h242l188 337h-632zM113 1112l39 -25 h59l-98 66v-41zM133 1186l150 -99h57l-150 99h-57zM176 18h17l-13 9zM190 43l35 -25h88l2 5l-100 65zM225 106l101 -65l24 41l-100 65zM260 168l100 -66l25 43l-102 64zM264 1186l154 -99h49l-150 99h-53zM295 229l100 -63l23 39l-101 63zM315 573h50l-50 31v-31zM315 643 l107 -70h70l-140 89h-37v-19zM332 291l98 -66l23 41l-101 64zM367 352l98 -63l22 37l-98 65zM393 1186l152 -99h51l-150 99h-53zM401 416l99 -66l20 37l-98 64zM418 662l188 -123l17 34l-138 89h-67zM436 477l99 -61l18 33l-96 63zM473 539l98 -62l17 33l-96 63zM522 1186 l152 -99h49l-150 99h-51zM543 664l139 -91h68l-191 123zM575 727l99 -63l18 30l-98 64zM610 788l99 -61l16 29l-96 63zM647 852l96 -64l15 29l-96 62zM655 1186l226 -148l12 23l-193 125h-45zM676 662l137 -89h8v37l-80 52h-65zM682 915l96 -63l15 25l-97 63zM715 977 l98 -64l14 27l-98 61zM750 1038l98 -61l12 22l-96 62zM788 1186l127 -84l13 20l-101 64h-39zM807 662l14 -9v9h-14zM918 1186l32 -21l4 21h-36z" />
<glyph unicode="8" d="M27 356q0 -203 143 -315q6 -6 18 -14l58 -58q131 -131 360 -131q207 0 338 101q143 111 143 311q0 158 -90 244l-57 55q0 2 -22 31q111 92 110 251q0 135 -84 220l-61 61q-115 162 -377 162q-176 0 -287 -78q-129 -88 -129 -256q0 -197 121 -281q-80 -53 -121 -110 q-63 -91 -63 -193zM47 356q0 96 59 181q53 78 144 122q-139 72 -139 281q0 160 122 242q106 72 273 71q172 0 278 -71q127 -84 127 -248q0 -182 -147 -270q207 -84 207 -312q0 -195 -142 -301q-125 -96 -325 -96q-197 0 -322 100q-135 108 -135 301zM92 334l6 -62l426 -274 q25 2 76 6l-129 84q-147 18 -211 135zM92 365l152 -101q-10 31 -13 62l-135 88q-4 -25 -4 -49zM104 436l125 -80l7 50l-113 73q-12 -23 -19 -43zM109 240q16 -49 45 -90l213 -138q39 -8 112 -14zM135 502l111 -70q6 20 18 39l-102 66l-4 -7q-14 -14 -23 -28zM154 940 q0 -16 2 -25l141 -94q-6 18 -14 56l-127 84q-2 -6 -2 -21zM160 874q2 -18 10 -53l352 -227q43 0 84 -12zM160 997l121 -77q2 20 6 36l-117 76q-4 -10 -6 -18zM182 559l99 -65l30 30l-96 62l-16 -13q-8 -6 -17 -14zM186 1067l109 -74q6 10 16 31l-108 70q-4 -8 -8 -15z M197 764q37 -51 120 -84l17 -6zM215 90q27 -27 64 -43zM231 1122l105 -67q8 6 26 18l-108 70l-10 -10q-6 -6 -13 -11zM244 604l92 -61q14 12 39 22l-92 60q-12 -8 -39 -21zM274 346q0 -96 71 -156.5t169 -60.5q106 0 167.5 58.5t61.5 162.5q0 94 -66.5 147.5t-162.5 53.5 q-98 0 -166 -53q-74 -58 -74 -152zM295 1167l111 -73q10 4 38 10l-116 76q-10 -4 -33 -13zM322 639l92 -59q20 8 49 12l-96 63zM326 909q0 -80 53 -123t135 -43q180 0 180 170q0 152 -176 152q-192 0 -192 -156zM379 1196l131 -86h31q12 0 24 -2l-145 94q-14 -2 -41 -6z M391 244q0 86 66 139h2q70 51 157 51q51 0 95 -18q12 -29 12 -66q0 -201 -209 -200q-68 0 -113 22q-10 27 -10 72zM442 776v31q0 141 179 141q27 0 51 -6q2 -8 2 -29q0 -150 -160 -149q-39 0 -72 12zM487 700l433 -282q-6 18 -17 55l-350 229q-10 -2 -21 -2h-45zM489 1208 l375 -245q0 12 -4 36l-321 207q-10 2 -19 2h-31zM522 84l113 -74q18 6 57 17l-100 65q-31 -8 -70 -8zM602 711l68 -45q12 6 37 20l-64 41zM623 102l96 -65l24 12q12 6 23 12l-94 62q-16 -10 -49 -21zM647 1192l182 -119q-55 84 -182 119zM676 748l65 -43q10 6 29 20l-72 47 q-6 -8 -22 -24zM694 139l97 -61q18 12 34 28l-98 64l-14 -14q-8 -8 -19 -17zM719 805l82 -53q10 8 20 24l-92 58q-4 -16 -10 -29zM723 1006q8 -18 12 -43l127 -84q0 12 4 34zM727 631l133 -88q-51 61 -133 88zM737 879l105 -68q8 16 10 27l-113 73v-16q0 -8 -2 -16zM739 496 q23 -29 35 -64l152 -100v43zM743 195l103 -68q16 16 24 33l-106 69q-6 -16 -21 -34zM774 260l113 -74q10 18 16 35l-119 78q-2 -12 -10 -39zM784 381q2 -10 2 -31v-14l127 -82q0 2 9 39z" />
<glyph unicode="9" d="M39 860q0 -102 35 -174q29 -66 106 -141q6 -8 17 -15l57 -55q84 -82 205 -108l-328 -416h19l96 -96h297q213 258 377 491q43 61 120 186q47 92 47 230q0 180 -104 285l-57 57q-39 49 -80 82q-123 94 -342 94q-205 0 -342 -117h2q-125 -113 -125 -303zM59 860 q0 193 129 299q119 100 316 101q209 0 330 -91q137 -102 137 -305q0 -133 -45 -223q-17 -34 -121 -184q-162 -233 -371 -486h-262l406 514q-47 -12 -101 -12q-186 0 -299 100q-119 104 -119 287zM102 866l150 -96q-4 16 -8 49l-140 88q-2 -10 -2 -20v-21zM104 823l7 -49 l395 -256q35 4 53 10l-147 95q-90 23 -133 86zM111 944l129 -84q0 20 4 41l-123 80q-6 -14 -10 -37zM125 727q14 -37 41 -74l186 -121q41 -10 97 -14zM133 1014l117 -76q4 12 14 35l-114 74q-10 -16 -17 -33zM168 1075l113 -71q6 8 20 26l-108 72l-13 -12q-6 -6 -12 -15z M221 1128l109 -69q8 6 26 18l-108 72q-16 -10 -27 -21zM262 12h68l-45 29zM279 559v2l2 -2h-2zM285 858q0 -201 229 -201q100 0 160.5 51.5t60.5 149.5q0 100 -65.5 156.5t-167.5 56.5q-99 0 -158 -59q-43 -43 -51 -74q-8 -23 -8 -80zM287 1171l114 -73q18 8 35 10l-117 76 q-10 -4 -32 -13zM297 59l70 -47h49l14 21l-100 63zM342 113l102 -64l29 35l-100 68zM369 1200l133 -86q31 0 59 -4l-151 98zM387 172l102 -68l27 35l-100 68zM401 756q0 88 55.5 143t147.5 55q51 0 96 -16q14 -29 15 -80q0 -180 -201 -180q-63 0 -104 14q-9 25 -9 64z M430 225l102 -65l27 37l-100 65zM475 283l100 -66l27 35l-100 65zM479 1217l443 -289l-7 37l-389 252h-47zM492 612l110 -71q20 6 41 18l-88 55q-10 -2 -20 -2h-43zM518 340l100 -66l27 33l-100 66zM563 397l99 -63l24 28l-98 66zM604 625l74 -50l37 19l-68 45 q-14 -4 -43 -14zM606 453l99 -62l20 29l-94 61zM627 1206l262 -172q-10 18 -33 51l-160 103q-35 12 -69 18zM651 510l94 -61l21 30l-92 60zM680 659l147 -94q6 8 19 27l-137 90q-14 -14 -29 -23zM694 565l92 -59l21 29l-90 57zM735 709l131 -84q8 14 15 28l-129 84 q-6 -10 -17 -28zM748 989q12 -20 20 -47l158 -104v36zM768 774l131 -86q2 10 8 31l-131 86q-2 -10 -8 -31zM778 885q2 -10 2 -27v-6l138 -90q0 10 4 31z" />
<glyph unicode=":" horiz-adv-x="622" d="M125 578l164 -252l-160 -244l174 -266l6 8l97 -96l163 249l-166 250l162 246l-166 254l-75 76l-27 41zM152 578l145 225l147 -228l-145 -223zM156 82l145 223l148 -225l-146 -223zM205 578l39 -58l78 -53l22 35l-133 86zM209 82l57 -86l53 -33l27 39l-133 86zM225 106 l133 -86l27 41l-133 86zM227 614l133 -86l21 33l-133 86zM264 166l131 -86l-61 96l-45 29zM266 674l107 -70l-49 76l-37 25zM283 459l16 -25l6 10zM293 -45l10 -16l4 8z" />
<glyph unicode=";" horiz-adv-x="622" d="M49 -274l19 -7l92 -92l184 -63l217 387l2 -2l43 59l-198 234l-54 53l-24 29l96 -97l164 250l-166 254l-76 76l-26 41l-172 -266l151 -234l-211 -246l78 -79zM78 -262l115 289l-74 75l186 220l180 -211l-36 -52l-213 -374zM135 -236l80 -26l6 14l-71 47zM154 -186l75 -50 l29 48l-82 55zM176 582l146 225l147 -227l-145 -224zM178 104l66 -69l-11 -21l103 -63l24 45l-178 113zM180 -119l86 -53l25 45l-90 59zM195 125l174 -115l26 43l-168 109zM207 -51l92 -60l27 45l-99 64zM236 571l55 -84l45 -28l22 33zM244 180l162 -106l4 8l20 27l-14 14 l-142 94zM244 604l133 -86l20 33l-133 86zM281 664l135 -86v2l-45 69l-70 45zM291 236l69 -46l-55 62z" />
<glyph unicode="&#x3c;" horiz-adv-x="1079" d="M14 324l15 -7l94 -92l1038 -364v250l-96 96v10l-406 137l502 170l-2 250l-96 96v15l-1049 -371v-190zM35 338v162l1007 356l2 -219l-643 -217l643 -217v-219zM78 424l2 -53l2 -2l180 -64zM78 453l287 -185l180 -63l-424 276l-43 -14v-14zM150 494l501 -326l176 -62 l-397 256l-166 58l51 16l-114 74zM236 522l114 -73l49 16l-116 74zM319 553l117 -76l47 17l-116 77zM406 584l116 -78l47 16l-118 78zM492 614l118 -77l45 14l-118 78zM541 326l399 -260l59 -21v31l-305 198zM573 643l121 -78l45 15l-121 79zM659 674l121 -80l43 14l-123 80 zM743 702l123 -79l41 14l-123 80zM811 233l188 -120v47l-34 22zM829 733l125 -82l37 15l-125 82zM915 764l84 -57v36l-51 33zM997 793l2 -2v2h-2z" />
<glyph unicode="=" horiz-adv-x="1079" d="M14 160h13l96 -97h1038l-2 230l-49 49h51l-2 229l-96 97v12h-1049v-242h13l36 -37h-49v-241zM35 180v201h1007l2 -201h-1009zM35 459v200h1007l2 -200h-1009zM78 287l94 -62h88l-176 113h-6v-51zM78 592l2 -53l55 -37h82zM80 225h51l-51 33v-33zM80 502h6l-6 4v-4z M92 614l174 -112h78l-174 112h-78zM131 338l174 -113h82l-172 113h-84zM227 614l174 -112h70l-174 112h-70zM258 338l172 -113h84l-172 113h-84zM358 614l172 -112h68l-174 112h-66zM391 338l172 -113h78l-172 113h-78zM489 614l175 -112h67l-172 112h-70zM522 338l172 -113 h76l-174 113h-74zM616 614l177 -112h65l-172 112h-70zM653 338l174 -113h70l-174 113h-70zM750 614l174 -112h63l-174 112h-63zM784 338l172 -113h43v17l-149 96h-66zM881 614l118 -75v39l-57 36h-61zM915 338l84 -55v45l-14 10h-70z" />
<glyph unicode="&#x3e;" horiz-adv-x="1079" d="M14 -43l11 4l98 -98l1038 364l-2 181l-96 96v10l-1049 371v-262l15 -7l94 -92l395 -135l-504 -172v-260zM35 -14v217l641 217l-641 217v219l1007 -356l2 -160zM78 115l69 -45l60 22l-123 82l-6 -2v-57zM78 668l24 -9l-24 17v-8zM78 713l143 -92l144 -50l-287 187v-45z M80 47l45 16l-45 29v-45zM84 793l405 -265l146 -49l-399 258zM109 180l122 -80l60 21l-123 80zM195 211l122 -80l58 21l-123 77zM281 240l122 -78l54 18l-121 78zM365 268l120 -78l54 19l-119 78zM375 690l391 -256l47 -14l-14 -6l112 -74l45 16l-432 281zM453 297l118 -76 l50 17l-117 77zM539 326l116 -76l50 16l-115 78zM625 356l116 -75l47 16l-116 76zM653 590l342 -219l4 2v39l-194 125zM713 385l114 -74l43 15l-114 75zM946 487l53 -34v16z" />
<glyph unicode="?" d="M133 877h12l97 -97h219q-10 -10 -30.5 -31.5t-31.5 -31.5q-31 -39 -55 -60q-16 -14 -20 -26q-12 -14 -25 -72h-8v-299h12l35 -37l-109 -141l187 -244l4 6l98 -98l178 242l-145 176h102v242q0 12 37 49l195 198q47 49 73 90q20 43 21 121q0 117 -72 189l-6 6v-2q2 0 2 -2 l-57 57q-27 49 -82 84v-2q-100 70 -250 70q-381 0 -381 -344v-43zM154 897v23q0 324 360 323q141 0 238 -65q111 -76 110 -211q0 -78 -18 -115q-12 -27 -72 -86l-194 -199q-41 -41 -41 -59v-227h-117l155 -191l-159 -217l-160 209l152 199h-97v258h6q8 57 31 92 q96 102 289 305q6 18 6 41q0 80 -123 80q-152 0 -151 -137v-23h-215zM201 971l45 -29h67l-106 66q-4 -16 -6 -37zM219 1047l113 -74q4 20 8 31l-109 71q-10 -16 -12 -28zM254 1106l106 -68q4 6 11 13l10 10l-107 69q-8 -8 -20 -24zM311 82l49 -64l74 -47l29 37l-137 90z M311 1155l111 -72q8 4 37 11l-119 77q-16 -8 -29 -16zM338 117l137 -90l29 41l-137 88zM354 324h6l-6 6v-6zM354 360l56 -36h82l-138 88v-52zM354 446l138 -90v50l-138 90v-50zM360 528l132 -86v47l-125 80q-2 -14 -7 -41zM381 174l137 -88l2 2l-88 107l-22 16zM381 600 l115 -76l8 17q4 8 10 18l-111 72q-12 -16 -22 -31zM391 1188l133 -86q39 0 64 -8l-154 100zM399 -31l17 -22l6 8zM428 655l107 -69q8 10 22 28l-100 66zM479 705l101 -64q12 8 24 25l-98 65zM485 805v12q0 117 127 123q-4 -4 -127 -135zM506 1200l309 -203q-2 12 -8 37 l-252 164q-10 2 -20 2h-29zM530 758l101 -66l24 25l-100 65zM582 809l102 -66l23 23l-103 68zM631 862l104 -69l6 6l19 16l-109 72zM672 1040q12 -29 14 -45l129 -84q2 10 2 33zM678 915l108 -69q8 16 17 24l-119 76zM694 1161l51 -33q-8 8 -51 33z" />
<glyph unicode="@" horiz-adv-x="1492" d="M-23 616q0 -336 242 -538l4 -4q133 -164 342 -232q133 -43 291 -43h31q154 0 295 43q100 31 303 129l-137 86l34 17l-90 55q74 45 129 121q106 145 107 346q0 258 -205 418q-58 78 -156 141q-205 133 -456 133q-299 0 -506 -172q-227 -188 -228 -500zM-2 616 q0 297 211 480q201 172 502 172q248 0 446 -129q248 -160 248 -441q0 -193 -102 -333q-114 -158 -302 -160q-82 0 -122 76q-113 -88 -246 -88q-150 0 -249 103t-99 255q0 180 114.5 290.5t294.5 110.5q270 0 320 -219q8 -31 28 -237l-10 -95q4 -16 12 -16q68 4 115 115 q41 102 37 172q-12 203 -156 309q-133 100 -340 92q-225 -8 -362 -137q-145 -135 -131 -358q14 -229 188 -355q158 -115 396 -108q229 6 337 96l213 -135q-285 -145 -557 -154q-332 -12 -553 172q-233 195 -233 522zM39 590q0 -12 2 -27l137 -88l-12 60l-127 81v-26zM41 649 l123 -80v6q0 10 -2 21v22l-117 78q-4 -20 -4 -47zM45 530q2 -20 10 -59l164 -109q-18 37 -31 74zM49 729l115 -74q0 14 4 43l-111 72q-2 -14 -8 -41zM59 573v7l21 -15v-6zM61 657v2l29 -18v-2zM63 434q8 -31 23 -69l616 -398h84l-192 123q-231 53 -346 225zM68 803l108 -70 q2 18 10 37l-106 70zM72 489l8 -6v-4l-6 4v4q-2 0 -2 2zM92 872l107 -67q4 10 14 33l-102 67q-2 -6 -9.5 -16t-9.5 -17zM104 326q25 -51 58 -95l368 -235q57 -14 121 -25zM127 934l102 -66q6 10 21 31l-103 66q-8 -10 -20 -31zM170 991l100 -63l23 22l-100 68l-13 -12 q-6 -6 -10 -15zM215 172q98 -100 231 -152zM219 1044l103 -65q4 2 12 10t12 10l-100 66q-16 -10 -27 -21zM236 508v2l8 -6zM279 1092l104 -66q8 6 27 16l-103 68q-8 -4 -28 -18zM330 547l137 -88q-12 37 -16 57l-119 78q-2 -10 -2 -23v-24zM332 510q2 -18 8 -55l332 -215 q33 4 59 12l-160 102q-39 16 -63 41zM338 629l111 -72q0 20 4 41l-107 68q-2 -4 -8 -37zM346 1133l107 -70q14 8 32 12l-110 72q-14 -6 -29 -14zM350 557l25 -16zM358 410q29 -59 78 -103l58 -37q57 -29 127 -32zM358 465v4l9 -4v-6zM358 700l103 -67q8 23 14 35l-100 65 q-10 -16 -17 -33zM391 762l101 -66l22 31l-100 66l-13 -15q-6 -8 -10 -16zM397 254q8 -8 29 -21q4 -4 8 -12q-6 5 -26 19q-6 6 -11 14zM422 1167l115 -75q16 6 36 10l-118 78q-10 -4 -33 -13zM436 815l103 -65q14 12 32 22l-104 68q-16 -10 -31 -25zM494 535q4 -70 49 -111 t114 -39q104 4 157.5 68.5t47.5 169.5q-8 143 -168 137q-94 -2 -150.5 -66.5t-49.5 -158.5zM502 862l110 -71q6 2 43 10l-118 78q-12 -4 -35 -17zM508 1196l129 -84q8 2 22.5 2t22.5 2l-135 88q-18 -4 -18.5 -4t-20.5 -4zM584 893l139 -90q53 -4 92 -23l-186 123 q-29 -4 -45 -10zM610 1214l154 -98q8 0 26.5 -1t26.5 -3l-168 107zM616 434v12q0 82 50.5 136.5t132.5 54.5h4q16 0 37 -4q2 -4 2 -12v-19q0 -86 -49.5 -141t-135.5 -55h-4q-23 0 -32 2q-4 16 -5 26zM647 340l119 -76q12 6 39 21l-92 61q-29 -6 -54 -6h-12zM659 78l170 -109 q39 2 74 6l-149 95q-31 2 -95 8zM696 905l273 -174q-6 23 -15 41l-200 131q-14 2 -29 2h-29zM709 324zM731 1221l225 -144q94 -37 160 -104l227 -148q-2 14 -10 33l-557 361q-10 2 -22 2h-23zM735 184q2 0 4 2l43 -28h-4zM739 49h11l14 -10q-8 0 -12 2zM754 358l82 -53 q14 8 30 25l-73 47q-18 -12 -39 -19zM782 -98h13l24 -17h-10zM801 70l143 -90l60 12l-132 84q-25 -2 -71 -6zM823 399l72 -47l4 2l2 -6l146 -96q16 4 47 12l-246 160q-10 -16 -25 -25zM840 950q160 -2 268 -73q68 -98 68 -207v-8q0 -59 -25 -130q-6 66 -14 103 q-25 115 -127 180q-4 4 -9 4q-59 100 -161 131zM850 758q29 -27 45 -68l88 -57l-6 43zM862 53h6l35 -20h-8zM866 453l131 -86q-8 14 -8 34v17l-104 69q-6 -12 -19 -34zM893 1202l399 -258l-30 43l-308 199q-20 6 -61 16zM895 520l98 -63l6 37l-96 63q-2 -10 -8 -37zM899 -90 h4q2 2 4 2l37 -23h-4q-2 -2 -4 -2zM905 637q2 -10 2 -21v-18l86 -57l-6 45zM915 80l127 -80l54 14l-121 78q-29 -10 -60 -12zM924 291q20 -39 65 -43zM969 70h4l41 -27h-4zM1006 -74q2 0 2 2h2l43 -28h-4zM1016 102l114 -75q14 6 46 18l-113 74q-27 -10 -47 -17zM1038 340 l95 -61q2 0 38 22l-79 51q-23 -10 -45 -12h-9zM1098 -49l2 2l49 -31l-4 -2zM1098 135l114 -74l37 19l-116 78q-16 -14 -35 -23zM1122 373l78 -51q8 6 14 12l13 12l-78 51q-12 -16 -27 -24zM1169 426l84 -51q6 8 19 26l-86 56q-6 -10 -17 -31zM1182 -16l55 -37zM1190 868 q2 -6 7 -20t9 -21l154 -98l-2 31zM1192 227l45 -28h-2zM1202 489l90 -57q8 14 15 29l-93 59q-4 -16 -12 -31zM1227 563l98 -63q0 2 8 26l-100 66q-2 -10 -6 -29zM1227 762l6 -37l125 -80l2 31zM1239 637l107 -70q0 10 4 29l-111 74q2 -14 0 -33z" />
<glyph unicode="A" horiz-adv-x="1355" d="M-51 -45h16l96 -96h279l164 360h440l127 -264h10l97 -96h292l-663 1327l-88 88l-10 20h-111zM-18 -25l628 1299h86l650 -1299h-263l-172 361h-518l-164 -361h-247zM51 16h17l-13 9zM61 39l35 -23h101l-113 72zM94 104l113 -71l22 47l-112 72zM125 172l113 -74l20 45 l-111 72zM158 236l108 -72l21 43l-109 72zM188 301l107 -72l20 43l-108 68zM219 362l107 -67l18 41l-106 70zM250 428l104 -68l11 21h38l-135 86zM281 494l176 -113h75l-233 149zM313 559l103 -65l14 36l-98 64zM346 623l98 -64l15 35l-99 63zM377 688l96 -63l16 34l-96 62z M408 752l94 -62l16 35l-94 61zM438 815l94 -59l15 32l-94 60zM442 475l146 -94h71l-143 94h-74zM471 881l90 -58l14 29l-90 59zM475 518h348l-178 385zM502 946l88 -57l14 29l-90 57zM532 1014l89 -60l12 27l-88 55zM563 1075l273 -178l-27 53l-234 152zM573 475l146 -94h67 l-143 94h-70zM594 1141l178 -117l-24 49l-142 90zM627 1204l80 -51l-21 43l-49 31zM647 539l70 157l74 -157h-144zM670 956l22 -49l205 -133l-27 53zM707 475l143 -94h68l-144 94h-67zM725 838l25 -52l208 -137l-26 56zM778 721l27 -57l217 -140l-29 58zM834 602l28 -59 l223 -146l-30 62zM836 475l313 -205l-33 66l-227 147l4 -8h-57zM948 362l29 -65l233 -150l-32 66zM1006 238l30 -64l238 -154l-33 66zM1063 117l31 -66l53 -35h72z" />
<glyph unicode="B" horiz-adv-x="1144" d="M125 -45h12l96 -96h535q274 0 365 225q28 68 28 150v6q0 162 -88 249l-8 7l-55 55q-4 4 -9 12q104 82 105 238q0 150 -94 233l-19 17l-32 30q-31 47 -76 86q-111 94 -281 95h-479v-1307zM145 -25v1266h459q160 0 268 -88q117 -94 117 -250q0 -176 -139 -254 q194 -78 194 -305q0 -172 -106.5 -270.5t-271.5 -98.5h-521zM190 16h5l-5 4v-4zM190 43l41 -27h93l-134 88v-61zM190 127l170 -111h91l-261 172v-61zM190 215l132 -86v53l-132 86v-53zM190 299l132 -84v51l-132 86v-53zM190 381l132 -86v53l-132 88v-55zM190 467l132 -86v53 l-132 84v-51zM190 553l132 -86v49l-132 86v-49zM190 639l132 -88v22h38l-170 111v-45zM190 725l232 -152h67l-141 93h-26v16l-132 86v-43zM190 809l132 -84v43l-132 86v-45zM190 893l132 -86v43l-132 86v-43zM190 977l132 -86v43l-132 86v-43zM190 1063l132 -86v41l-132 84 v-39zM190 1149l132 -86v35h2l-134 88v-37zM250 1196l149 -98h54l-152 98h-51zM358 104l134 -88h88l-136 88h-86zM367 150h258q82 0 133 52t51 134q0 90 -60.5 142t-152.5 52h-229v-380zM367 709h221q76 0 123 47t47 123q0 88 -72 135q-61 41 -154 41h-165v-346zM377 1196 l151 -98h4q25 0 54 -4l-158 102h-51zM414 666l141 -93h68l-144 93h-65zM483 170v244h215q43 0 78 -13q12 -29 12 -65q0 -72 -46 -119t-117 -47h-142zM483 729v209h152q49 0 94 -16q8 -20 8 -43q0 -66 -42 -108t-107 -42h-105zM489 104l136 -88h59q10 0 21 2l-134 86h-82z M508 1196l436 -283v17q0 8 -2 16l-385 250h-49zM541 666l178 -117q39 -16 65 -43l215 -139q-4 27 -6 49l-387 250h-65zM618 104l125 -81q25 6 58 16l-113 74q-25 -8 -63 -9h-7zM641 1196l285 -184q-12 29 -25 45l-199 129q-20 6 -61 10zM657 676l324 -211q-16 41 -39 65 l-119 78q-23 8 -104 35q10 4 33 12l-56 37q-12 -6 -39 -16zM719 123l112 -72q20 8 41 25l-110 71q-23 -16 -43 -24zM729 715l64 -43q10 4 18 8l16 8l-75 49q-10 -12 -23 -22zM774 768l88 -55q16 12 25 20l-99 66q-4 -10 -14 -31zM784 166l113 -72l29 29l-113 76 q-6 -10 -12 -17zM784 967q8 -16 15 -45l139 -91q4 20 4 31zM799 838l112 -72q8 10 15 27l-123 77q0 -10 -4 -32zM827 225l117 -78q14 18 21 35l-121 80q-6 -12 -17 -37zM836 434q6 -18 14 -53l147 -94q2 10 2 20v21zM850 295l127 -82q8 18 12 35l-135 90v-2q0 -20 -4 -41z M991 1053l2 -2q0 2 -2 2zM1063 498l2 -2q0 2 -2 2z" />
<glyph unicode="C" horiz-adv-x="1355" d="M59 606q0 -317 238 -500l43 -43q129 -129 315 -186q133 -39 291 -39q209 0 436 86v281l-96 96v18q-272 -159 -414 -159h-2q-219 0 -368 112q-4 2 -5 3t-5 4q-58 96 -58 225q0 219 160 346q145 117 371 117q176 0 417 -152v275l-96 96v10q-262 100 -457 100 q-315 0 -536 -184q-233 -195 -234 -506zM80 606q0 303 227 492q215 178 522 178q186 0 437 -94v-238q-219 139 -404 139q-229 0 -381 -120q-164 -133 -164 -357q0 -221 170 -350q156 -117 383 -117q152 0 396 144v-246q-215 -82 -422 -82q-317 0 -531 164q-233 178 -233 487 zM125 561q4 -27 4 -26.5t4 -28.5l193 -127q-16 37 -29 70zM125 596l162 -104q-6 18 -11 53l-151 98v-47zM129 678l145 -94v45l-139 92zM139 469l19 -68l622 -401q18 -2 33 -2h51l-188 121q-207 55 -316 207zM143 756l133 -90q2 14 7 41l-131 86q-2 -12 -9 -37zM164 825 l127 -82q2 18 12 37l-123 80l-8 -16q-4 -8 -8 -19zM174 362q18 -41 47 -83l393 -256q55 -12 115 -19zM195 889l120 -78q4 12 15 35l-117 76q-6 -10 -18 -33zM231 950l117 -76l19 31l-115 72q-8 -8 -21 -27zM272 219q100 -109 256 -168zM276 1006l115 -72q10 12 23 22 l-113 74zM330 1057l112 -72q8 8 25 21l-113 71q-12 -8 -24 -20zM334 184v2l2 -2h-2zM391 1104l113 -74l26 17l-112 73zM457 1143l116 -74l31 12l-119 76q-14 -6 -28 -14zM535 1178l122 -78l17 4q8 2 18 4l-127 82q-16 -4 -30 -12zM625 1206l131 -86q12 0 39 4l-138 90 q-10 -2 -32 -8zM725 1227l152 -99q14 0 45 -4l-160 107q-12 0 -37 -4zM750 104l161 -104l68 6l-137 88l-45 4q-25 2 -47 6zM848 1233l209 -135q57 -20 88 -35l-256 168zM895 96l129 -84l55 13l-121 79q-31 -8 -63 -8zM997 113l121 -78q16 4 51 14l-120 80q-14 -4 -27 -8z M1006 1214l215 -139v23l-164 104q-25 10 -51 12zM1085 141l125 -78l11 5v28l-95 64q-14 -6 -41 -19zM1163 176l58 -37v43l-19 13q-12 -6 -39 -19z" />
<glyph unicode="D" horiz-adv-x="1462" d="M125 -45h12l96 -96h564q303 0 485 164q193 172 193 471q0 281 -177 456l-8 8q-8 6 -20 23l-41 39q-8 12 -29 37q-180 205 -440 205h-635v-1307zM145 -25v1266h615q252 0 428 -199q170 -193 170 -446q0 -293 -189 -461q-178 -160 -475 -160h-549zM190 16h5l-5 4v-4z M190 43l41 -27h93l-134 88v-61zM190 127l170 -111h91l-261 172v-61zM190 215l136 -90v55l-136 88v-53zM190 299l136 -88v53l-136 90v-55zM190 383l136 -90v55l-136 88v-53zM190 467l136 -88v53l-136 86v-51zM190 553l136 -88v49l-136 88v-49zM190 639l136 -88v45l-136 88 v-45zM190 725l136 -88v41l-136 90v-43zM190 809l136 -88v45l-136 88v-45zM190 893l136 -88v43l-136 88v-43zM190 977l136 -88v43l-136 88v-43zM190 1063l136 -88v39l-136 88v-39zM190 1149l136 -88v26h14l-150 99v-37zM250 1196l166 -109h51l-166 109h-51zM332 121l160 -105 h86l-160 105h-86zM369 166h321q190 0 308 127t118 319q0 162 -102 293q-109 139 -266 139h-379v-878zM377 1196l168 -109h51l-166 109h-53zM463 121l162 -105h82l-160 105h-84zM485 186v742h365q84 0 151 -43q94 -125 95 -273q0 -184 -112 -305t-294 -121h-205zM508 1196 l166 -109h49l-166 109h-49zM592 121l158 -103q25 2 71 9l-147 94h-82zM641 1196l178 -117q131 -29 228 -147l237 -154l-12 37l-586 381h-45zM723 123l137 -90q18 4 55 14l-129 84q-2 0 -63 -8zM772 1196l461 -301l-12 25q-6 12 -15 22l-387 250q-25 4 -47 4zM827 139 l123 -80l49 19l-122 80zM907 174l123 -80q12 8 37 21l-123 80q-12 -10 -37 -21zM975 215l123 -80q4 4 14 12.5t14 12.5l-122 80q-10 -8 -29 -25zM997 1135l72 -45q-16 14 -35 24zM1028 264l125 -82l14 15q6 6 13 14l-127 82q-4 -8 -11 -14zM1073 319l127 -83q8 10 23 30 l-131 84zM1104 842l10 -23l8 -22l185 -119q-2 12 -7 35zM1108 383l133 -86q8 14 14 29l-133 88q-4 -10 -14 -31zM1135 451l137 -91q8 18 10 33l-137 88q-2 -10 -10 -30zM1145 733l8 -41l160 -104v35zM1153 522l139 -90q4 10 8 31l-143 94q0 -12 -4 -35zM1159 604l148 -96 q4 20 4 31l-152 100v-35z" />
<glyph unicode="E" d="M117 -45h12l96 -96h834v219l-96 96v12h-480v232h445v215l-97 96v12h-346v189h574v223l-96 96v13h-846v-1307zM137 -25v1266h805v-194h-573v-326h442v-186h-444v-369h575v-191h-805zM182 16h15l-15 11v-11zM182 47l47 -31h95l-142 93v-62zM182 133l180 -117h89l-269 177 v-60zM182 221l140 -92v55l-140 90v-53zM182 303l140 -90v53l-140 94v-57zM182 387l140 -90v51l-140 94v-55zM182 473l140 -90v51l-140 90v-51zM182 559l140 -92v49l-140 92v-49zM182 645l140 -92v25h32l-172 112v-45zM182 729l234 -151h65l-149 98h-6v4l-144 94v-45z M182 815l144 -94v45l-144 92v-43zM182 897l144 -94v45l-144 94v-45zM182 983l144 -94v43l-144 92v-41zM182 1071l144 -96v39l-144 94v-37zM182 1153l144 -92v31h8l-152 98v-37zM250 1196l160 -104h53l-160 104h-53zM334 121l160 -105h86l-160 105h-86zM377 1196l162 -104h51 l-160 104h-53zM393 676l152 -98h67l-151 98h-68zM463 121l162 -105h82l-160 105h-84zM508 1196l162 -104h49l-162 104h-49zM522 676l152 -98h67l-149 98h-70zM592 121l164 -105h78l-160 105h-82zM641 1196l160 -104h47l-162 104h-45zM655 676l111 -72v41l-47 31h-64z M721 121l164 -105h14v43l-96 62h-82zM772 1196l127 -82v27l-86 55h-41zM856 121l43 -27v27h-43z" />
<glyph unicode="F" horiz-adv-x="907" d="M139 -45h13l96 -96h254v555h442v215l-96 96v12h-342v197h567v219l-96 96v13h-838v-1307zM160 -25v1266h796v-190h-567v-334h438v-187h-442v-555h-225zM205 33l24 -17h95l-119 78v-61zM205 121l135 -90v57l-135 88v-55zM205 203l135 -88v57l-135 88v-57zM205 291l135 -90 v53l-135 88v-51zM205 373l135 -90v55l-135 88v-53zM205 459l135 -90v53l-135 88v-51zM205 545l135 -90v49l-135 90v-49zM205 629l135 -88v34h20l-155 101v-47zM205 715l215 -140h67l-282 183v-43zM205 801l139 -92v45l-139 92v-45zM205 883l139 -90v43l-139 92v-45zM205 971 l139 -94v43l-139 92v-41zM205 1053l139 -90v38l-139 93v-41zM205 1139l139 -90v38l-139 89v-37zM248 1196l158 -102h53l-158 102h-53zM377 1196l158 -102h51l-156 102h-53zM401 674l150 -99h67l-151 99h-66zM506 1196l158 -102h49l-156 102h-51zM528 674l150 -99h70l-152 99 h-68zM641 1196l156 -102h43l-154 102h-45zM659 674l123 -82v43l-59 39h-64zM772 1196l141 -90v27l-100 63h-41zM903 1196l10 -6v6h-10z" />
<glyph unicode="G" horiz-adv-x="1665" d="M63 612q0 -332 232 -516q2 -4 10 -8l43 -43q211 -211 596 -211q199 0 361 84q204 105 204 289q0 74 -36 141h100v223l-96 97v12h-824l2 -238h13l96 -96h270q31 -8 90 -20q-6 -72 -95 -117t-177 -45q-94 0 -193 29q-113 33 -170 90q-55 92 -55 211q0 219 139.5 346 t360.5 127q166 0 309 -103l25 -26q10 -14 22 -31l6 4l99 -98l198 151q-41 63 -90 113l-41 41q-219 276 -643 276q-319 0 -530 -178q-225 -190 -226 -504zM84 612q0 307 217 490q205 172 518 172q453 0 651 -303l-176 -135q-187 247 -463 247q-229 0 -368 -129 q-145 -133 -146 -358q0 -209 168 -336q154 -117 367 -117q94 0 184 47q109 57 109 142q0 98 -211 131h-258l-2 196h782v-194h-113q49 -74 50 -154q0 -178 -197 -278q-162 -82 -354 -82q-334 0 -537 160q-221 176 -221 501zM129 594l156 -102q-2 4 -9 53l-147 98v-49z M131 557q0 -25 4 -53l191 -125q-18 33 -31 72zM131 678l143 -92v45l-137 90zM143 467q6 -20 17 -64l626 -407h84l-196 125q-207 55 -316 207zM143 756l133 -90q2 14 7 41l-131 86q-2 -12 -9 -37zM164 827l127 -84q4 23 10 37l-125 82q-4 -12 -12 -35zM172 365q10 -29 39 -80 l418 -271l53 -8q27 -4 55 -6zM190 891l123 -78q6 16 17 33l-121 78q-6 -10 -19 -33zM227 952l119 -75l19 30l-117 74q-8 -8 -21 -29zM250 231q106 -137 303 -196zM272 1012l115 -76q12 16 21 25l-113 73zM324 190v3l2 -3h-2zM324 1061l112 -72l25 21l-111 73q-8 -4 -14 -10z M385 1108l111 -74q10 6 28 17l-114 73q-8 -8 -25 -16zM453 1147l112 -74l31 14l-115 74zM530 1182l119 -78q6 2 37 8l-121 80l-16 -4q-8 -2 -19 -6zM623 1206l127 -84q20 4 43 4l-136 88q-12 -2 -34 -8zM719 508h4l-4 2v-2zM719 549l63 -41l70 -2l-133 88v-45zM729 1225 l152 -99l49 -6l-166 109q-12 0 -35 -4zM745 106l170 -106l62 6l-141 92q-49 0 -91 8zM750 616l168 -110h22q25 0 59 -12l-186 122h-63zM854 1229l475 -309l19 12l-455 295zM879 616l469 -305q0 20 -5 41l-403 264h-61zM889 100l129 -84q31 6 53 15l-125 80q-16 -4 -57 -11z M985 121l123 -78l45 18l-123 78zM1006 1214l385 -249l14 12l-348 227q-14 4 -51 10zM1010 616l313 -202q-16 29 -45 65l-211 137h-57zM1065 158l121 -80q12 8 35 20l-121 80q-18 -14 -35 -20zM1128 201l121 -80q20 14 29 26l-125 82q-4 -8 -10 -14zM1143 616l164 -108h51 l-162 108h-53zM1171 256l129 -84q8 10 21 31l-137 88q-4 -20 -13 -35zM1182 377q8 -18 8 -45v-2l145 -94q8 18 11 34zM1272 616l139 -92v35l-88 57h-51zM1403 616l8 -6v6h-8z" />
<glyph unicode="H" horiz-adv-x="1462" d="M125 -45h12l96 -96h252v598h557v-502h13l96 -96h254v1294l-96 96v13h-271v-478h-553v369l-96 96v13h-264v-1307zM145 -25v1266h224v-477h690v477h229v-1266h-225v598h-694v-598h-224zM190 16h5l-5 4v-4zM190 43l41 -27h95l-136 88v-61zM190 127l136 -88v61l-136 88v-61z M190 215l136 -88v55l-136 86v-53zM190 299l136 -86v51l-136 88v-53zM190 383l136 -88v53l-136 88v-53zM190 467l136 -88v51l-136 88v-51zM190 553l136 -88v49l-136 88v-49zM190 639l136 -88v45l-136 88v-45zM190 725l162 -107h68l-230 150v-43zM190 809l136 -88v45l-136 88 v-45zM190 893l136 -90v45l-136 88v-43zM190 977l136 -88v43l-136 88v-43zM190 1065l136 -88v37l-136 88v-37zM190 1149l136 -88v37l-136 88v-37zM250 1196l76 -49v33l-25 16h-51zM330 719l157 -101h64l-156 101h-65zM457 719l157 -101h68l-158 101h-67zM590 719l155 -101h64 l-158 101h-61zM719 719l158 -101h57l-156 101h-59zM850 719l160 -101h53l-156 101h-57zM985 719l258 -170v37l-209 133h-49zM1104 723l139 -90v33l-139 92v-35zM1104 809l139 -90v33l-139 90v-33zM1104 895l139 -90v29l-139 90v-29zM1104 981l139 -90v27l-139 90v-27z M1104 1065l139 -90v24l-139 91v-25zM1104 1151l139 -90v22l-139 91v-23zM1108 41l39 -25h72l-111 72v-47zM1108 127l135 -86v41l-135 90v-45zM1108 213l135 -88v43l-135 90v-45zM1108 297l135 -90v45l-135 88v-43zM1108 383l135 -90v41l-135 90v-41zM1108 467l135 -88v39 l-135 88v-39zM1108 553l135 -88v37l-135 88v-37zM1161 1196l82 -53v22l-47 31h-35z" />
<glyph unicode="I" horiz-adv-x="520" d="M125 -45h12l96 -96h246v1294l-96 96v13h-258v-1307zM145 -25v1266h217v-1266h-217zM190 16h5l-5 4v-4zM190 43l41 -27h88v4l-129 84v-61zM190 127l129 -82v59l-129 84v-61zM190 215l129 -84v55l-129 82v-53zM190 299l129 -82v51l-129 86v-55zM190 383l129 -86v55l-129 84 v-53zM190 467l129 -84v51l-129 84v-51zM190 553l129 -84v49l-129 84v-49zM190 639l129 -86v47l-129 84v-45zM190 725l129 -84v43l-129 84v-43zM190 809l129 -84v45l-129 84v-45zM190 893l129 -84v43l-129 84v-43zM190 977l129 -84v43l-129 84v-43zM190 1065l129 -86v41 l-129 82v-37zM190 1149l129 -84v37l-129 84v-37zM250 1196l69 -45v35l-16 10h-53z" />
<glyph unicode="J" horiz-adv-x="835" d="M-41 102q27 -25 78 -71l39 -37q164 -156 346 -156q139 0 227 53l-2 3q121 66 121 196v1063l-96 96v13h-264v-1022q0 -31 -25 -55.5t-55 -24.5q-88 0 -191 114zM-12 102l149 144q94 -106 191 -107q39 0 69.5 31t30.5 70v1001h223v-1048q0 -121 -110 -187q-91 -51 -222 -51 q-190 0 -331 147zM49 100q66 -63 156 -88l-150 97zM70 121l182 -119q33 -4 67 -4h17q8 0 16 2l-243 158zM123 172l262 -170q18 2 35 6l33 8l-121 78h-4q-106 0 -193 88zM365 100l114 -75q27 12 49 24l-114 76q-23 -18 -49 -25zM432 143l117 -77q16 14 31 34l-123 80 q-10 -23 -25 -37zM467 205l125 -84q8 20 12 45l-133 88v-14q0 -14 -4 -35zM471 285l135 -88v51l-135 90v-53zM471 371l135 -88v49l-135 88v-49zM471 457l135 -88v45l-135 88v-45zM471 541l135 -88v43l-135 90v-45zM471 627l135 -88v45l-135 88v-45zM471 711l135 -90v45 l-135 88v-43zM471 795l135 -88v43l-135 88v-43zM471 881l135 -88v38l-135 89v-39zM471 967l135 -90v36l-135 91v-37zM471 1053l135 -90v34l-135 88v-32zM471 1135l135 -88v34l-135 88v-34zM506 1196l100 -63v30l-49 33h-51z" />
<glyph unicode="K" horiz-adv-x="1150" d="M100 -45h13l96 -96h213v6h37v518l411 -428h9l96 -96h364l-96 96h8l-618 618l661 580l-98 98l12 11h-383l-366 -342v233l-97 96v13h-262v-1307zM121 -25v1266h221v-455l492 455h319l-647 -567l696 -699h-323l-537 560v-553h-37v-7h-184zM164 16h33l-33 21v-21zM164 59 l67 -43h29v7h37v10l-133 86v-60zM164 145l133 -86v58l-133 86v-58zM164 229l133 -86v58l-133 86v-58zM164 315l133 -88v56l-133 86v-54zM164 399l133 -88v56l-133 84v-52zM164 485l133 -88v52l-133 86v-50zM164 571l133 -88v49l-133 84v-45zM164 655l133 -88v47l-133 86v-45 zM164 741l604 -393l-125 127l-336 217l-10 -8v14l-133 86v-43zM164 827l133 -88v45l-133 86v-43zM164 911l133 -88v43l-133 88v-43zM164 993l133 -84v41l-133 84v-41zM164 1079l133 -86v39l-133 86v-39zM164 1167l133 -88v37l-123 80h-10v-29zM248 1198l49 -33v33h-49z M332 717l198 -129l-88 88l9 8l-91 59zM375 563l114 -117l512 -335l-127 129zM387 766l90 -59l29 24l-92 60zM438 815l94 -59l29 24l-96 60zM494 866l96 -61l24 22l-96 62zM549 915l96 -61l25 20l-99 64zM586 346l119 -127l311 -203h74zM602 967l98 -64l21 19l-96 65z M655 1016l101 -66l22 21l-102 63zM709 1065l102 -66l20 19l-102 65zM764 1116l102 -67l21 16l-105 68zM788 131l111 -115h64zM817 1165l105 -67l18 16l-106 68zM903 1196l76 -49l16 14l-55 35h-37z" />
<glyph unicode="L" horiz-adv-x="931" d="M139 -45h13l96 -96h764v219l-97 96v12h-405v967l-96 96v13h-275v-1307zM160 -25v1266h233v-1075h502v-191h-735zM205 33l24 -17h95l-119 78v-61zM205 121l157 -105h89l-246 160v-55zM205 203l287 -187h88l-162 105h-68v43l-145 96v-57zM205 291l145 -96v55l-145 92v-51z M205 373l145 -97v56l-145 94v-53zM205 459l145 -97v54l-145 94v-51zM205 545l145 -96v51l-145 94v-49zM205 629l145 -94v47l-145 94v-47zM205 715l145 -97v46l-145 94v-43zM205 801l145 -96v45l-145 96v-45zM205 883l145 -95v46l-145 94v-45zM205 971l145 -97v41l-145 97 v-41zM205 1053l145 -92v38l-145 95v-41zM205 1139l145 -95v37l-145 95v-37zM248 1196l102 -66v33l-49 33h-53zM463 121l162 -105h82l-160 105h-84zM592 121l164 -105h78l-160 105h-82zM721 121l129 -84v53l-47 31h-82z" />
<glyph unicode="M" horiz-adv-x="1728" d="M78 -45h12l96 -96h263l4 680l317 -584h10l97 -96h159l338 583l-2 -487h12l97 -96h272l-4 1327l-96 96v12h-228l-542 -915l-457 807l-86 84l-12 24h-250v-1339zM98 -25v1299h217l549 -969l574 969h194l4 -1299h-243l6 820l-473 -820h-144l-444 820l-6 -820h-234zM143 16 h54l-54 35v-35zM143 74l88 -58h58v23l-146 96v-61zM143 158l146 -95v58l-146 98v-61zM143 246l146 -99l2 58l-148 96v-55zM143 330l148 -94v53l-148 94v-53zM143 412l148 -97v56l-148 96v-55zM143 498l148 -97l2 52l-150 96v-51zM143 584l150 -97v48l-150 98v-49zM143 670 l150 -99v45l-150 101v-47zM143 754l150 -97l2 43l-152 101v-47zM143 842l152 -101v43l-152 99v-41zM143 924l152 -101v45l-152 99v-43zM143 1008l152 -101l2 43l-154 99v-41zM143 1094l353 -230l-35 64l-318 207v-41zM143 1180l277 -181l-33 58l-244 160v-37zM197 1229 l147 -94l-33 53l-61 41h-53zM309 940l37 -63l229 -150l-38 68zM379 815l37 -67l233 -154l-39 70zM449 686l36 -70l240 -155l-39 71zM518 553l37 -66l248 -161l-41 71zM588 424l37 -68l342 -221l20 33l-110 72l-13 -23l-28 47zM657 299l39 -76l236 -149l18 32zM727 172 l39 -78l117 -78h16l16 31zM793 45l16 -29h27zM893 266l108 -71l19 34l-109 70zM930 330l108 -72l19 33l-109 69zM965 389l108 -70l19 31l-107 70zM1001 451l107 -70l18 29l-106 69zM1038 512l107 -70l16 29l-106 70zM1075 573l107 -67l14 26l-106 68zM1112 635l105 -68 l14 25l-105 67zM1147 696l104 -69l15 24l-105 70zM1184 758l102 -68l14 25l-102 65zM1221 819l104 -67l10 22l-102 68zM1257 881l103 -66l10 19l-102 67zM1292 942l103 -65l10 18l-100 66zM1329 1006l103 -66l8 14l-101 66zM1364 1065l225 -145v22l-215 137zM1403 1126 l186 -120v20l-178 115zM1438 16h43l-43 29v-29zM1438 82l102 -66h51v9l-151 100zM1438 1188l151 -96l-2 18l-141 92zM1440 166l151 -100v43l-151 100v-43zM1440 252l151 -100v41l-151 98v-39zM1440 338l151 -100v38l-151 97v-35zM1440 422l151 -98v36l-149 97zM1442 506 l149 -96v32l-149 97v-33zM1442 590l147 -96v32l-147 97v-33zM1442 676l147 -98v30l-147 97v-29zM1442 760l147 -96v26l-147 96v-26zM1444 846l145 -94v22l-145 96v-24zM1444 930l145 -94v22l-145 94v-22zM1507 1229l80 -51v16l-53 35h-27z" />
<glyph unicode="N" horiz-adv-x="1556" d="M125 -45h12l96 -96h246v868l934 -895h98v1321l-96 96v13h-262v-867l-915 895h-113v-1335zM145 -25v1295h84l945 -922v893h221v-1292h-78l-955 919v-893h-217zM190 16h5l-5 4v-4zM190 43l41 -27h88v4l-129 84v-61zM190 127l129 -82v59l-129 84v-61zM190 215l129 -84v55 l-129 82v-53zM190 299l129 -82v51l-129 86v-55zM190 383l129 -86v55l-129 84v-53zM190 467l129 -84v53l-129 82v-51zM190 553l129 -82v47l-129 84v-49zM190 639l129 -82v45l-129 82v-45zM190 725l129 -84v43l-129 84v-43zM190 809l129 -82v43l-129 84v-45zM190 893l129 -84 v43l-129 84v-43zM190 977l129 -84v43l-129 84v-43zM190 1065l560 -367l-119 119l-441 285v-37zM190 1149l295 -191l-110 107l-185 121v-37zM201 1227l28 -19l-18 19h-10zM434 862l131 -129l443 -287l-127 123zM692 610l142 -135l516 -338v45l-133 86v-26l-84 82zM958 354 l140 -135l252 -164v43zM1217 311l133 -88v41l-133 88v-41zM1217 397l133 -86v37l-133 86v-37zM1217 481l133 -86v35l-133 88v-37zM1217 567l133 -88v35l-133 86v-33zM1217 649l133 -86v33l-133 88v-35zM1217 735l133 -86v33l-133 84v-31zM1217 821l133 -86v29l-133 86v-29z M1217 905l133 -84v27l-133 84v-27zM1217 991l133 -86v25l-133 86v-25zM1217 1077l133 -86v23l-133 86v-23zM1217 1159l133 -84v21l-133 86v-23zM1225 96l108 -104h17v22zM1292 1196l58 -37v21l-25 16h-33z" />
<glyph unicode="O" horiz-adv-x="1769" d="M317 102l43 -43q33 -33 74 -63q227 -172 543 -172q313 0 539 184q239 196 239 501v3q0 256 -174 430l-35 35q-59 78 -143 141q-231 176 -547 176q-313 0 -541 -188q-241 -200 -241 -505q0 -310 243 -499zM94 598q0 301 236 494q219 182 526 182q309 0 535 -172 q248 -186 247 -488q0 -303 -235 -495q-220 -178 -529 -178q-307 0 -534 170q-246 184 -246 487zM137 588l162 -107q-4 14 -6 29l-4 29l-150 96q-2 -10 -2 -21v-26zM139 551l4 -27l4 -28l201 -131q-23 37 -37 73zM143 670l140 -92v47l-136 88q0 -14 -4 -43zM154 459 q6 -23 22 -68l621 -401q41 -4 77 -4h13l-228 143q-168 55 -270 176zM156 748l131 -86q2 14 6 40l-127 80zM178 817l121 -80q4 10 10 39l-116 76q-4 -12 -15 -35zM195 352q18 -41 59 -96l364 -236q61 -18 127 -24zM209 881l113 -74q4 8 14 35l-109 71q-6 -10 -18 -32z M246 940l108 -68q6 8 19 29l-105 68q-14 -14 -22 -29zM293 997l102 -67q4 6 11 12l12 12l-103 68l-12 -12q-6 -6 -10 -13zM319 186q82 -76 193 -125zM500 260q158 -121 374 -121q227 0 375 123q156 133 156 356q0 211 -172 343q-158 118 -377 118q-229 0 -375 -121 q-153 -130 -153 -353q0 -214 172 -345zM344 1049l102 -66l25 21l-102 65q-8 -8 -25 -20zM406 1094l102 -64l12 8q6 4 15 9l-103 65q-8 -6 -26 -18zM444 500q0 215 150 344h-2q143 119 366 119q195 0 349 -107q78 -106 77 -238q0 -215 -149 -342q-140 -116 -357 -116h-4 q-94 0 -196 30q-115 35 -172 93q-62 88 -62 217zM471 1135l104 -68l31 12l-104 70q-10 -4 -31 -14zM549 1171l113 -73l32 8l-114 76q-20 -8 -31 -11zM635 1200l125 -82q12 0 39 4l-131 84q-10 -2 -33 -6zM735 1221l148 -97q16 0 47 -4l-162 105zM745 109l187 -121l67 6 l-161 102q-47 2 -93 13zM852 1229l207 -135q51 -16 98 -37l-266 172h-39zM893 96l149 -96l56 12l-137 88q-33 -4 -68 -4zM1004 1217l528 -343q-8 16 -21 33l-460 299q-27 8 -47 11zM1008 109l129 -84q14 6 45 16l-121 80q-29 -10 -53 -12zM1100 133l117 -76l38 19l-112 74 q-14 -6 -43 -17zM1180 166l108 -72q12 8 37 23l-108 71q-12 -8 -37 -22zM1245 207l107 -70l30 25l-106 69zM1253 1137l133 -88q-55 49 -133 88zM1282 975q39 -33 66 -68l229 -147q-2 10 -10 31zM1303 254l108 -68q14 10 23 25l-107 70q-6 -8 -12 -15zM1350 309l110 -69 q8 8 21 24l-111 72q-6 -8 -20 -27zM1389 369l114 -72l15 27l-115 73q-6 -14 -14 -28zM1409 809l14 -37l168 -108q0 18 -2 28zM1419 436l119 -78q4 8 6 15l4 12l-121 80q-4 -16 -8 -29zM1440 508l123 -84q6 12 10 29l-129 84q0 -10 -4 -29zM1442 705q0 -10 4 -33l147 -94 q2 10 2 28zM1448 588l135 -88q4 16 4 26l-139 92v-30z" />
<glyph unicode="P" d="M125 -45h12l96 -96h261v538h241q160 0 268.5 105.5t108.5 265.5q0 166 -104 270l-56 56q-18 27 -49 57q-111 111 -280 111h-498v-1307zM145 -25v1266h478q162 0 267 -104.5t105 -266.5q0 -154 -104.5 -255t-257.5 -101h-256v-539h-232zM190 16h5l-5 4v-4zM190 43l41 -27 h93l-134 88v-61zM190 127l144 -90v57l-144 94v-61zM190 215l144 -94v55l-144 92v-53zM190 299l144 -92v53l-144 92v-53zM190 381l144 -92v55l-144 92v-55zM190 467l144 -92v53l-144 90v-51zM190 553l144 -92v49l-144 92v-49zM190 639l144 -94v12h51l-195 127v-45zM190 725 l256 -168h68l-152 98h-28v21l-144 92v-43zM190 809l144 -92v43l-144 94v-45zM190 893l144 -92v43l-144 92v-43zM190 977l144 -92v43l-144 92v-43zM190 1063l144 -92v39l-144 92v-39zM190 1149l144 -92v35l-144 94v-37zM250 1196l156 -102h51l-156 102h-51zM377 700h244 q53 0 95 61.5t42 117.5q0 76 -57.5 124t-135.5 48h-188v-351zM377 1196l155 -102h56l-160 102h-51zM428 655l150 -98h67l-149 98h-68zM494 721v213h174q27 0 61 -10q8 -18 8 -45q0 -47 -35.5 -102.5t-80.5 -55.5h-127zM508 1196l440 -285q0 10 -4 33l-387 252h-49zM553 655 l143 -92q12 2 25 6l24 9l-124 77h-68zM641 1196l281 -182q-10 20 -25 43l-201 131q-2 0 -55 8zM670 666l112 -74q12 8 35 20l-115 74q-16 -12 -32 -20zM731 713l117 -76q12 10 22 22l-118 78q-10 -16 -21 -24zM772 770l123 -80q6 8 18 27l-127 82zM784 967q4 -14 15 -45 l149 -99q2 10 2 19v16zM799 840l131 -86q4 16 10 28l-137 88q0 -10 -4 -30z" />
<glyph unicode="Q" horiz-adv-x="1769" d="M307 100l45 -43q244 -233 633 -233q197 0 354 76l76 -72l2 2l101 -96l192 133l-100 100l6 2l-70 64q215 195 215 459q0 287 -180 458l-49 47q-53 68 -127 127v-2q-227 172 -545 172q-311 0 -543 -182q-249 -196 -249 -508q0 -313 239 -504zM88 602q0 305 240 496 q221 176 532 176q324 0 545 -174q240 -190 240 -506q0 -272 -232 -467l172 -156l-168 -116l-172 165q-156 -79 -357 -79h-5q-324 0 -545 163q-250 184 -250 498zM133 590l162 -105q-6 18 -10 54l-152 100v-49zM135 553q2 -18 6 -53l195 -127q-16 33 -29 69zM137 674l146 -96 q-2 8 -2 24v23l-138 90q-2 -14 -6 -41zM147 463q10 -39 21 -68l631 -405q45 -4 84 -4h4l-166 106q-229 45 -354 230zM150 750l135 -88q2 14 6 40l-129 86q-4 -12 -12 -38zM174 819l125 -82q6 20 12 37l-123 80q-4 -6 -14 -35zM186 356q20 -47 50 -86l387 -252 q47 -12 120 -22zM203 885l121 -80l16 33l-117 77q-8 -10 -20 -30zM242 944l118 -78q8 12 21 29l-117 78zM289 999l117 -73l22 22l-117 74zM291 205q96 -98 241 -158zM326 602q0 -205 149.5 -341t355.5 -136h25l33 4q135 16 194 33l-198 184l149 127l223 -215 q156 117 156 342q0 229 -151 356q-141 121 -375 121q-225 0 -385 -123q-176 -133 -176 -352zM342 1051l117 -76q10 10 14 12l12 8l-118 76q-8 -8 -25 -20zM348 176v2l2 -2h-2zM403 1096l117 -76q10 6 29 16l-119 78zM442 500q0 209 170 340q158 121 377 121q184 0 314 -80 q90 -119 90 -281q0 -199 -136 -315l-223 217l-180 -156l186 -174q-51 -6 -153 -22l-25 -5h-31q-184 0 -319 111q-70 109 -70 244zM471 1137l119 -78q10 4 31 14l-121 78q-14 -8 -29 -14zM549 1171l123 -81q18 8 35 10l-127 84zM635 1200l133 -88q20 4 37 4l-137 90 q-10 -2 -33 -6zM735 1221l154 -101h41l-162 105q-10 0 -33 -4zM780 84l154 -98l67 8l-139 88h-55q-12 0 -27 2zM852 1229l192 -125q20 -6 62 -17l-217 142h-37zM907 86l140 -86q18 2 55 10l-129 84q-18 -2 -66 -8zM950 344l111 -100l436 -281l19 12l-70 62l-485 315z M987 375l367 -240q14 14 30 27l-98 63l-33 -24l-143 137l-94 61zM997 1219l541 -349l-18 33l-476 309q-16 2 -47 7zM1018 102l121 -79l45 18l-113 72q-18 -6 -53 -11zM1112 125l105 -70q12 6 34 19l129 -121l52 -33l34 21l-311 200q-14 -6 -43 -16zM1227 1155l188 -123 q-80 74 -188 123zM1313 248l98 -62q8 4 14 11l13 12l-99 63l-12 -12q-6 -6 -14 -12zM1343 934q16 -20 33 -45l205 -131q-6 12 -10 28zM1364 301l98 -63l23 26l-101 66q-8 -8 -20 -29zM1403 360l102 -67q6 8 19 26l-107 70q-6 -14 -14 -29zM1423 799l11 -33l163 -107 q0 10 -4 29zM1432 428l112 -74l12 27l-114 76zM1448 700q2 -12 6 -34l145 -93v29zM1450 500l123 -80q2 10 8 29l-127 81q0 -10 -4 -30zM1458 580l133 -88l4 30l-137 90v-32zM1694 557h2l65 -65z" />
<glyph unicode="R" horiz-adv-x="1144" d="M125 -45h12l96 -96h265v506l342 -410h8l96 -96h346l-514 571h76q131 0 223 113q86 106 86 241q0 168 -98 263l-62 59q-59 90 -165 131q-70 25 -150 25h-561v-1307zM145 -25v1266h541q158 0 258 -98.5t100 -255.5q0 -129 -81 -232q-85 -108 -211 -108h-2h-109l514 -572 h-309l-465 557v-557h-236zM190 16h7l-7 4v-4zM190 43l41 -27h93l-134 88v-61zM190 127l148 -96v59l-148 98v-61zM190 215l148 -98v57l-148 96v-55zM190 299l148 -96v55l-148 94v-53zM190 383l148 -96v53l-148 96v-53zM190 467l148 -94v49l-148 96v-51zM190 553l148 -96v49 l-148 96v-49zM190 639l148 -96v45l-148 96v-45zM190 725l148 -96v24l45 -53l365 -240l-97 109l-313 201v2l-148 96v-43zM190 809l148 -96v45l-148 96v-45zM190 893l148 -96v43l-148 96v-43zM190 977l148 -96v43l-148 96v-43zM190 1065l148 -96v37l-148 96v-37zM190 1149 l148 -96v37l-148 96v-37zM250 1196l151 -98h52l-152 98h-51zM377 1196l151 -98h52l-150 98h-53zM381 713h272q70 0 112 46t42 118q0 178 -199 178h-227v-342zM408 670l155 -103l-20 23h53l-121 80h-67zM455 512l84 -100l389 -250l-99 106zM498 733v205h213q37 0 69 -8 q6 -25 6 -53q0 -61 -35.5 -102.5t-97.5 -41.5h-155zM508 1196l156 -102q121 -14 165 -107l170 -110v30l-442 289h-49zM535 670l120 -80h68l-121 80h-67zM602 334l90 -109l324 -209h41l-51 56zM641 1196l348 -227q-4 23 -10 37l-293 190h-45zM666 670l118 -76q20 2 43 12 l-110 72q-4 -2 -51 -8zM754 152l92 -111l39 -25h78zM758 696l106 -71q8 6 27 20l-107 72q-12 -12 -26 -21zM801 1178l121 -78q-49 53 -121 78zM811 745l109 -69l10 10q6 6 10 14l-113 72q-4 -8 -8 -14zM842 811l119 -78q8 16 12 27l-125 82zM844 899q2 0 2 -2zM848 926 q2 -10 2 -21v-18l137 -86q2 10 6 28z" />
<glyph unicode="S" d="M-4 295l14 -33q51 -158 166 -239l57 -56q133 -129 361 -129q215 0 336 88q145 104 145 314q0 152 -98 245l-57 56q-55 80 -154 133l-162 59q-66 20 -192 68q-2 6 0 12q10 57 12 64q12 26 47 49q53 35 123 35q61 0 104 -21q14 -23 29 -72l8 4l99 -98l235 98 q-45 113 -113 179l-55 53q-131 180 -383 180q-199 0 -325 -90q-147 -100 -148 -291q0 -166 150 -272l51 -49q53 -51 116 -84l216 -78q18 -8 57 -21l-2 2q45 -20 72 -36q6 -16 6 -29q0 -86 -59.5 -133t-147.5 -47q-72 0 -135 34q-8 23 -9 56v55l-96 96v17zM23 285l221 98v-35 q0 -92 86 -155q76 -57 174 -58q96 0 161.5 53.5t65.5 147.5q0 98 -194 180q-47 16 -140 49q-70 25 -139 51q-192 99 -192 285q0 182 141 279q123 84 311 84q319 0 430 -283l-207 -86q-53 182 -249 182q-76 0 -132 -37q-66 -43 -65 -114q0 -104 149 -160q51 -18 156 -55 l166 -60q192 -99 192 -307q0 -203 -137 -303q-121 -86 -329 -86q-322 0 -461 311zM80 258q14 -45 41 -84l260 -168q4 0 100 -8zM102 272l420 -272q41 0 78 4l-139 90q-168 20 -236 154l-71 45zM109 903q0 -23 4 -43l528 -344q43 -23 68 -45l206 -133v24q0 12 -2 23l-804 520 v-2zM111 944l163 -106q-14 25 -20 55l-135 90q-4 -14 -8 -39zM125 809q14 -39 47 -74l143 -92q82 -35 160 -61zM129 1016l123 -78q0 20 6 37l-113 74q-10 -16 -16 -33zM154 127q63 -74 163 -104zM166 1079l106 -69q6 8 19 26l-105 68q-8 -8 -20 -25zM180 305l29 -18 q-2 10 -6 28zM217 1130l102 -65q8 6 29 18l-104 68q-16 -10 -27 -21zM233 80v2l3 -2h-3zM285 1174l106 -70q14 6 37 10l-111 72q-10 -4 -32 -12zM367 1202l125 -82q31 0 59 -4l-141 94zM471 711l432 -281q-10 33 -24 59l-258 168zM473 1219l363 -236l30 12l-348 224h-45z M510 92l125 -82q18 6 57 17l-112 71q-35 -6 -70 -6zM610 109l111 -72q27 10 47 24l-106 70q-20 -14 -52 -22zM621 1208l243 -159q-23 37 -61 69l-88 58q-31 14 -94 32zM686 147l107 -69q20 12 34 26l-108 72l-14 -14q-8 -8 -19 -15zM735 199l111 -72q14 14 24 35l-114 74 q-4 -10 -21 -37zM754 985q4 -10 14 -31l20 9zM766 264l119 -76l14 37l-125 80q-2 -14 -8 -41zM766 395q4 -14 10 -51l131 -86q2 12 6 39z" />
<glyph unicode="T" d="M-14 1030h12l96 -96h285v-979h12l96 -96h263v1075h393v219l-96 96v13h-1061v-232zM6 1051v190h1020v-190h-393v-1076h-234v1076h-393zM49 1094h25l-25 16v-16zM49 1155l94 -61h60l-154 100v-39zM119 1196l155 -102h58l-158 102h-55zM250 1196l156 -102h36v-23l146 -94v35 l-285 184h-53zM377 1196l211 -135v31l-158 104h-53zM442 16h9l-9 7v-7zM442 49l50 -33h88l-138 90v-57zM442 135l146 -94v53l-146 94v-53zM442 219l146 -96v53l-146 94v-51zM442 305l146 -96v51l-146 94v-49zM442 389l146 -94v49l-146 94v-49zM442 473l146 -94v47l-146 96 v-49zM442 559l146 -94v45l-146 94v-45zM442 647l146 -96v43l-146 96v-43zM442 729l146 -94v43l-146 94v-43zM442 813l146 -94v43l-146 94v-43zM442 899l146 -94v41l-146 92v-39zM442 985l146 -94v37l-146 94v-37zM506 1196l158 -102h49l-156 102h-51zM641 1196l156 -102h45 l-156 102h-45zM772 1196l158 -102h39l-156 102h-41zM903 1196l78 -51v24l-41 27h-37z" />
<glyph unicode="U" horiz-adv-x="1462" d="M117 395q0 -223 176 -350l53 -53q27 -27 68 -55q156 -109 393 -109q240 0 401 100q199 125 201 359l4 866l-96 96v13h-275v-867q0 -109 -108 -178q-96 -61 -211 -61q-133 0 -225 55h-2q-13 37 -13 82v860l-96 96v13h-270v-867zM137 395v846h230v-846q0 -133 116 -202 q98 -57 240 -58q127 0 225 66q115 74 115 194v846h233l-4 -852q-1 -227 -194 -346q-160 -98 -393 -98q-229 0 -388 106q-180 123 -180 344zM182 387l162 -104q-12 31 -18 65l-144 94v-55zM182 473l140 -92v53l-140 90v-51zM182 559l140 -92v49l-140 92v-49zM182 645l140 -92 v47l-140 90v-45zM182 729l140 -90v43l-140 90v-43zM182 815l140 -90v43l-140 90v-43zM182 897l140 -90v43l-140 92v-45zM182 983l140 -92v43l-140 90v-41zM182 1069l140 -92v41l-140 90v-39zM182 1153l140 -90v39l-140 88v-37zM184 358q2 -20 11 -63l475 -305h80l-197 127 q-123 35 -180 116zM207 260q14 -47 51 -90l231 -152q61 -18 129 -24zM250 1196l72 -47v35l-21 12h-51zM369 78v2l2 -2h-2zM625 98l168 -104q23 2 69 8l-143 90q-49 0 -94 6zM766 94l131 -86q18 6 55 17l-123 79q-16 -4 -63 -10zM866 113l119 -76l45 18l-115 78 q-25 -12 -49 -20zM946 147l115 -73l12 6q8 6 25 16l-115 74q-12 -8 -37 -23zM1012 190l112 -73q10 8 29 26l-115 76q-6 -8 -12 -14zM1059 244l117 -76q8 10 22 31l-119 77q-8 -16 -20 -32zM1092 305l120 -80q6 12 17 37l-127 82q-2 -12 -10 -39zM1108 383l131 -86l6 37 l-137 90v-41zM1108 467l141 -90v39l-141 90v-39zM1108 551l141 -90v35l-141 92v-37zM1108 637l141 -90v33l-141 92v-35zM1108 721l141 -90v33l-141 92v-35zM1108 807l141 -92v33l-141 90v-31zM1108 893l141 -92v28l-141 93v-29zM1108 977l141 -90v26l-141 93v-29zM1108 1063 l141 -92v22l-141 94v-24zM1108 1149l143 -94v22l-143 94v-22zM1161 1196l90 -57v20l-55 37h-35z" />
<glyph unicode="V" horiz-adv-x="1249" d="M-55 1262l587 -1323h11l96 -97h154l587 1311l-98 96l6 13h-297l-346 -832l-303 723l-92 90l-6 19h-299zM-25 1241h256l390 -926l383 926h253l-575 -1282h-137zM41 1196l22 -51l222 -144l-23 56zM92 1083l27 -59l215 -139l-25 57zM119 1196l117 -76l-23 51l-39 25h-55z M143 969l29 -66l209 -135l-23 59zM197 848l26 -60l207 -135l-24 62zM250 731l29 -65l200 -129l-26 59zM301 614l31 -67l196 -127l-26 63zM354 496l31 -70l195 -127l-29 68zM406 381l32 -76l273 -174l18 39l-96 61l-12 -30l-25 53zM457 262l35 -76l188 -123l20 41zM510 145 l35 -77l104 -66h4l19 37zM561 27l12 -25h29zM645 258l96 -61l17 36l-99 64zM672 324l98 -62l16 35l-98 65zM700 393l99 -67l16 36l-100 66zM729 461l100 -66l17 35l-103 66zM756 524l102 -65l16 33l-104 69zM782 592l107 -68l12 33l-104 68zM811 662l107 -70l14 29l-109 71z M838 727l108 -70l15 29l-111 70zM866 795l111 -72l12 27l-110 71zM893 860l113 -72l12 27l-113 74zM922 928l112 -74l13 25l-115 73zM950 995l115 -73l10 22l-117 74zM977 1063l117 -76l10 21l-117 75zM1006 1130l118 -75l9 16l-119 78zM1032 1196l123 -78l6 17l-92 61h-37z M1163 1196l21 -12l4 12h-25z" />
<glyph unicode="W" horiz-adv-x="1873" d="M-61 1262l512 -1323h10l96 -97h168l272 742l250 -645h10l97 -97h159l482 1311l-99 98l5 11h-289l-260 -775l-242 656l-92 92l-6 16h-162l-281 -762l-231 664l-94 92l-4 17h-301zM-29 1241h254l314 -899l325 889h133l330 -885l299 895h246l-471 -1282h-139l-332 864 l-318 -864h-147zM33 1196l16 -39l205 -137l-16 53l-193 123h-12zM72 1098l22 -58l199 -129l-19 54zM115 987l22 -59l195 -127l-21 57zM117 1196l100 -66l-16 48l-29 18h-55zM158 877l22 -60l189 -125l-19 58zM203 760l22 -60l185 -120l-21 61zM246 649l22 -61l178 -117 l-18 59zM287 539l26 -66l172 -111l-22 62zM330 428l26 -70l168 -108l-22 65zM375 315l26 -69l217 -142l17 41zM416 205l28 -70l150 -98l16 43zM459 96l28 -76l31 -18h64l4 10zM547 236l98 -62l14 41l-96 64zM573 305l97 -65l14 41l-96 63zM598 375l96 -64l15 37l-99 62z M623 444l98 -65l12 37l-98 61zM649 512l96 -63l13 36l-96 64zM674 580l96 -64l12 35l-96 63zM698 647l97 -61l12 32l-96 62zM723 717l96 -64l12 33l-96 62zM750 786l96 -63l10 29l-96 65zM774 856l96 -63l11 26l-97 62zM799 922l98 -62l8 27l-96 61zM823 989l97 -61l10 22 l12 -37l166 -106l-16 41l-258 170zM850 1061l215 -141l-14 38l-193 125zM874 1128l150 -96l-12 35l-129 82zM915 1188l66 -43l-12 33l-15 10h-39zM969 846l18 -45l162 -109l-16 45zM1012 735l18 -47l160 -102l-16 45zM1055 625l16 -47l162 -105l-19 47zM1096 514l20 -53 l158 -103l-19 52zM1137 403l22 -55l156 -100l-19 55zM1182 295l22 -62l203 -131l12 35zM1225 182l20 -59l137 -88l15 35zM1268 70l22 -60l13 -8h67zM1335 236l99 -64l10 33l-96 63zM1360 305l98 -65l12 32l-100 64zM1382 375l101 -66l12 29l-102 68zM1405 444l104 -65l9 27 l-103 67zM1430 514l102 -68l12 27l-106 68zM1452 584l107 -70l10 25l-109 69zM1477 653l106 -69l8 22l-106 70zM1499 723l111 -70l6 21l-109 71zM1524 793l110 -72l8 20l-112 74zM1546 864l113 -73l8 16l-115 74zM1569 932l114 -74l7 19l-115 73zM1593 1001l117 -73l4 16 l-117 74zM1616 1071l119 -76l6 17l-119 75zM1640 1143l119 -78l6 14l-120 78zM1688 1196l98 -63l2 12l-78 51h-22z" />
<glyph unicode="X" horiz-adv-x="1144" d="M-57 -45h16l96 -96h301l279 444l231 -348h8l97 -96h319l-477 676l420 618l-98 98l6 11h-314l-252 -392l-184 283l-80 78l-18 31h-336l446 -627zM-20 -25l448 662l-430 604h283l282 -428l277 428h264l-412 -604l467 -662h-282l-326 490l-305 -490h-266zM61 16h7l-5 4z M74 35l24 -19h101l-97 62zM113 92l110 -72l27 46l-107 69zM115 1153l51 -76l295 -190l-47 71zM117 1196l245 -160l-43 66l-145 94h-57zM154 152l108 -70l25 43l-107 68zM193 211l106 -68l25 39l-105 68zM225 997l56 -77l278 -183l-49 76zM233 272l103 -69l24 39l-102 65z M248 1196l16 -10l-6 10h-10zM272 330l101 -68l24 39l-100 64zM311 389l101 -65l22 36l-98 64zM336 842l59 -82l291 -191l-47 68l2 6zM352 446l97 -61l22 35l-96 61zM393 506l94 -60l21 33l-92 60zM432 565l92 -59l21 31l-92 59zM446 686l35 -49l-8 -12l320 -207l-58 82z M565 524l51 -75l287 -189l-55 80zM565 735l97 -63l20 28l-98 64zM604 795l98 -64l19 27l-100 63zM643 856l100 -65l17 24l-101 66zM662 379l53 -80l297 -193l-58 82zM682 915l102 -65l15 22l-103 66zM719 973l102 -66l17 23l-103 67zM758 233l55 -86l203 -131h59l-14 21z M760 1034l102 -69l15 22l-105 68zM799 1094l104 -68l15 21l-107 67zM836 1153l108 -68l12 17l-108 69zM852 88l49 -72h62zM903 1196l82 -51l10 14l-53 37h-39z" />
<glyph unicode="Y" horiz-adv-x="1144" d="M-76 1262l510 -734v-573h12l97 -96h260v567l487 727l-98 98l6 11h-317l-293 -469l-232 360l-80 80l-18 29h-334zM-37 1241h283l332 -510l315 510h268l-475 -706v-560h-231v560zM45 1196l51 -70l297 -194l-45 69zM117 1196l180 -117l-41 64l-82 53h-57zM152 1044l53 -75 l284 -185l-47 72zM258 893l57 -82l351 -225l20 28l-92 60l-16 -25l-41 64zM367 737l53 -78l221 -143v33l6 8zM475 582l25 -33v-25l141 -92v43zM500 16h80l-80 54v-54zM500 98l125 -82h16v43l-141 93v-54zM500 182l141 -94v55l-141 93v-54zM500 266l141 -92v51l-141 92v-51z M500 352l141 -92v49l-141 92v-49zM500 438l141 -92v45l-141 92v-45zM610 705l95 -60l20 27l-94 61zM649 764l96 -62l19 27l-96 64zM688 827l98 -65l17 26l-98 64zM727 889l98 -68l17 25l-101 65zM762 946l102 -67l17 24l-105 68zM799 1006l104 -68l17 23l-107 69zM838 1069 l106 -70l14 21l-108 67zM874 1128l111 -71l12 20l-110 72zM913 1190l113 -74l10 19l-96 61h-22zM1034 1196l31 -20l10 16l-6 4h-35z" />
<glyph unicode="Z" horiz-adv-x="1097" d="M23 -45h12l96 -96h1018v223l-96 96v12h-500l592 771v192l-96 96v13h-981v-240h12l96 -96h447l-600 -779v-192zM43 -25v164l694 903h-649v199h940v-172l-690 -899h694v-195h-989zM88 23l8 -7h99l-107 70v-63zM88 109l143 -93h93l-213 140l-23 -31v-16zM123 172l239 -156 h89l-166 109h-37l12 16l-106 70zM133 1100l19 -13h63l-82 54v-41zM133 1186l150 -99h57l-166 109h-41v-10zM166 229l108 -69l29 37l-106 69zM211 287l106 -70l29 35l-108 70zM248 1196l170 -109h53l-168 109h-55zM254 340l106 -68l29 35l-108 70zM297 397l106 -69l29 34 l-108 70zM324 125l168 -109h88l-166 109h-90zM340 455l109 -70l24 33l-108 69zM377 1196l168 -109h51l-166 109h-53zM385 510l107 -68l24 31l-106 72zM430 569l105 -69l24 28l-108 70zM457 125l168 -109h82l-168 109h-82zM473 625l107 -68l22 29l-108 69zM506 1196l170 -109 h47l-166 109h-51zM516 682l107 -70l22 29l-108 70zM559 737l107 -67l22 26l-108 70zM586 125l170 -109h78l-168 109h-80zM604 795l105 -68l20 25l-106 69zM641 1196l166 -109h20l-6 -8l107 -69l14 20l-256 166h-45zM647 852l105 -70l20 25l-106 70zM690 909l107 -69l18 22 l-108 70zM715 125l170 -109h78l-170 109h-78zM733 965l109 -68l16 21l-106 71zM772 1196l199 -131l14 18l-174 113h-39zM776 1022l107 -70l18 21l-108 69zM846 125l141 -90v49l-65 41h-76zM903 1196l82 -51v22l-45 29h-37zM979 125l8 -4v4h-8z" />
<glyph unicode="[" horiz-adv-x="622" d="M147 -381h13l96 -96h397v198l-96 97v12h-76v1151h172v201l-96 96v12h-410v-1671zM168 -360v1630h369v-172h-172v-1288h172v-170h-369zM211 6v-61l108 -70v64zM211 27l108 -66v57l-108 72v-63zM211 -76v-61l108 -70v62zM211 113l108 -68v57l-108 70v-59zM211 -160v-63 l145 -94h101l-127 84h-11v4zM211 199l108 -70v55l-108 72v-57zM211 -242v-67l12 -8h107zM211 285l108 -70v53l-108 70v-53zM211 369l108 -72v55l-108 70v-53zM211 453l108 -70v51l-108 70v-51zM211 539l108 -70v49l-108 70v-49zM211 625l108 -72v47l-108 72v-47zM211 711 l108 -72v45l-108 68v-41zM211 795l108 -70v45l-108 70v-45zM211 879l108 -70v43l-108 70v-43zM211 963l108 -70v43l-108 70v-43zM211 1049l108 -70v39l-108 69v-38zM211 1135l108 -70v37l-108 69v-36zM211 1219l123 -78h53l-131 86h-45v-8zM332 1227l131 -86h29v14l-111 72 h-49zM360 -233l127 -84h5v59l-35 25h-97zM463 1227l29 -21v21h-29zM487 -233l5 -3v3h-5z" />
<glyph unicode="\" horiz-adv-x="751" d="M-37 1096l612 -1166h11l96 -96h201l-592 1153l-88 86l-10 23h-230zM-4 1075h184l578 -1124h-170zM78 1008l35 -66l129 -82l-33 66zM109 1030l67 -43l-22 43h-45zM143 885l35 -68l127 -82l-33 66zM213 752l35 -66l125 -80l-35 66zM281 625l36 -68l119 -78l-35 68zM346 502 l39 -74l119 -78l-39 72zM414 373l39 -78l116 -74l-39 76zM479 248l43 -82l113 -72l-43 80zM547 121l43 -82l69 -43h27l-29 53z" />
<glyph unicode="]" horiz-adv-x="622" d="M55 -170v-211h13l96 -96h395v1659l-96 96v12h-404v-213h13l96 -96h55v-1151h-168zM76 -190h168v1288h-164v172h362v-1630h-366v170zM121 -233v-17l102 -67h107l-127 84h-82zM121 -264v-53h80zM125 1141h6l-6 4v-4zM125 1190l78 -49h55l-133 86v-37zM203 1227l196 -127v35 l-143 92h-53zM229 -233l125 -84h45v38l-110 72v-26h-60zM289 -18l110 -72v61l-110 68v-57zM289 -41v-63l110 -72v63zM289 66l110 -70v55l-110 72v-57zM289 -125v-63l110 -70v63zM289 152l110 -74v57l-110 70v-53zM289 236l110 -72v53l-110 74v-55zM289 317l110 -71v55 l-110 72v-56zM289 403l110 -71v53l-110 72v-54zM289 489l110 -71v49l-110 72v-50zM289 575l110 -73v47l-110 72v-46zM289 659l110 -71v45l-110 72v-46zM289 745l110 -69v41l-110 74v-46zM289 829l110 -71v45l-110 71v-45zM289 915l110 -71v41l-110 71v-41zM289 1001l110 -73 v41l-110 71v-39zM289 1085l110 -71v37l-110 69v-35zM332 1227l67 -43v33l-16 10h-51z" />
<glyph unicode="^" horiz-adv-x="520" d="M-94 842h16l96 -97h226l92 119l20 -22h9l96 -97h241l-233 334l-82 80l-18 29h-232zM-57 862l204 305h211l213 -305h-209l-116 139l-111 -139h-192zM31 913l10 -8h70l-60 39zM68 973l65 -43l25 31l-68 40zM109 1030l69 -43l23 27l-72 45zM150 1090l73 -48l21 27l-76 47z M231 1122l191 -125l-45 66l-90 59h-56zM254 1061l70 -84l108 -72h55l-8 13z" />
<glyph unicode="_" horiz-adv-x="1134" d="M-45 -113v-180h12l96 -96h1215v168l-96 96v12h-1227zM-25 -133h1186v-139h-1186v139zM16 -178v-6l68 -43h106l-73 49h-101zM16 -199v-28h47zM143 -178l74 -49h102l-75 49h-101zM272 -178l78 -49h96l-77 49h-97zM401 -178l78 -49h96l-75 49h-99zM535 -178l75 -49h92 l-77 49h-90zM666 -178l75 -49h90l-75 49h-90zM795 -178l77 -49h89l-78 49h-88zM928 -178l78 -49h81l-75 49h-84zM1055 -178l63 -41v41h-63z" />
<glyph unicode="`" horiz-adv-x="520" d="M59 1133l279 -283l4 2l98 -96l119 82l-178 346l-88 86l-10 22l-156 -10zM84 1137l55 125l131 10l168 -326l-98 -69zM150 1176l182 -119l-29 57l-141 90zM164 1118l108 -108l95 -62l14 13l-12 24zM207 1223l57 -37l-20 41z" />
<glyph unicode="a" horiz-adv-x="1144" d="M33 387q0 -236 178 -369l59 -57q127 -123 332 -123q147 0 250 62l41 -41h231v843l-96 97v12h-248v-70q-121 90 -276 90q-199 0 -332 -122q-139 -125 -139 -322zM53 387q0 188 133 307q127 117 318 117q176 0 297 -111v91h207v-816h-203v86q-109 -106 -305 -106 q-197 0 -322 117.5t-125 314.5zM98 358l146 -94l-17 66l-129 84v-56zM102 326q2 -12 15 -64l405 -264q25 2 76 6l-135 88q-135 25 -199 129zM102 438l123 -80v31q0 10 2 21l-116 77q-4 -16 -9 -49zM119 514l112 -76q4 14 15 45l-111 72zM129 227q23 -57 57 -96l176 -115 q55 -16 117 -18zM150 578l108 -68q6 16 21 35l-107 67q-14 -16 -22 -34zM193 637l104 -70q4 4 15.5 14.5t15.5 14.5l-109 70l-14 -15q-6 -6 -12 -14zM248 688l106 -72q12 8 35 21l-108 72q-10 -8 -33 -21zM268 371q0 -111 78 -176.5t191 -65.5q117 0 187.5 64.5t70.5 181.5 t-70 183.5t-188 66.5q-115 0 -192 -70.5t-77 -183.5zM317 727l113 -74q14 4 51 11l-123 79q-18 -6 -41 -16zM385 68h2l8 -9q-4 3 -10 9zM385 268q0 109 73.5 174.5t180.5 65.5q59 0 111 -23q25 -47 24 -110q0 -106 -65.5 -165.5t-171.5 -59.5q-82 0 -138 28q-14 37 -14 90z M401 756l136 -86q45 0 77 -8l-157 102q-18 -2 -56 -8zM516 766l447 -291v41l-117 76v-4l-12 12l-246 160q-35 6 -72 6zM518 84l115 -72q31 10 51 21l-90 57q-29 -6 -57 -6h-19zM631 96l78 -51q10 6 39 29l-64 43q-25 -12 -53 -21zM711 129l57 -37l31 31l-51 35 q-18 -18 -37 -29zM770 178l47 -31l25 31l-47 31q-10 -16 -25 -31zM793 545q20 -31 30 -66l140 -90v43zM809 236l154 -101v47l-140 90zM834 307l129 -86v45l-125 80q0 -18 -4 -39zM834 436q2 -23 6 -49l123 -80v43zM846 637l117 -76v39l-117 78v-41zM846 723l117 -76v37 l-97 61h-20v-22zM848 39l37 -23h78l-115 74v-51zM848 125l115 -76v49l-115 76v-49zM942 469l4 -2l17 -16zM944 745l19 -12v12h-19z" />
<glyph unicode="b" horiz-adv-x="1144" d="M96 -45h13l96 -96h235l2 69q115 -90 265 -90q213 0 338.5 122t125.5 327q0 193 -124 317l-54 53q-127 178 -368 179q-100 0 -183 -33v383l-96 96v12h-250v-1339zM117 -25v1299h209v-569q110 110 296 110h3q188 0 309 -118.5t121 -307.5q0 -143 -68 -248 q-70 -111 -199 -157q-84 -29 -184 -29q-162 0 -276 106l-4 -86h-207zM160 16h37l-37 25v-25zM160 61l71 -45h52v29l-123 80v-64zM160 147l123 -81l2 59l-125 82v-60zM160 233l127 -81v20l39 -47l176 -115q49 -12 102 -12h8l-452 293v-58zM160 319l170 -110q-23 35 -35 76 l-135 88v-54zM160 403l127 -84q-6 27 -6 56l-121 82v-54zM160 485l123 -77q2 16 8 47l-131 84v-54zM160 573l137 -92q6 14 18 41l-155 101v-50zM160 659l121 -79v45l-121 80v-46zM160 745l121 -79v43l-121 79v-43zM160 829l121 -79v45l-121 79v-45zM160 911l121 -77v43 l-121 79v-45zM160 997l121 -79v43l-121 77v-41zM160 1085l121 -79v36l-121 80v-37zM160 1167l121 -77v36l-121 78v-37zM197 1231l84 -55v34l-33 21h-51zM283 580l49 -33l24 31l-51 32q-2 -2 -22 -30zM326 375q0 -113 70.5 -178.5t183.5 -65.5q111 0 182.5 65.5t71.5 176.5 q0 109 -61.5 182.5t-168.5 73.5q-123 0 -200.5 -66.5t-77.5 -187.5zM326 637l55 -37q10 8 33 23l-62 41zM377 688l72 -45q14 4 43 14l-84 56q-16 -10 -31 -25zM438 731l97 -63q31 6 61 6l-117 76q-14 -6 -41 -19zM442 272q0 115 74 177.5t191 62.5q37 0 79 -14 q27 -57 27 -125q0 -100 -66.5 -160.5t-166.5 -60.5q-63 0 -121 26q-17 33 -17 94zM506 94l149 -94q20 2 64 8l-121 80h-18q-37 0 -74 6zM522 762l148 -96q92 -23 147 -95l191 -125l-4 25q-2 12 -5 23l-421 274zM635 92l117 -74q27 6 51 19l-109 69l-28 -8q-14 -4 -31 -6z M641 770l338 -219q-14 29 -31 57l-233 154q-33 8 -74 8zM725 121l106 -70q18 8 39 25l-106 69q-20 -16 -39 -24zM788 164l105 -68q4 4 15.5 14.5t15.5 14.5l-107 70q-6 -8 -12 -15zM836 219l106 -69q12 16 21 32l-111 72q-6 -16 -16 -35zM852 506q6 -18 16 -53l142 -93 q2 8 2 15v28zM864 287l113 -74q8 14 12 35l-115 76q-4 -23 -10 -37zM874 408q2 -10 3 -19v-27l122 -79q2 12 7 39zM930 477v2l2 -2h-2z" />
<glyph unicode="c" horiz-adv-x="931" d="M45 395q0 -125 41 -202q33 -63 131 -158l51 -49q147 -141 402 -142q119 0 164 9q94 16 149 79v199l-96 96v13h-41q-23 0 -119 -41q-82 -35 -145 -35q-94 0 -168 39q-13 25 -13 78q0 115 91 178q80 55 198 55q35 0 117 -29.5t127 -29.5h35v200l-97 97v10q-145 74 -311 74 q-213 0 -356 -109q-160 -121 -160 -332zM66 395q0 201 151 316q137 104 344 104q160 0 291 -65v-179h-21q-43 0 -123.5 30t-119.5 30q-127 0 -209 -60q-94 -68 -94 -188q0 -117 94 -182q82 -57 203 -58q59 0 152 38t112 38h20v-180q-45 -53 -137 -70q-45 -8 -162 -8 q-221 0 -354 105q-147 115 -147 329zM109 373q0 -10 2 -23l168 -108q-23 33 -31 73l-139 88v-30zM111 434l133 -86q-4 20 -4 35q0 14 2 20l-123 78q0 -2 -8 -47zM117 319q2 -33 16 -67l377 -246q14 -2 27 -2h63zM125 510l119 -78q2 14 10 45l-113 72q-6 -12 -16 -39z M147 215q82 -168 314 -205zM156 575l110 -71q6 16 21 35l-109 71q-14 -16 -22 -35zM199 633l106 -70l29 29l-107 70q-10 -8 -28 -29zM254 682l106 -70q12 8 37 21l-108 72q-18 -8 -35 -23zM326 723l110 -74q14 4 45 15l-114 75zM346 168l29 -18q-8 6 -29 18zM408 752 l122 -80q33 4 58 4h4l-133 86q-16 -2 -51 -10zM485 109l160 -105q41 0 72 6l-135 88q-45 0 -97 11zM514 768l174 -113q57 -23 121 -39l-236 154h-34q-12 0 -25 -2zM625 100l127 -82q33 8 51 21l-115 72q-14 -4 -31 -7zM649 764l160 -102v38l-76 50l-41 8q-20 4 -43 6z M719 123l104 -68v54l-57 36q-16 -8 -47 -22zM797 160l26 -17v25q-8 -2 -14 -4z" />
<glyph unicode="d" horiz-adv-x="1144" d="M31 373q0 -221 166 -346l57 -56q8 -8 20 -18q131 -113 332 -113q133 0 232 58l39 -39h233v1364l-96 96v12h-246v-583q-131 90 -254 90q-211 0 -347 -127t-136 -338zM51 373q0 203 130 323.5t333 120.5q141 0 274 -108v602h205v-1336h-205v84q-106 -102 -284 -102 q-197 0 -322 109q-131 113 -131 307zM94 360l164 -106q-12 35 -18 65l-144 95q-2 -12 -2 -23v-31zM96 330q2 -35 13 -62l409 -268q27 2 76 8l-125 80q-129 14 -193 125zM100 442l138 -92q-2 10 -2 31q0 16 2 25l-129 81q-2 -14 -9 -45zM119 233q23 -55 55 -96l178 -114 q61 -20 127 -23zM119 516l121 -82q2 23 12 45l-117 76q-6 -12 -16 -39zM147 580l115 -74q4 10 21 37l-111 73q-12 -16 -25 -36zM190 639l111 -72l27 27h2l-111 74q-16 -12 -29 -29zM244 688l110 -72q12 8 35 21l-113 74q-18 -10 -32 -23zM281 381q0 -113 61 -182.5 t172 -69.5q276 0 277 252q0 111 -68 179.5t-178 68.5q-111 0 -189 -68q-49 -43 -65 -88q-10 -29 -10 -92zM311 731l119 -76q16 4 47 13l-123 80q-14 -6 -43 -17zM395 760l133 -86h17q29 0 57 -4l-156 100q-16 -2 -51 -10zM397 279q0 61 9 86h2q18 45 61 84q72 63 178 63 q55 0 98 -18q25 -49 25 -113q0 -117 -82 -186q-63 -45 -174 -45q-59 0 -100 20q-17 41 -17 109zM504 774l446 -289v41l-370 240q-31 8 -66 8h-10zM520 84l107 -68q31 6 51 19l-84 57q-6 -2 -74 -8zM627 98l75 -49q18 12 35 29l-57 41q-25 -12 -53 -21zM707 133l53 -35 q12 12 28 33l-43 29q-16 -14 -38 -27zM766 180l39 -26q8 10 24 32l-38 25zM791 547q20 -33 28 -66l131 -82v43zM805 240l145 -95v48l-131 83q0 -2 -14 -36zM829 309l121 -78v43l-116 76q0 -14 -5 -41zM831 16h5l-5 2v-2zM831 49l52 -33h67v9l-119 77v-53zM831 137l119 -78 v50l-119 77v-49zM831 438q0 -16 5 -47l114 -74v43zM831 647l119 -80v41l-119 78v-39zM831 731l119 -76v37l-119 78v-39zM831 817l119 -76v33l-119 78v-35zM831 901l119 -78v35l-119 78v-35zM831 987l119 -78v31l-119 78v-31zM831 1071l119 -78v31l-119 78v-31zM831 1157 l119 -78v27l-119 78v-27zM831 1241l119 -76v25l-119 78v-27zM926 1268l24 -19v19h-24z" />
<glyph unicode="e" d="M41 383q0 -211 135 -332q12 -10 37 -31l70 -67q117 -113 338 -113q313 0 497 219l-98 97q2 2 3 4t3 4l-68 37h132v37q0 242 -121 358l-66 63q-10 14 -33 43q-123 135 -356 136q-207 0 -340 -124t-133 -331zM61 383q0 199 127 316.5t326 117.5q221 0 340 -127t119 -350 v-23h-694q12 -88 83 -137q66 -47 158 -47q193 0 295 121l178 -96q-170 -201 -475 -201q-205 0 -328 109q-129 112 -129 317zM106 352l142 -92q-6 20 -15 64l-127 82v-54zM109 322q2 -12 14 -64l397 -258q39 0 80 4l-139 90q-131 20 -195 125zM109 434l122 -80v8h74l-188 121 q-4 -16 -8 -49zM125 510l113 -74q4 14 14 43l-113 72q-8 -18 -14 -41zM133 223q20 -51 60 -96l155 -102q66 -20 133 -23zM152 578l110 -72q8 20 19 37l-107 69q-14 -16 -22 -34zM193 637l104 -70q12 16 27 31l-105 68l-14 -15q-6 -6 -12 -14zM242 434l110 -72h80l-110 72 h-80zM246 688l102 -67q16 16 33 24l-102 66q-18 -10 -33 -23zM297 477h451q-59 160 -238 160q-72 0 -129 -45t-84 -115zM311 729l105 -65q29 10 47 14l-109 70zM373 434l112 -72h76l-112 72h-76zM395 760l119 -78q45 0 88 -12l-156 100q-16 -2 -51 -10zM397 201h318 q-82 -47 -195 -47q-68 0 -119 26q-4 13 -4 21zM504 774l401 -260q-8 29 -20 53l-312 205q-16 2 -30 2h-39zM506 434l110 -72h72l-113 72h-69zM514 88l123 -80q35 4 65 12l-110 72q-37 -4 -72 -4h-6zM522 498q45 22 90 22q53 0 99 -16q2 -2 2 -3t2 -3h-193zM629 96l104 -65 q23 6 53 18l-100 64q-18 -6 -57 -17zM637 434l111 -72h67l-110 72h-68zM668 754l172 -113q-63 78 -172 113zM717 125l96 -64l43 25l-94 61q-29 -16 -45 -22zM737 580q31 -37 47 -74l142 -90l-8 49zM768 434l111 -72h49v13l-129 84l6 -25h-37zM788 166l91 -62q12 8 34 29 l-94 60q-14 -14 -31 -27z" />
<glyph unicode="f" horiz-adv-x="565" d="M23 631h12l96 -96h16v-580h13l96 -96h244v676h202v204l-96 97v12h-102v127q12 45 76 45q43 0 155 -57v233l-96 96v11q-122 38 -183 38h-3q-125 0 -209 -61q-94 -68 -94 -188v-244h-127v-217zM43 651v176h127v265q0 113 88 174q78 55 195 55q66 0 165 -33v-201 q-98 49 -141 50q-76 0 -90 -56v-254h199v-176h-203v-676h-215v676h-125zM88 705l16 -11h70l-86 58v-47zM98 784l240 -155v43l-172 112h-68zM211 27l18 -11h95l-113 74v-63zM211 113l127 -82v59l-127 82v-59zM211 199l127 -82v57l-127 82v-57zM211 285l127 -82v53l-127 84 v-55zM211 367l127 -80v53l-127 82v-55zM211 453l127 -82v51l-127 82v-51zM211 539l127 -82v49l-127 82v-49zM211 625l127 -82v45l-127 82v-45zM215 795l152 -101h65l-217 144v-43zM215 877l129 -84v45l-129 84v-45zM215 963l129 -84v41l-129 86v-43zM215 1047l129 -82v39 l-129 83v-40zM219 1130l125 -79v36l-115 74q-6 -10 -10 -31zM250 1196l108 -70q8 12 17 21l-107 70q-4 -4 -9 -10.5t-9 -10.5zM307 1243l109 -72q18 8 37 11l-117 75q-20 -8 -29 -14zM358 784l136 -90h47v15l-117 75h-66zM391 1272l166 -107q6 -2 16 -6v27l-141 92 q-14 -2 -41 -6zM489 784l52 -34v34h-52zM530 1268l43 -27v14q-23 8 -43 13z" />
<glyph unicode="g" horiz-adv-x="1144" d="M12 -279q8 -6 35 -22l78 -78q224 -149 431 -149h3h8q209 0 344 53q207 80 207 262v915l-96 97v12h-244v-63q-113 88 -268 88q-201 0 -340 -134.5t-139 -332.5q0 -203 147 -322q10 -10 27 -22l45 -43q147 -141 371 -142q70 0 120 15q-18 -18 -61 -35q-86 -33 -174 -33 q-145 0 -297 88zM47 -276l164 126q148 -83 292 -83h3q94 0 180 32q113 43 113 138v110q-109 -90 -281 -90q-199 0 -328 104q-139 113 -139 308q0 190 133 318t326 128q176 0 289 -113v89h202v-902q0 -236 -348 -286q-84 -13 -188 -15h-12q-201 0 -406 136zM94 360l154 -100 q-6 20 -15 64l-137 90q-2 -12 -2 -25v-29zM96 332l4 -33q2 -16 6 -31l414 -268q41 0 78 6l-133 84q-131 25 -197 127zM102 440l127 -82v33q0 8 2 19l-118 77q-2 -6 -11 -47zM119 233q18 -53 55 -96l174 -110q61 -20 133 -25zM121 512l115 -76q2 16 14 45l-111 72 q-6 -14 -18 -41zM125 -274q27 -16 63 -33l-57 37zM139 -262l105 -68q80 -29 162 -35l-218 140zM152 578l110 -70q6 16 21 35l-107 67zM197 635l104 -70q4 4 15.5 14.5t15.5 14.5l-109 70l-14 -15q-6 -6 -12 -14zM201 -215l233 -152h64q18 0 34 2l-157 101q-82 18 -158 61z M250 686l108 -70q10 6 35 19l-110 72q-10 -8 -33 -21zM274 373q0 -117 76 -183q70 -61 189 -61t187.5 61.5t68.5 178.5t-70 186.5t-186 69.5q-113 0 -189 -71.5t-76 -180.5zM317 727l115 -76q25 8 49 13l-123 79zM346 215l12 -14q-4 4 -12 14zM391 270q0 104 73 171t177 67 q59 0 107 -21q27 -53 26 -118q0 -106 -63.5 -162.5t-171.5 -56.5q-80 0 -133 26q-15 28 -15 94zM399 756l140 -86q43 0 75 -8l-163 104q-16 -2 -52 -10zM418 -272l141 -90q29 2 84 10l-121 76q-12 -2 -24 -3q-12 0 -25 3q-27 0 -55 4zM510 770l448 -291v43l-116 74v-14 q-18 20 -25 32l-233 150q-35 6 -74 6zM520 84l113 -72q29 6 53 19l-90 57q-29 -4 -57 -4h-19zM551 -274l115 -76q23 4 71 16l-106 72q-41 -10 -80 -12zM580 567v2l61 -61zM633 94l80 -49q18 8 39 25l-66 43q-18 -6 -53 -19zM655 -258l107 -68q12 2 57 23l-102 67 q-33 -14 -62 -22zM692 -221zM715 129l59 -41l31 31l-55 35q-14 -14 -35 -25zM737 -225l105 -66q29 16 43 29l-105 67q-23 -18 -43 -30zM772 174l53 -35q2 2 8.5 9.5t8.5 9.5v-29l116 -76v49l-161 105q-8 -16 -25 -33zM786 549q16 -27 35 -68l137 -88v45zM799 -178l102 -70 q20 20 31 39l-107 68q-8 -18 -26 -37zM811 233l147 -94v47l-133 86q-6 -25 -14 -39zM834 -119l108 -69q4 14 14 45l-114 75q0 -29 -8 -51zM834 305l124 -80v43l-120 78q0 -20 -4 -41zM834 436q2 -16 6 -47l118 -78v43zM842 12v-51l116 -76v56zM842 43l116 -72v49l-116 74 v-51zM842 641l116 -76v39l-116 76v-39zM842 725l116 -76v39l-92 57h-24v-20zM942 745l16 -10v10h-16z" />
<glyph unicode="h" d="M96 -45h13l96 -96h246v503q0 61 55 106.5t119 45.5q18 0 39 -4q2 -11 2 -31v-524h12l96 -96h246v532q0 143 -86 227l-62 60q-10 18 -24 35l-33 30q-100 84 -256 84q-57 0 -113 -16v375l-96 96v12h-254v-1339zM117 -25v1299h213v-549q94 82 229 82q154 0 249 -82t95 -231 v-519h-217v504q0 152 -164 152q-68 0 -128 -49.5t-60 -116.5v-490h-217zM160 16h37l-37 25v-25zM160 61l71 -45h58v23l-129 86v-64zM160 147l129 -81v57l-129 84v-60zM160 233l129 -83v55l-129 84v-56zM160 319l129 -83v53l-129 84v-54zM160 403l129 -86v56l-129 84v-54z M160 485l129 -82v52l-129 84v-54zM160 573l131 -84l4 21q2 10 6 20l-141 93v-50zM160 659l155 -102q0 2 23 31l-47 30l-6 -4v9l-125 82v-46zM160 745l125 -81v43l-125 81v-43zM160 829l125 -81v45l-125 81v-45zM160 911l125 -82v45l-125 82v-45zM160 997l125 -82v43l-125 80 v-41zM160 1085l125 -81v36l-125 82v-37zM160 1167l125 -80v37l-125 80v-37zM195 1231l90 -60v35l-37 25h-53zM311 645l51 -35q14 14 31 25l-55 37zM367 696l63 -41q16 8 45 15l-80 49q-10 -8 -28 -23zM430 737l94 -61q45 0 86 -12l-139 88q-10 -2 -20 -7zM522 762l332 -215 q-2 23 -10 49l-260 166q-8 2 -25 2q-27 0 -37 -2zM678 748l125 -82q-45 57 -125 82zM688 612q27 -39 33 -63l137 -90v43zM729 31l23 -15h82l-105 68v-53zM729 119l129 -86v51l-129 84v-49zM729 205l129 -86v49l-129 84v-47zM729 289l129 -84v45l-129 86v-47zM729 375 l129 -84v41l-129 86v-43zM729 461l129 -86v45l-129 84v-43z" />
<glyph unicode="i" horiz-adv-x="520" d="M80 1122l176 -264l4 6l53 -53h-190v-856h12l96 -96h244v843l-96 95v4l141 215l-166 252l-75 75l-27 41zM106 1120l146 223l147 -225l-145 -221zM143 -25v816h215v-816h-215zM160 1120l41 -63l73 -49l19 28l-133 86v-2zM180 1155l135 -86l17 25l-135 88zM188 16h9l-9 7v-7 zM188 45l43 -29h82v9l-125 79v-59zM188 131l125 -84v59l-125 82v-57zM188 215l125 -82v57l-125 80v-55zM188 301l125 -82v53l-125 82v-53zM188 385l125 -84v53l-125 84v-53zM188 469l125 -82v51l-125 82v-51zM188 555l125 -82v47l-125 84v-49zM188 641l125 -84v47l-125 82 v-45zM188 727l125 -84v45l-90 57h-35v-18zM221 1214l109 -71l-39 61l-55 35zM252 979l2 -4v2zM287 745l26 -16v16h-26z" />
<glyph unicode="j" horiz-adv-x="489" d="M-334 -264l27 -15l86 -86l45 -24q162 -88 305 -88q129 0 221 55l-2 2q119 63 119 189v921l-96 96v13h-13l144 217l-166 254l-76 76l-27 40l-172 -266l175 -266l6 8l63 -63h-182v-879q0 -35 -26.5 -62.5t-61.5 -27.5q-51 0 -96 16q-31 12 -101 56zM-299 -260l139 135 q57 -37 92 -49q47 -16 103 -16q45 0 76.5 32.5t31.5 77.5v858h207v-907q0 -115 -108 -178q-92 -53 -215 -53q-139 0 -299 86zM-225 -250q78 -41 151 -55l-125 82zM-190 -217l143 -92q39 -6 74 -6h39l-146 98q-31 10 -72 37zM-39 -229l125 -84q47 6 80 20l-98 62 q-8 -2 -17 -2h-16q-45 0 -74 4zM84 -227l96 -62q20 8 58 31l-99 65q-27 -23 -55 -34zM88 1120l145 226l148 -228l-145 -223zM139 1120l31 -45l92 -59l17 28l-134 86zM150 -182l100 -66q20 18 37 43l-109 70q-8 -23 -28 -47zM166 1163l135 -86l16 25l-133 88zM182 -119 l111 -71q12 27 12 55l-117 76v-21q0 -20 -6 -39zM188 23v-62l117 -78v66zM188 45l117 -76v60l-117 75v-59zM188 131l117 -80v62l-117 75v-57zM188 215l117 -76v56l-117 75v-55zM188 301l117 -76v54l-117 75v-53zM188 383l117 -76v53l-117 76v-53zM188 469l117 -78v53 l-117 76v-51zM188 555l117 -78v49l-117 76v-47zM188 641l117 -78v47l-117 76v-45zM188 727l117 -78v43l-61 41h-56v-6zM207 1225l90 -62l-37 62l-37 22zM219 999l17 -22l4 8z" />
<glyph unicode="k" d="M98 -45h13l96 -96h244v325l362 -325h391l-96 96h10l-442 358l485 379l-98 99l12 10h-389l-233 -197v582l-97 96v12h-258v-1339zM119 -25v1299h217v-793l356 299h324l-479 -374l526 -431h-346l-383 344v-344h-215zM164 16h33l-33 23v-23zM164 59l67 -43h58v23l-125 82v-62 zM164 147l125 -81v57l-125 82v-58zM164 231l125 -81v55l-125 82v-56zM164 317l125 -81v53l-125 82v-54zM164 399l125 -82v56l-125 80v-54zM164 485l125 -82v17l4 -4v35l-129 84v-50zM164 571l129 -84v48l-129 86v-50zM164 655l129 -84v45l-129 86v-47zM164 741l129 -84v43 l-129 86v-45zM164 827l129 -84v43l-129 84v-43zM164 909l129 -84v43l-129 84v-43zM164 997l129 -84v41l-129 82v-39zM164 1079l129 -82v37l-129 86v-41zM164 1165l129 -82v35l-129 86v-39zM197 1231l96 -62v31l-45 31h-51zM309 401l43 -39l533 -346h55l-109 90l-495 318z M360 444l291 -190l-184 152l12 10l-86 55zM418 492l86 -58l33 27l-88 57zM475 539l88 -58l31 25l-90 59zM477 250l211 -191l64 -43h82zM532 588l91 -60l32 25l-94 59zM588 635l92 -62l33 25l-97 61zM645 684l96 -63l29 22l-98 64zM702 731l99 -63l26 20l-71 47h-49zM827 735 l33 -20l27 18l-2 2h-58z" />
<glyph unicode="l" horiz-adv-x="520" d="M129 -45h12l97 -96h237v1327l-96 96v12h-250v-1339zM150 -25v1299h208v-1299h-208zM193 16h4l-4 2v-2zM193 41l38 -25h84v7l-122 79v-61zM193 127l122 -80v59l-122 80v-59zM193 211l122 -78v57l-122 78v-57zM193 297l122 -78v53l-122 78v-53zM193 379l122 -78v53l-122 78 v-53zM193 465l122 -78v51l-122 80v-53zM193 551l122 -78v47l-122 80v-49zM193 635l122 -78v47l-122 80v-49zM193 721l122 -78v43l-122 80v-45zM193 807l122 -78v43l-122 80v-45zM193 889l122 -76v43l-122 80v-47zM193 977l122 -80v41l-122 80v-41zM193 1061l122 -78v39 l-122 80v-41zM193 1147l122 -78v35l-122 80v-37zM195 1231l120 -78v35l-65 43h-55z" />
<glyph unicode="m" horiz-adv-x="1556" d="M106 -45h13l96 -96h238v553q0 39 61 71q53 31 96 31q8 0 25 -4v-555h12l96 -96h248v528q0 47 62 88q53 37 104 39v-559h12l97 -96h252v641q-12 70 -64 121l-6 6v-2q2 0 2 -2l-55 55q-31 51 -90 92v-2q-84 57 -197 57q-180 0 -289 -114q-95 114 -271 114h-3 q-94 0 -170 -49l-21 23v12h-248v-856zM127 -25v816h207v-70q88 84 211 84q190 0 274 -127q92 127 289 127q102 0 184 -53q90 -57 109 -152v-625h-223v574q0 37 -43 61q-35 20 -76 21q-57 0 -121 -43t-64 -99v-514h-219v535q0 59 -43 90t-104 31q-47 0 -107 -35 q-66 -37 -65 -82v-539h-209zM172 16h23l-23 17v-17zM172 53l57 -37h64v21l-121 80v-64zM172 139l121 -78v60l-121 78v-60zM172 225l121 -78v56l-121 78v-56zM172 311l121 -80v56l-121 78v-54zM172 393l121 -78v54l-121 80v-56zM172 479l121 -78v52l-121 77v-51zM172 565 l121 -78v27q0 14 2 21l-123 79v-49zM172 649l133 -86q8 14 25 31l-29 16l-12 -16v27l-117 75v-47zM172 735l117 -76v46l-66 40h-51v-10zM322 639l32 -21l17 13q8 6 18 10l-43 27q-12 -12 -24 -29zM369 692l55 -35q16 4 47 15l-72 47q-16 -12 -30 -27zM430 735l94 -61 q127 -10 164 -107l143 -90v12q0 18 3 29l-361 234q-18 -2 -43 -17zM524 760l324 -209q6 8 18 29l-37 26q-4 -4 -6 -10t-6 -10q-6 12 -20 39l-207 135q-10 2 -23 2h-22q-14 0 -21 -2zM700 16h9l-9 7v-7zM700 51l52 -35h79v4l-131 84v-53zM700 135l131 -84v53l-131 84v-53z M700 221l131 -84v49l-131 84v-49zM700 307l131 -84v45l-131 86v-47zM700 393l131 -86v45l-131 84v-43zM700 477l131 -84v43l-131 86v-45zM848 635l43 -29q8 8 29 23l-54 33q-6 -8 -18 -27zM893 690l65 -41l17 8q8 4 18 7l-73 49q-8 -4 -15 -11zM961 735l90 -59h8 q27 0 57 -10l-125 82zM1053 758l303 -197v33l-256 166h-25q-12 0 -22 -2zM1200 612q18 -25 21 -47l135 -88v35zM1202 745l119 -77q-45 53 -119 77zM1223 53l55 -37h68l-123 80v-43zM1223 137l133 -86v45l-133 86v-45zM1223 223l133 -88v43l-133 86v-41zM1223 307l133 -88v43 l-133 86v-41zM1223 393l133 -88v39l-133 86v-37zM1223 479l133 -88v37l-133 86v-35z" />
<glyph unicode="n" d="M98 -45h13l96 -96h244v540q0 41 71 78q63 35 109 35q10 0 31 -4v-553h12l96 -96h250v565q0 111 -78 188l-55 56q-27 43 -78 82q-99 75 -236 75h-4q-106 0 -194 -53l-25 27v12h-252v-856zM119 -25v816h211v-76q100 90 239 90q133 0 228 -72q106 -80 106 -207v-551h-221 v555q0 37 -56.5 68t-97.5 31q-47 0 -120.5 -40t-73.5 -87v-527h-215zM164 16h33l-33 23v-23zM164 59l67 -43h58v23l-125 82v-62zM164 147l125 -84v60l-125 82v-58zM164 231l125 -81v55l-125 82v-56zM164 317l125 -81v53l-125 82v-54zM164 399l125 -82v56l-125 80v-54z M164 485l125 -82v52l-125 80v-50zM164 571l125 -82v13q0 16 6 33l-131 86v-50zM164 655l145 -94q4 8 13 17l14 14l-35 22l-16 -18v29l-121 77v-47zM164 741l121 -79v45l-62 38h-59v-4zM322 639l40 -27q16 14 35 23l-51 31q-8 -6 -24 -27zM371 690l63 -39q14 4 43 15l-74 49 q-16 -8 -32 -25zM434 733l94 -61q59 0 124 -37t73 -90l133 -86v43l-381 248q-14 -6 -43 -17zM526 760l332 -217l-4 24q-2 12 -6 25l-260 170h-41q-10 0 -21 -2zM686 741l121 -79q-47 53 -121 79zM727 33l25 -17h82l-107 70v-53zM727 119l131 -86v51l-131 88v-53zM727 207 l131 -88v49l-131 86v-47zM727 289l131 -84v45l-131 86v-47zM727 375l131 -84v43l-131 86v-45zM727 461l131 -86v45l-131 86v-45z" />
<glyph unicode="o" horiz-adv-x="1144" d="M43 377q0 -211 160 -336q10 -10 16 -14l49 -47q14 -12 41 -37q139 -109 353 -109q207 0 350 111q155 120 155 324q0 189 -116 306l-19 19q2 -2 2 -3t2 -3l-32 33q-29 45 -91 96q-143 119 -364 119q-213 0 -369 -129h2q-139 -127 -139 -330zM63 377q0 205 144 325 q133 113 342 113q213 0 352 -110q150 -121 150 -330q0 -199 -150 -316q-138 -108 -338 -108h-4q-207 0 -346 106q-150 117 -150 320zM109 352l151 -98q-16 37 -22 68l-129 81v-51zM111 319l16 -65l403 -258q10 -2 29 -2h27q14 0 28 2l-168 108q-94 27 -155 101zM111 434 l120 -80v56l-110 71q-8 -27 -10 -47zM129 508l107 -70q2 20 12 43l-103 68zM141 219q35 -78 92 -117l91 -61q70 -35 159 -43zM158 573l102 -65q6 16 21 35l-101 65q-14 -16 -22 -35zM201 633l100 -68l29 29l-103 65q-14 -12 -26 -26zM254 680l104 -66q12 8 35 21l-104 70 q-20 -10 -35 -25zM274 385q0 -119 82 -185.5t203 -66.5q117 0 199 62q92 68 92 180q0 119 -81 186.5t-202 67.5q-119 0 -200 -62q-93 -67 -93 -182zM324 723l110 -72q20 8 45 13l-114 75zM391 283q0 109 88 172q78 57 191 57q84 0 135 -29q25 -47 24 -108q0 -100 -84 -164 q-76 -57 -186 -57q-92 0 -151 32q-17 40 -17 97zM406 752l124 -80q10 2 19 2h18q20 0 31 -2l-139 92q-25 -2 -53 -12zM510 770l178 -115q84 -29 137 -90l176 -112q-4 25 -12 49l-414 268h-65zM512 90l139 -90q33 6 62 12l-119 78q-10 -2 -19 -2h-40q-12 0 -23 2zM631 94 l112 -71q23 8 50 22l-103 66l-28 -9q-14 -4 -31 -8zM655 762l306 -199q-20 41 -54 74l-149 96q-53 20 -103 29zM721 123l98 -64q25 10 41 25l-98 61q-20 -14 -41 -22zM788 164l95 -62q4 4 15 14.5t15 14.5l-94 62q-4 -4 -15 -14.5t-16 -14.5zM840 215l94 -61q12 14 22 32 l-94 64q-8 -18 -22 -35zM870 494q6 -18 17 -56l121 -76v25q0 8 -2 19zM877 279l96 -62q4 10 14 33l-100 65q-4 -23 -10 -36zM893 352l104 -65l7 37l-111 73v-45z" />
<glyph unicode="p" horiz-adv-x="1144" d="M96 -412h13l96 -96h246v426q106 -84 276 -84q193 0 321 122t128 316q0 184 -111 301l-14 13h2l-49 47q-53 86 -162 141q-74 37 -166 51h-4q-2 0 -8 2h-9l-4 2h-26q-139 0 -242 -65l-33 35v12h-254v-1223zM117 -391v1182h213v-99q106 117 295 117h24q20 -4 23 -4h2 q176 -29 280.5 -141.5t104.5 -288.5q0 -188 -123 -306t-311 -118q-184 0 -291 100v-442h-217zM160 -20l129 -84v63l-129 82v-61zM160 -41v-63l129 -84v63zM160 61l129 -81v59l-129 84v-62zM160 -123v-65l129 -86v67zM160 147l129 -84v58l-129 86v-60zM160 -207v-67l110 -72 h19v55zM160 233l129 -83v28q25 -35 43 -55l182 -119q39 -8 100 -8l-454 293v-56zM160 -289v-57h88zM160 319l174 -112q-27 43 -33 74l-141 92v-54zM160 401l133 -84q-4 20 -4 48v6l-129 86v-56zM160 487l131 -86q2 14 8 45l-139 93v-52zM160 573l149 -98q6 12 17 39 l-166 109v-50zM160 659l125 -81v45l-125 82v-46zM160 743l125 -81v45l-62 38h-63v-2zM293 571l51 -32q4 8 10 14l15 14l-54 37q-8 -10 -22 -33zM334 365q0 -111 70.5 -175.5t183.5 -64.5q8 0 21.5 2t21.5 2q199 33 198 252q0 237 -223 237h-2h-3q-110 0 -189 -71 q-53 -47 -68 -88q-10 -29 -10 -94zM336 629l59 -37q10 8 31 22l-66 43q-12 -12 -24 -28zM385 684l76 -51q14 6 43 16l-88 58q-2 -2 -31 -23zM446 727l103 -68q14 2 26 3h39l-127 81zM451 262q0 63 8 88h2q16 41 63 84q76 68 183 68q39 0 81 -15q20 -45 21 -106 q0 -205 -180 -231h-17q-8 0 -14 -3v-2h-10q-72 0 -123 27q-14 37 -14 90zM516 88l143 -92q23 2 68 8l-123 78h-16q-39 0 -72 6zM530 756l164 -107q74 -23 119 -76l197 -129q-2 23 -11 50l-413 270q-18 -2 -56 -8zM645 88l113 -76q14 4 26 11l25 12l-104 67l-29 -8 q-14 -4 -31 -6zM655 764l322 -213q-18 41 -45 70l-191 124q-16 4 -34 9l-37 8q-8 0 -15 2zM731 115l105 -68q23 12 38 27l-100 67q-23 -18 -43 -26zM795 160l104 -66l29 29l-107 67q-12 -16 -26 -30zM838 217l108 -70q14 18 21 35l-113 72q-6 -12 -16 -37zM850 508 q6 -18 16 -55l150 -95v17q0 18 -2 26zM862 287l119 -76q4 8 14 35l-125 80zM872 367l134 -86q2 12 6 38l-140 91v-43zM924 479v2l2 -2h-2zM1036 600q4 -4 8 -6z" />
<glyph unicode="q" horiz-adv-x="1144" d="M39 365q0 -233 166 -345l55 -53q8 -8 27 -24q129 -104 336 -105q70 0 145 15v-267h12l97 -96h241v1206l-96 97v12h-252v-62q-117 92 -278 93q-201 0 -327 -135.5t-126 -335.5zM59 365q0 193 120 321.5t313 128.5q184 0 299 -115v84h210v-1177h-213v422q-90 -74 -268 -74 q-205 0 -327 100q-133 109 -134 310zM102 354l150 -94q-4 20 -14 62l-134 86q-2 -10 -2 -23v-31zM104 326q2 -20 11 -64l407 -264q41 0 82 4l-149 94q-125 25 -181 119zM109 436l127 -84v31q0 10 2 20l-119 80q-4 -10 -6 -22zM125 229q18 -53 49 -92l186 -119 q57 -16 129 -18zM125 510l119 -78q2 14 10 45l-113 72q-6 -12 -16 -39zM156 575l108 -71q8 18 23 35l-111 71q-14 -18 -20 -35zM195 635l110 -72q12 16 29 29l-113 72l-14 -15q-6 -6 -12 -14zM248 688l112 -76q12 8 37 21l-118 78q-2 -2 -31 -23zM281 365q0 -229 251 -230 q244 0 244 234q0 111 -63.5 180t-173.5 69h-3q-113 0 -184 -69q-49 -47 -63 -88q-8 -23 -8 -96zM287 43v2l2 -2h-2zM313 729l125 -80q14 4 51 10l-135 89q-14 -6 -41 -19zM395 760l152 -98q49 0 86 -15l-184 121q-18 -2 -54 -8zM397 262q0 70 6 90h3q16 43 59 84 q68 66 176 66q47 0 90 -17q25 -53 25 -116q0 -213 -224 -213q-76 0 -124 20q-11 31 -11 86zM508 770l450 -291v43l-124 80v-27q-20 31 -41 54l-205 133q-33 8 -80 8zM510 90l127 -82q16 4 31 8l28 9l-106 69q-29 -4 -58 -4h-22zM625 98l96 -61q25 12 41 29l-80 51 q-27 -10 -57 -19zM709 131l71 -47q2 6 11 16l14 21l-60 39q-18 -18 -36 -29zM748 573q31 -37 47 -73l163 -107v45zM764 180l55 -35l12 19v-27l127 -82v49l-170 111q-8 -18 -24 -35zM801 242l157 -103v47l-145 97q-4 -14 -12 -41zM811 451q2 -4 8 -52l139 -88v43zM817 315 l141 -90v43l-137 90q0 -14 -4 -43zM831 20v-51l127 -82v54zM831 51l127 -80v49l-127 82v-51zM831 -61v-56l127 -82v56zM831 -143v-58l127 -80v54zM831 -227v-60l99 -63h28v41zM831 -309v-41h62zM834 645l124 -80v39l-124 80v-39zM834 731l124 -82v37l-81 53h-43v-8zM952 739 l6 -4v4h-6z" />
<glyph unicode="r" horiz-adv-x="731" d="M111 -45h12l96 -96h242v495q0 55 53 106.5t109 51.5q23 0 102 -61l149 182l-100 98l6 6q-131 94 -223 94q-109 0 -182 -59l-21 21v12h-243v-850zM131 -25v809h203v-77q82 104 223 104q80 0 195 -80l-129 -158q-72 56 -103 56q-61 0 -118.5 -55.5t-57.5 -116.5v-482h-213z M174 16h21l-21 15v-15zM174 53l57 -37h70v17l-127 80v-60zM174 139l127 -84v60l-127 82v-58zM174 223l127 -82v58l-127 82v-58zM174 309l127 -82v54l-127 81v-53zM174 393l127 -82v54l-127 81v-53zM174 479l127 -82v52l-127 79v-49zM174 563l129 -84q2 14 10 43l-22 15 l-2 -5v5l-115 77v-51zM174 649l115 -76v48l-115 75v-47zM174 735l115 -76v46l-56 34h-59v-4zM305 563l23 -14q10 18 22 33l-28 18q-8 -16 -17 -37zM336 629l37 -23q8 8 28 23l-47 30zM377 688l57 -39q25 14 43 17l-74 49q-14 -12 -26 -27zM432 735l98 -63q39 -4 86 -37 l13 16l-158 103q-20 -6 -39 -19zM518 764l133 -86l23 29l-92 57q-8 2 -25 2h-20q-8 0 -19 -2z" />
<glyph unicode="s" horiz-adv-x="835" d="M-18 143l45 -51v2q31 -37 71 -65l54 -54q135 -135 356 -135q354 0 354 281q0 86 -61 145l-64 62q-27 43 -67 73l213 117q-41 53 -70 82l-45 45q-154 193 -350 193q-152 0 -252 -62q-121 -74 -121 -217q0 -117 113 -192l59 -60q37 -37 98 -67l193 -66q0 -2 2 -2 q-23 -29 -109 -29q-49 0 -92 25v2l-84 82q-6 10 -16 31zM14 137l189 115q70 -129 198 -129q137 0 138 76q0 45 -129 92q-16 4 -201 67q-143 70 -143 201t116 201q96 57 236 57q201 0 342 -192l-187 -101q-43 127 -194 127q-37 0 -70 -23.5t-33 -60.5q0 -35 123 -73 q168 -55 226 -88q121 -72 120 -183q0 -266 -339 -266q-231 0 -375 162zM82 127q104 -109 264 -123l-227 146zM109 559q0 -23 6 -43l264 -170l78 -27q117 -39 125 -104l108 -72q4 10 10 43l-591 383v-10zM113 602l589 -381v2q0 25 -10 51l-217 144q-242 76 -242 149v8 l-104 68zM135 473q27 -41 90 -76l49 -16zM137 162l248 -162h21q35 0 67 4l-123 78q-102 14 -160 104l-6 4zM145 670l95 -64q6 20 20 35l-88 57q-10 -8 -27 -28zM201 719l82 -55q12 8 36 20l-83 53q-12 -6 -35 -18zM276 752l91 -58h12q33 0 67 -6l-120 78q-16 -4 -50 -14z M377 772l254 -166l37 19l-226 147q-8 2 -24 2h-21q-10 0 -20 -2zM399 78l109 -70q20 2 61 15l-94 61q-35 -6 -74 -6h-2zM418 510l4 4q31 20 59 21q33 0 68 -11l12 -30l8 4l88 -88q-8 4 -20 14q-61 35 -219 86zM506 94l90 -59q25 12 41 28l-88 56q-16 -16 -43 -25zM535 756 l131 -86q-57 57 -131 86zM565 137l90 -57q14 14 25 37l-98 63q-2 -18 -17 -43zM592 592l4 -4l2 2z" />
<glyph unicode="t" horiz-adv-x="520" d="M-10 649h12l96 -96h25v-598h12l96 -96h240v694h152v207l-97 96v12h-55v129l-96 97v12h-252v-238h-133v-219zM10 670v178h133v237h211v-237h152v-178h-152v-695h-211v695h-133zM53 727l23 -12h69l-92 57v-45zM68 803l243 -158v45l-174 113h-69zM186 16h9l-9 7v-7zM186 45 l45 -29h80v9l-125 81v-61zM186 131l125 -82v60l-125 79v-57zM186 215l125 -80v55l-125 82v-57zM186 301l125 -82v55l-125 80v-53zM186 385l125 -82v55l-125 78v-51zM186 471l125 -82v51l-125 82v-51zM186 557l125 -82v49l-125 80v-47zM186 641l125 -82v47l-125 80v-45z M186 813l152 -98h70l-222 141v-43zM186 897l125 -82v41l-125 82v-41zM186 981l125 -82v41l-125 82v-41zM223 1042l88 -59v41l-28 18h-60zM328 803l135 -88v43l-70 45h-65zM461 803l2 -2v2h-2z" />
<glyph unicode="u" d="M96 248q0 -152 125 -238l60 -57q37 -37 67 -51h2q117 -68 271 -68q168 0 280 78q127 88 127 250v540l-96 97v12h-262v-541q0 -51 -42 -82.5t-98 -37.5h-14q-6 0 -10 -3v-2q-29 0 -49 7q-4 14 -4 28v522l-97 97v12h-260v-563zM117 248v543h219v-478q0 -82 46 -135t126 -53 q20 4 24 4q61 6 109.5 45t48.5 96v521h221v-527q0 -154 -125 -239q-106 -74 -268 -74q-158 0 -268 67q-133 83 -133 230zM160 233l370 -237q35 0 72 6l-127 82q-98 16 -149 96l-166 111v-58zM160 319l147 -98q-6 20 -14 64l-133 88v-54zM160 401l133 -86v54l-133 88v-56z M160 487l133 -86v52l-133 86v-52zM160 573l133 -86v48l-133 88v-50zM160 659l133 -88v45l-133 89v-46zM160 743l133 -86v43l-70 45h-63v-2zM164 205q10 -47 35 -84l166 -105q59 -16 122 -20zM287 745l6 -2v2h-6zM311 27v2l2 -2h-2zM522 82l115 -74l55 19l-104 67 q-18 -6 -53 -10h-3q-6 0 -10 -2zM616 106l105 -67q25 10 41 24l-103 68q-18 -16 -43 -25zM680 150l106 -68l17 16q6 6 12 15l-106 69q-8 -14 -29 -32zM721 209l110 -72q12 14 19 37l-117 76q-2 -18 -12 -41zM733 285l127 -82l6 43l-133 86v-47zM733 369l133 -84v43l-133 86 v-45zM733 457l133 -88v45l-133 86v-43zM733 539l133 -86v43l-133 88v-45zM733 625l133 -86v41l-133 86v-41zM733 711l133 -86v37l-127 83h-6v-34zM809 745l57 -36v36h-57z" />
<glyph unicode="v" horiz-adv-x="931" d="M-51 811l444 -862h10l97 -96h137l428 849l-98 97l6 12h-287l-192 -432l-152 323l-90 89l-8 20h-295zM-18 791h249l242 -510l225 510h242l-414 -822h-120zM51 745l15 -26l217 -141l-31 67l-156 100h-45zM94 664l39 -72l209 -137l-33 69zM158 745l67 -45l-22 45h-45z M160 537l39 -74l202 -131l-34 71zM225 414l41 -80l195 -127l-37 78zM289 289l43 -82l200 -129l21 39zM354 162l45 -82l101 -68l20 43zM420 37l12 -25h27zM483 193l80 -54l21 41l-82 53zM512 258l84 -55l20 41l-86 53zM543 326l86 -58l18 37l-90 57zM571 391l91 -57l16 33 l-92 61zM600 459l92 -64l17 35l-95 62zM629 524l98 -61l16 31l-100 65zM657 588l101 -66l16 35l-102 66zM686 655l105 -67l14 33l-105 67zM715 721l106 -70l17 33l-101 61h-10zM809 745l45 -28l14 28h-59z" />
<glyph unicode="w" horiz-adv-x="1462" d="M-53 811l422 -862h10l96 -96h103l200 428l156 -328h10l96 -96h109l432 845l-98 97l6 12h-270l-203 -430l-146 317l-90 90l-8 19h-113l-210 -424l-140 319l-90 91l-8 18h-264zM-20 791h219l223 -508l250 503h88l231 -505l240 510h225l-418 -818h-92l-237 506l-242 -510 h-86zM47 745l12 -22l168 -109l-28 66l-103 65h-49zM86 670l35 -72l160 -104l-29 67zM145 549l37 -76l152 -98l-33 71zM156 745l20 -12l-6 12h-14zM205 428l39 -80l141 -94l-33 78zM264 305l41 -82l180 -114l19 41l-74 47l-10 -19l-17 37zM326 180l39 -80l88 -57l20 41z M387 59l21 -47h30l6 11zM440 221l74 -49l21 41l-74 47zM471 285l74 -47l18 38l-71 48zM504 350l71 -47l19 37l-72 47zM535 414l71 -47l19 36l-72 46zM567 479l72 -45l16 33l-71 45zM600 545l70 -45l16 32l-70 46zM631 606l69 -45l9 21l20 -39l135 -88l-28 63l-189 123z M664 672l143 -94l-27 57l-102 67zM694 735l58 -37l-21 45h-33zM756 485l28 -61l134 -86l-29 61zM811 365l31 -64l133 -86l-29 61zM866 248l33 -70l148 -94l16 35zM922 125l32 -70l60 -37l18 35zM1001 197l76 -50l17 31l-76 53zM1032 262l80 -51l16 33l-79 51zM1061 326 l82 -52l16 33l-82 53zM1092 391l84 -53l16 31l-84 55zM1122 457l86 -56l17 31l-88 55zM1155 522l86 -55l14 27l-88 57zM1186 588l88 -58l14 27l-90 57zM1217 651l88 -59l14 26l-90 60zM1247 717l92 -60l11 23l-93 61zM1333 745l39 -24l10 22l-4 2h-45z" />
<glyph unicode="x" horiz-adv-x="931" d="M-78 -45h19l96 -96h315l189 239l114 -143h9l96 -96h321l-379 426l383 417l-98 99l10 10h-333l-197 -250l-107 141l-73 74l-27 35h-334l373 -434zM-33 -25l361 402l-359 414h281l209 -271l213 271h278l-368 -404l364 -412h-282l-209 265l-211 -265h-277zM63 745l52 -57 l317 -207l-70 90l-268 174h-31zM66 16h2l-2 2v-2zM78 31l20 -15h97l-82 54zM125 84l98 -64l33 41l-96 62zM156 745l143 -92l-68 88l-8 4h-67zM174 137l94 -59l31 39l-92 59zM193 600l96 -111l338 -221l-103 117zM221 193l92 -60l31 37l-90 59zM270 248l88 -58l29 35l-86 56z M317 299l84 -53l29 35l-82 53zM360 408l27 -31l-22 -25l81 -51l9 10l26 -32l322 -211l-109 122zM465 461l80 -51l26 28l-82 54zM510 516l82 -53l26 26l-83 56zM530 215l86 -111l136 -88h82zM555 573l86 -57l25 29l-88 57zM600 629l90 -60l25 27l-92 61zM645 684l92 -61 l25 26l-96 62zM664 45l22 -29h21zM690 741l96 -65l23 24l-68 45h-47zM809 745l27 -16l14 16h-41z" />
<glyph unicode="y" horiz-adv-x="931" d="M-63 811l399 -692l-279 -531h17l96 -96h270l615 1210l-99 97l7 12h-285l-191 -397l-145 288l-88 89l-10 20h-307zM-29 791h260l236 -467l223 467h240l-600 -1182h-240l268 510zM47 745l12 -22l232 -150l-33 68l-162 104h-49zM94 666l43 -78l221 -142l-36 70zM158 745 l69 -45l-22 45h-47zM164 -346h86l-64 41zM172 532l45 -83l205 -134l-37 76zM190 -295l80 -51h33l16 35l-102 67zM223 -231l103 -68l26 51l-102 66zM248 397l49 -86l256 -164l20 39l-94 62l-8 -23l-22 43zM258 -168l100 -65l27 47l-102 65zM291 -104l100 -68l25 49l-101 64z M324 -41l100 -65l22 45l-100 63zM324 264l49 -84l149 -96l21 39zM356 20l101 -63l22 43l-100 63zM389 84l100 -66l21 43l-111 72l9 -14zM492 272l94 -61l20 39l-96 61zM522 338l96 -64l19 37l-96 64zM553 401l98 -63l19 37l-99 61zM586 467l98 -64l16 33l-98 66zM616 532 l101 -65l16 33l-100 65zM647 596l101 -66l16 33l-102 66zM678 662l102 -68l17 31l-105 69zM709 727l106 -68l14 29l-90 57h-20zM811 745l35 -22l12 22h-47z" />
<glyph unicode="z" horiz-adv-x="931" d="M10 -45h13l96 -96h854v196l-96 97v12h-283l375 432v106l-97 97v12h-837v-211h12l96 -96h256l-389 -443v-106zM31 -25v78l501 568h-477v170h797v-86l-485 -562h489v-168h-825zM74 33l24 -17h97l-89 58l-32 -37v-4zM100 696l47 -30h72l-119 77v-47zM119 88l112 -72h93 l-170 111zM156 745l125 -79h67l-125 79h-67zM168 143l194 -127h89l-125 82h-58l23 23l-90 59zM215 197l90 -60l31 37l-88 59zM264 252l88 -57l29 34l-86 58zM289 745l121 -79h69l-125 79h-65zM311 305l86 -59l31 35l-88 57zM358 358l88 -57l29 33l-88 57zM367 98l125 -82h86 l-125 82h-86zM406 412l88 -56l26 31l-86 57zM416 745l123 -79h69l-123 79h-69zM455 467l86 -57l26 32l-86 54zM500 98l125 -82h84l-127 82h-82zM504 522l84 -57l24 29l-84 55zM549 745l180 -116l23 26l-140 90h-63zM551 575l84 -55l24 29l-84 55zM596 629l84 -56l27 29 l-84 55zM627 98l125 -82h61v17l-104 65h-82zM678 745l98 -61l23 23l-60 38h-61zM758 98l55 -35v35h-55z" />
<glyph unicode="{" horiz-adv-x="622" d="M-94 473l2 -37q6 -2 14 -2l94 -94q43 -8 131 -25v-444q0 -100 74 -139l74 -74q49 -49 162 -49h227v174l-96 96v12h-84v308q0 84 -62 139l-18 16q80 63 80 160v422h188v186l-96 97v12h-223q-94 0 -160 -54.5t-66 -146.5v-418q0 -49 -84 -90l-51 -16q-41 -14 -106 -33z M-78 457q53 14 150 47q96 47 96 108v418q0 84 59.5 132t145.5 48h202v-157h-188v-437q0 -94 -88 -157q88 -70 88 -158v-430h180v-145h-213q-186 0 -186 145v471q0 53 -100 86q-31 10 -146 29zM92 465q98 -31 117 -96l135 -86v18q0 23 -8 39l-213 141q-10 -6 -31 -16z M145 496l162 -105q-23 25 -86 70q10 6 29 18l-70 47q-14 -14 -35 -30zM195 549l81 -51q10 8 31 28l-98 64q-4 -25 -14 -41zM211 6v-61l133 -86v65zM211 27l133 -80v57l-133 86v-63zM211 -74v-63l143 -94h99zM211 113l133 -84v59l-133 84v-59zM211 199l133 -86v57l-133 86 v-57zM211 285l133 -84v51l-133 86v-53zM211 625l115 -74q12 23 14 37l-129 82v-45zM211 711l133 -86v45l-133 84v-43zM211 795l133 -84v43l-133 86v-45zM211 877l133 -84v45l-133 84v-45zM211 963l133 -84v41l-133 86v-43zM213 1049l131 -84v39l-121 79q-4 -10 -6 -18z M215 -160q14 -59 109 -69zM244 1114l100 -63v14q0 8 6 18l-82 52q-16 -10 -24 -21zM311 1157l92 -59h50l-103 65q-12 -2 -39 -6zM393 -174l88 -57h41v38l-30 19h-99zM426 1165l104 -67v32l-51 35h-53z" />
<glyph unicode="|" horiz-adv-x="1144" d="M438 -66h13l96 -96h235v1149l-96 96v13h-248v-1162zM459 -45v1120h207v-1120h-207zM502 12l22 -14h84l-106 70v-56zM502 96l121 -78v52l-121 82v-56zM502 180l121 -78v52l-121 79v-53zM502 264l121 -76v50l-121 77v-51zM502 350l121 -78v50l-121 77v-49zM502 436l121 -78 v45l-121 78v-45zM502 520l121 -76v43l-121 78v-45zM502 606l121 -78v45l-121 78v-45zM502 690l121 -78v43l-121 80v-45zM502 776l121 -78v39l-121 80v-41zM502 860l121 -78v39l-121 80v-41zM502 946l121 -78v37l-121 78v-37zM504 1030l119 -76v33l-66 43h-53z" />
<glyph unicode="}" horiz-adv-x="622" d="M14 1032h13l96 -96h78v-320q0 -89 78 -159q-78 -76 -78 -156v-410h-181v-186h13l96 -96h225q199 0 199 160v471q0 41 90 71q8 0 12 2q45 10 133 29l3 25l-99 96l2 10l-94 29q-31 6 -47 12v414q0 82 -51 131l-70 67q-14 27 -41 50q-66 55 -155 55h-222v-199zM35 1053v157 h201q84 0 142 -49t58 -131v-418q0 -61 51 -92l37 -14q35 -14 70 -25l84 -24l-98 -19q-18 -4 -43 -10q-100 -33 -101 -86v-471q0 -145 -184 -145h-211v145h180v430q0 86 86 158q-86 68 -86 157v437h-186zM78 1137l61 -39h60l-105 67h-16v-28zM84 -174v-53l8 -4h103l-89 57 h-22zM133 -174l88 -57h31q39 0 63 8l-77 51q-2 -2 -9 -2h-96zM166 1165l227 -147v12q0 16 -2 25l-170 110h-55zM252 -164l82 -55q29 12 45 35l-113 75v-20q0 -23 -14 -35zM266 -6l127 -82v63l-127 80v-61zM266 -27v-63l121 -80q6 18 6 41v20zM266 80l127 -80v53l-127 84v-57 zM266 164l127 -84v57l-127 84v-57zM266 250l127 -84v53l-127 84v-53zM266 616q0 -18 2 -28l211 -137q10 4 31 14q-84 31 -104 80l-140 90v-19zM266 674l127 -82v45l-127 82v-45zM266 760l127 -82v43l-127 84v-45zM266 844l127 -82v43l-127 82v-43zM266 928l127 -82v41 l-127 84v-43zM266 1016l127 -84v39l-127 82v-37zM268 332l125 -82v53l-104 70q-14 -20 -21 -41zM293 535q23 -29 90 -74q-16 -8 -25 -17l58 -38l16 16q6 6 17 12zM305 395l88 -59v6q0 23 6 39l-65 43q-10 -8 -29 -29zM512 410l4 -4q-4 0 -4 4z" />
<glyph unicode="~" horiz-adv-x="931" d="M-8 414l37 -27l73 -74l174 -127q66 121 115 154q260 -164 326 -164q160 0 295 254l-99 96q0 4 5 9l-189 141q-76 -131 -106 -158q-48 29 -144 88l2 4q-111 68 -184 68q-94 0 -178 -90q-41 -43 -127 -174zM20 420q35 53 113 153q80 84 164 84q61 0 170 -65q27 -14 156 -98 q37 16 112 153l156 -119q-125 -236 -277 -235q-57 0 -323 166q-49 -23 -121 -150zM90 449l82 -54q8 20 25 37l-80 53q-4 -8 -27 -36zM131 506l82 -55q16 20 35 30l-88 56q-4 -4 -14.5 -15.5t-14.5 -15.5zM152 379l6 -4zM180 559l94 -59q16 4 23 6l12 -31q0 6 13 17 q115 -80 206 -123q37 -18 64 -27l-377 246q-12 -10 -35 -29zM248 602l399 -262q27 6 47 18l-397 254q-20 2 -49 -10zM588 465l30 -19l-16 39q0 -12 -14 -20zM618 446l105 -69q8 6 14 12l15 14l-93 60q-20 -14 -41 -17zM688 487l88 -57q8 10 23 29l-88 57q-8 -10 -23 -29z M727 543l90 -56q8 12 17 29l-27 21l-62 38z" />
<glyph unicode="&#xa1;" horiz-adv-x="622" d="M119 743l145 -190h-90v-985h12l97 -96h249v972l-57 56l111 149l-183 221l-55 56l-47 57zM145 743l158 207l162 -198l-160 -217zM195 -412v944h221v-944h-221zM201 743l39 -51l86 -55l22 29l-139 90zM231 784l138 -90l22 29l-139 90zM238 -8v-66l133 -86v64zM238 10 l133 -84v62l-133 84v-62zM238 -92v-64l133 -86v64zM238 96l133 -86v60l-133 88v-62zM238 -174v-68l133 -84v64zM238 182l133 -86v56l-133 86v-56zM238 -258v-66l65 -43h68v23zM238 266l133 -84v54l-133 86v-56zM238 -340v-27h43zM238 350l133 -86v55l-133 84v-53zM238 436 l133 -86v53l-133 84v-51zM272 838l138 -88l-76 92l-39 24zM291 487l80 -53v51l-6 2h-74zM301 612l4 -6l2 2z" />
<glyph unicode="&#xa2;" d="M41 420q0 -256 199 -404l22 -20l-80 -180h17l96 -97h194l54 131q49 -6 98 -6q383 0 461 400l-96 96q0 8 2 12h-265q-33 -199 -211 -198q-53 0 -102 22q-24 57 -24 137q0 117 66.5 191t180.5 74q16 0 68 -13q2 -6 2 -16v-41h12l96 -96h261q-23 164 -117 258l-76 75l55 154 l-98 98l4 11h-198l-46 -121q-49 6 -98 6q-211 0 -344 -129t-133 -344zM61 420q0 205 126 328.5t331 123.5q29 0 113 -6l45 121h155l-57 -160q170 -94 199 -299h-230v21q0 49 -32 82q-18 18 -74 47q-43 16 -86 16q-121 0 -191.5 -77.5t-70.5 -200.5t59 -199q66 -84 184 -84 q197 0 230 199h219q-70 -371 -442 -371q-51 0 -107 6l-53 -131h-164l78 172q-231 139 -232 412zM106 408q0 -29 5 -58l172 -110q-20 41 -27 69zM106 436l144 -92q-2 18 -6 57l-133 86q-4 -25 -5 -51zM115 516l129 -84q2 16 6 47l-125 82q-8 -27 -10 -45zM117 317 q6 -37 18 -67l381 -248h53q14 0 29 2l-143 92q-86 20 -142 92zM135 588l119 -78q6 23 14 41l-116 76q-6 -12 -17 -39zM154 211q55 -109 196 -184l-2 -2l47 -29l8 16l19 -2q16 -2 49 -4zM166 651l115 -71q8 16 20 32l-111 74l-12 -16q-6 -8 -12 -19zM211 709l111 -70 q8 10 26 27l-108 69q-8 -6 -15 -12zM268 758l109 -70q12 10 37 21l-111 69q-16 -6 -35 -20zM289 -104l20 -15h41l12 31l-51 33zM319 -39l50 -33l20 49l-49 29zM338 795l113 -72q25 8 49 12l-115 76q-20 -6 -47 -16zM432 821l125 -82q47 -2 94 -18l-166 106q-27 0 -53 -6z M514 90l121 -82q31 6 63 17l-108 69q-29 -6 -58 -6q-12 0 -18 2zM551 827l364 -235q-6 18 -18 53l-276 178q-45 4 -70 4zM623 102l104 -69l25 12q12 6 22 12l-100 66q-23 -14 -51 -21zM670 838l49 -33l10 31l-49 32zM694 907l49 -33l11 29l-49 31zM698 137l101 -63 q16 12 32 28l-98 64q-4 -4 -35 -29zM723 803l96 -62q-29 23 -96 62zM739 664q35 -31 43 -70l35 -23h64zM752 188l98 -65q14 14 24 35l-100 63q-10 -18 -22 -33zM764 944l4 -2l2 2h-6zM788 252l103 -70l14 37l-102 68h-4q-2 -16 -11 -35zM864 287l54 -35l4 16q2 8 6 19h-64z " />
<glyph unicode="&#xa3;" horiz-adv-x="1310" d="M-2 446h14l97 -96h116q60 -178 191 -276l10 -11l45 -43q184 -176 475 -176q186 0 379 107l6 254l-96 96v16q-238 -133 -391 -133q-150 0 -250 76q-23 43 -35 86l504 4l70 158h6l59 190l-98 97l4 12l-473 -4q129 164 325 164q180 0 334 -154l8 -8l52 246l-99 96l2 8 q-211 145 -403 145q-279 0 -479 -208q-121 -125 -164 -287l-135 14l-52 -211h11zM25 467l32 162h-10l41 168l135 -15q39 166 162 295q193 203 465 203q186 0 381 -133l-43 -211q-158 147 -334 147q-141 0 -249.5 -82.5t-153.5 -218.5l624 4l-49 -161h-4l-70 -158l-514 -4 q80 -299 406 -299q160 0 370 119l-6 -222q-180 -100 -364 -100q-252 0 -416 129q-170 133 -211 377h-192zM84 535l37 -25h82l-111 72zM109 692l34 -22l60 -4v10l-84 57zM129 592l76 -49v47zM158 745l51 -32l4 26zM250 563q0 -18 4 -53l154 -98q-8 29 -17 61zM250 600 l133 -86q-4 20 -6 49l-127 82v-45zM252 684l125 -82v14h-4l4 13v16l-119 78q-2 -12 -6 -39zM260 473q4 -31 12 -57l205 -135q-29 37 -51 86zM264 760l117 -74q2 12 8 37l-115 76q-4 -10 -10 -39zM283 831l112 -73l13 37l-111 71q-4 -6 -14 -35zM285 375q12 -41 30 -74 l453 -295q20 -2 39 -2h51zM311 899l109 -70q4 10 14 31l-106 70q-6 -10 -17 -31zM338 258q43 -72 104 -123l109 -72q74 -35 162 -49zM348 963l105 -72q2 4 18 29l-104 69q-6 -8 -19 -26zM389 1018l105 -66q12 16 20 23l-102 67l-13 -12q-6 -6 -10 -12zM426 586l2 -17l96 -61 h66l-119 78h-45zM430 659l55 3l-47 30zM434 528l2 -22h27zM440 1071l103 -65l20 20l-100 66l-10 -11q-6 -6 -13 -10zM446 727l99 -65l65 2l-116 73h-45zM496 1118l104 -67q8 6 27 18l-105 68q-8 -6 -26 -19zM535 586l118 -78h68l-121 80zM557 739l115 -75h65l-114 75h-66z M561 1161l111 -71q14 8 30 12l-114 74q-6 -4 -13 -7zM567 676l6 18h13l16 -16zM639 1198l121 -80l37 6l-129 84q-12 -6 -29 -10zM659 588l121 -78h66l-119 78h-68zM688 741l113 -75h61l-114 75h-60zM698 137l203 -131q20 2 64 10l-162 105q-55 4 -105 16zM729 1225l148 -97 q16 -2 51 -6l-166 107q-10 0 -33 -4zM791 588l120 -78h13l10 25l-82 55zM819 741l111 -73l57 2l-113 71h-55zM842 1235l319 -207l6 21l-286 186h-39zM858 119l148 -94q16 4 51 14l-133 86q-23 -2 -66 -6zM920 590l30 -19l8 19h-38zM948 741l56 -36l10 28l-15 10zM969 133 l123 -80l43 19l-115 73q-29 -10 -51 -12zM1014 1210l162 -106l6 18l-78 52q-45 20 -90 36zM1059 160l106 -68l2 43l-65 41q-14 -6 -43 -16zM1141 193l26 -17l2 31q-14 -6 -28 -14z" />
<glyph unicode="&#xa8;" horiz-adv-x="677" d="M-29 1202l187 -213l4 4l98 -98l143 174l74 -82l4 4l99 -98l182 217l-96 100l2 2l-193 201l-153 -174l-168 174zM-2 1202l156 182l165 -172l-161 -194zM74 1225l129 -84l20 22l-129 84zM82 1171l76 -86l20 25zM121 1278l129 -82l10 14l-35 35l-84 55zM315 1202l160 182 l166 -172l-164 -194zM375 1202l12 -12l115 -76l18 23l-129 84zM420 1253l129 -82l16 19l-129 84zM467 1307l53 -35l-43 47z" />
<glyph unicode="&#xaa;" horiz-adv-x="1368" />
<glyph unicode="&#xad;" horiz-adv-x="731" d="M76 274h12l96 -96h545v211l-96 96v13h-557v-224zM96 295v182h516v-182h-516zM141 381l19 -41h49l-41 94h-27v-53zM195 434l41 -94h51l-41 94h-51zM270 434l43 -94h49l-40 94h-52zM350 434l41 -94h47l-41 94h-47zM426 434l45 -94h45l-43 94h-47zM508 434l41 -94h18v51 l-18 43h-41z" />
<glyph unicode="&#xb4;" horiz-adv-x="475" d="M33 938l33 -25l77 -75l119 -82l273 274l-66 144l-90 88l-8 20l-156 10zM59 946l168 326l131 -10l58 -125l-258 -260zM117 961l35 -27l16 16l-43 29zM141 1010l52 -35l26 26l-61 39zM174 1073l72 -45l22 23l-78 51zM207 1137l88 -58l22 23l-96 63zM240 1202l108 -69l14 14 l-8 14l-100 66z" />
<glyph unicode="&#xb7;" horiz-adv-x="415" d="M-12 614l174 -266l6 8l96 -96l164 250l-166 252l-76 76l-26 41zM14 614l146 224l147 -226l-145 -223zM68 614l18 -30l107 -66l28 41l-133 86zM98 662l133 -84l25 34l-10 15l-119 78zM111 549l51 -78l22 31zM137 723l78 -49l-55 82z" />
<glyph unicode="&#xbf;" d="M111 -129q0 -147 116 -229l2 -2q2 0 4 -2l60 -60q100 -100 289 -100q168 0 271 86t103 252v37l-96 96v12h-229l31 31q27 23 75 74q14 18 23 28q23 37 31 86h8v287l-47 45l106 139l-178 234l-70 67l-32 45l-187 -252l141 -170h-96v-247q0 -12 -35 -47l-194 -199 q-61 -61 -76 -90q-20 -39 -20 -121zM131 -129q0 78 19 113q12 23 71 84l195 198q41 41 41 62v227h118l-157 190l160 218l159 -209l-151 -199h96v-258h-6q-10 -59 -31 -92q-16 -20 -174 -178q-57 -57 -117 -123q-4 -20 -4 -43q0 -80 123 -80q150 0 150 137v23h217v-23 q0 -162 -103 -246q-94 -78 -258 -78q-145 0 -239 64q-109 74 -109 213zM176 -115l156 -102q-25 31 -25 78v2l-125 82q-6 -23 -6 -60zM176 -133q0 -43 12 -76l232 -149q29 -4 59 -4h21q12 0 22 2zM188 -39l119 -78q4 25 8 39l9 15l-105 67q-23 -23 -31 -43zM201 -233 q53 -92 184 -119zM231 16l105 -65q6 4 16 16l21 21l-105 65zM285 68l102 -68l35 37l-100 65zM338 119l100 -66l35 35l-100 64zM385 -250l164 -108q41 8 74 16l-121 80q-10 -2 -29 -2q-53 0 -88 14zM389 170l100 -66l33 33l-102 66q-6 -6 -15.5 -16.5t-15.5 -16.5zM436 221 l103 -67l32 34l-106 70q-2 -4 -29 -37zM473 748l68 -84l49 -31l22 31l-137 88zM475 -199q64 70 127 133v-16q0 -113 -127 -117zM481 279l109 -72q18 23 26 35l-116 75q-2 -14 -19 -38zM496 778l137 -88l22 29l-137 88zM502 350l125 -80q4 18 8 43l-133 86v-49zM502 436 l135 -88v45l-135 90v-47zM518 510l119 -78v45l-51 33h-68zM526 -260l117 -74q29 12 51 29l-104 67q-25 -14 -64 -22zM539 838l137 -90l6 6l-45 59l-78 49zM606 -227l105 -66q14 12 34 37l-102 70q-16 -25 -37 -41zM651 -170l107 -68q10 18 20 45l-112 72q-2 -20 -15 -49z M682 -104l104 -68q2 16 7 51l-25 17h-86z" />
<glyph unicode="&#xc0;" horiz-adv-x="1355" d="M-51 -45h16l96 -96h279l164 360h440l127 -264h10l97 -96h292l-649 1298l107 74l-180 346l-89 86l-10 23l-153 -11l-70 -149l229 -232h-57zM-18 -25l628 1299h86l650 -1299h-263l-172 361h-518l-164 -361h-247zM51 16h17l-13 9zM61 39l35 -23h101l-113 72zM94 104l113 -71 l22 47l-112 72zM125 172l113 -74l20 45l-111 72zM158 236l108 -72l21 43l-109 72zM188 301l107 -72l20 43l-108 68zM219 362l107 -67l18 41l-106 70zM250 428l104 -68l11 21h38l-135 86zM281 494l176 -113h75l-233 149zM313 559l103 -65l14 36l-98 64zM346 623l98 -64l15 35 l-99 63zM377 688l96 -63l16 34l-96 62zM408 752l94 -62l16 35l-94 61zM438 815l94 -59l15 32l-94 60zM442 475l146 -94h71l-143 94h-74zM451 1530l57 125l129 10l170 -326l-98 -69zM471 881l90 -58l14 29l-90 59zM475 518h348l-178 385zM502 946l88 -57l14 29l-90 57z M518 1569l180 -119l-28 55l-140 92zM532 1014l89 -60l12 27l-88 55zM532 1511l107 -108l94 -62l17 13l-15 24zM563 1075l273 -178l-27 53l-234 152zM573 475l146 -94h67l-143 94h-70zM575 1616l58 -37l-23 39zM594 1141l178 -117l-24 49l-142 90zM627 1204l80 -51l-21 43 l-49 31zM647 539l70 157l74 -157h-144zM670 956l22 -49l205 -133l-27 53zM707 475l143 -94h68l-144 94h-67zM725 838l25 -52l208 -137l-26 56zM778 721l27 -57l217 -140l-29 58zM834 602l28 -59l223 -146l-30 62zM836 475l313 -205l-33 66l-227 147l4 -8h-57zM948 362 l29 -65l233 -150l-32 66zM1006 238l30 -64l238 -154l-33 66zM1063 117l31 -66l53 -35h72z" />
<glyph unicode="&#xc1;" horiz-adv-x="1355" d="M-51 -45h16l96 -96h279l164 360h440l127 -264h10l97 -96h292l-688 1349l197 201l-64 141l-90 90l-8 19l-155 10l-185 -350l35 -27l57 -57zM-18 -25l628 1299h86l650 -1299h-263l-172 361h-518l-164 -361h-247zM51 16h17l-13 9zM61 39l35 -23h101l-113 72zM94 104l113 -71 l22 47l-112 72zM125 172l113 -74l20 45l-111 72zM158 236l108 -72l21 43l-109 72zM188 301l107 -72l20 43l-108 68zM219 362l107 -67l18 41l-106 70zM250 428l104 -68l11 21h38l-135 86zM281 494l176 -113h75l-233 149zM313 559l103 -65l14 36l-98 64zM346 623l98 -64l15 35 l-99 63zM377 688l96 -63l16 34l-96 62zM408 752l94 -62l16 35l-94 61zM438 815l94 -59l15 32l-94 60zM442 475l146 -94h71l-143 94h-74zM471 881l90 -58l14 29l-90 59zM475 518h348l-178 385zM502 946l88 -57l14 29l-90 57zM504 1325l170 324l131 -11l55 -122l-258 -263z M532 1014l89 -60l12 27l-88 55zM561 1337l37 -26l16 16l-43 29zM563 1075l273 -178l-27 53l-234 152zM573 475l146 -94h67l-143 94h-70zM588 1386l51 -32l25 24l-60 39zM594 1141l178 -117l-24 49l-142 90zM621 1452l69 -47l25 25l-80 51zM627 1204l80 -51l-21 43l-49 31z M647 539l70 157l74 -157h-144zM653 1516l88 -58l23 21l-96 63zM670 956l22 -49l205 -133l-27 53zM686 1579l107 -70l14 15l-6 14l-101 66zM707 475l143 -94h68l-144 94h-67zM725 838l25 -52l208 -137l-26 56zM778 721l27 -57l217 -140l-29 58zM834 602l28 -59l223 -146 l-30 62zM836 475l313 -205l-33 66l-227 147l4 -8h-57zM948 362l29 -65l233 -150l-32 66zM1006 238l30 -64l238 -154l-33 66zM1063 117l31 -66l53 -35h72z" />
<glyph unicode="&#xc2;" horiz-adv-x="1355" d="M-51 -45h16l96 -96h279l164 360h440l127 -264h10l97 -96h292l-663 1327l-84 82l25 30l55 -67h8l96 -96h246l-270 378l-80 80l-21 29h-229l-279 -385h19l96 -96h133zM-18 -25l628 1299h86l650 -1299h-263l-172 361h-518l-164 -361h-247zM51 16h17l-13 9zM61 39l35 -23h101 l-113 72zM94 104l113 -71l22 47l-112 72zM125 172l113 -74l20 45l-111 72zM158 236l108 -72l21 43l-109 72zM188 301l107 -72l20 43l-108 68zM219 362l107 -67l18 41l-106 70zM250 428l104 -68l11 21h38l-135 86zM281 494l176 -113h75l-233 149zM313 559l103 -65l14 36 l-98 64zM315 1257l248 345h209l250 -351h-211l-152 187l-149 -181h-195zM346 623l98 -64l15 35l-99 63zM377 688l96 -63l16 34l-96 62zM401 1300h50l-35 23zM408 752l94 -62l16 35l-94 61zM436 1352l64 -39l20 26l-63 39zM438 815l94 -59l15 32l-94 60zM442 475l146 -94h71 l-143 94h-74zM471 881l90 -58l14 29l-90 59zM475 518h348l-178 385zM479 1409l66 -43l20 27l-67 43zM502 946l88 -57l14 29l-90 57zM520 1468l70 -45l20 23l-71 47zM532 1014l89 -60l12 27l-88 55zM563 1075l273 -178l-27 53l-234 152zM563 1526l74 -49l18 22l-75 49z M573 475l146 -94h67l-143 94h-70zM594 1141l178 -117l-24 49l-142 90zM627 1204l80 -51l-21 43l-49 31zM641 1556l203 -131l-47 66l-103 65h-53zM647 539l70 157l74 -157h-144zM670 956l22 -49l205 -133l-27 53zM676 1487l57 -72l185 -119h18l-27 37zM707 475l143 -94h68 l-144 94h-67zM725 838l25 -52l208 -137l-26 56zM778 721l27 -57l217 -140l-29 58zM819 1311l12 -15h11zM834 602l28 -59l223 -146l-30 62zM836 475l313 -205l-33 66l-227 147l4 -8h-57zM948 362l29 -65l233 -150l-32 66zM1006 238l30 -64l238 -154l-33 66zM1063 117l31 -66 l53 -35h72z" />
<glyph unicode="&#xc3;" horiz-adv-x="1355" d="M-51 -45h16l96 -96h279l164 360h440l127 -264h10l97 -96h292l-675 1337q53 -20 88 -20q139 0 262 196l-98 96q4 4 6 9l-174 110l-66 -92q-10 -14 -25 -20q-43 25 -75 41l-23 12q-10 4 -24 14q-80 41 -150 41q-88 0 -156 -61q-16 -14 -118 -140l34 -22l78 -78l162 -104 q45 74 72 96zM-18 -25l628 1299h86l650 -1299h-263l-172 361h-518l-164 -361h-247zM51 16h17l-13 9zM61 39l35 -23h101l-113 72zM94 104l113 -71l22 47l-112 72zM125 172l113 -74l20 45l-111 72zM158 236l108 -72l21 43l-109 72zM188 301l107 -72l20 43l-108 68zM219 362 l107 -67l18 41l-106 70zM250 428l104 -68l11 21h38l-135 86zM272 1389q82 100 103 118q63 55 141 56q74 0 141 -39l33 -19q31 -18 96 -53q23 2 41 29l56 78l139 -89q-111 -178 -242 -178q-49 0 -164 60l-102 53q-43 -4 -104 -105zM281 494l176 -113h75l-233 149zM313 559 l103 -65l14 36l-98 64zM340 1403l59 -39q6 8 19 27l-58 36zM346 623l98 -64l15 35l-99 63zM377 688l96 -63l16 34l-96 62zM387 1458l59 -39q16 14 29 19l-65 43zM408 752l94 -62l16 35l-94 61zM438 815l94 -59l15 32l-94 60zM442 475l146 -94h71l-143 94h-74zM449 1505 l116 -75l72 -39q41 -23 115 -50l-271 175l-16 -5q-8 -2 -16 -6zM471 881l90 -58l14 29l-90 59zM475 518h348l-178 385zM502 946l88 -57l14 29l-90 57zM532 1014l89 -60l12 27l-88 55zM561 1513l262 -170q20 4 35 13l-82 53q-10 4 -96 53q-55 33 -119 51zM563 1075l273 -178 l-27 53l-234 152zM573 475l146 -94h67l-143 94h-70zM594 1141l178 -117l-24 49l-142 90zM627 1204l80 -51l-21 43l-49 31zM647 539l70 157l74 -157h-144zM670 956l22 -49l205 -133l-27 53zM707 475l143 -94h68l-144 94h-67zM725 838l25 -52l208 -137l-26 56zM778 721l27 -57 l217 -140l-29 58zM829 1425l68 -43l18 19l-65 41q-12 -12 -21 -17zM834 602l28 -59l223 -146l-30 62zM836 475l313 -205l-33 66l-227 147l4 -8h-57zM879 1479l67 -43q6 6 15 18l-68 45zM948 362l29 -65l233 -150l-32 66zM1006 238l30 -64l238 -154l-33 66zM1063 117l31 -66 l53 -35h72z" />
<glyph unicode="&#xc4;" horiz-adv-x="1355" d="M-51 -45h16l96 -96h279l164 360h440l127 -264h10l97 -96h292l-663 1327l-82 82l16 20l72 -80l4 4l98 -98l181 215l-97 101l2 2l-192 204l-154 -178l-18 19l-148 159l-184 -213l189 -215l4 4l39 -43zM-18 -25l628 1299h86l650 -1299h-263l-172 361h-518l-164 -361h-247z M51 16h17l-13 9zM61 39l35 -23h101l-113 72zM94 104l113 -71l22 47l-112 72zM125 172l113 -74l20 45l-111 72zM158 236l108 -72l21 43l-109 72zM188 301l107 -72l20 43l-108 68zM219 362l107 -67l18 41l-106 70zM250 428l104 -68l11 21h38l-135 86zM281 494l176 -113h75 l-233 149zM313 559l103 -65l14 36l-98 64zM332 1423l157 183l166 -174l-161 -193zM346 623l98 -64l15 35l-99 63zM377 688l96 -63l16 34l-96 62zM408 752l94 -62l16 35l-94 61zM410 1446l129 -86l20 24l-129 84zM418 1393l76 -86l20 24zM438 815l94 -59l15 32l-94 60z M442 475l146 -94h71l-143 94h-74zM457 1499l129 -82l10 13l-35 36l-84 56zM471 881l90 -58l14 29l-90 59zM475 518h348l-178 385zM502 946l88 -57l14 29l-90 57zM532 1014l89 -60l12 27l-88 55zM563 1075l273 -178l-27 53l-234 152zM573 475l146 -94h67l-143 94h-70z M594 1141l178 -117l-24 49l-142 90zM627 1204l80 -51l-21 43l-49 31zM647 539l70 157l74 -157h-144zM651 1423l158 183l166 -174l-162 -193zM670 956l22 -49l205 -133l-27 53zM707 475l143 -94h68l-144 94h-67zM711 1423l10 -12l115 -76l20 23l-129 84zM725 838l25 -52 l208 -137l-26 56zM756 1475l129 -84l16 20l-129 84zM778 721l27 -57l217 -140l-29 58zM803 1528l53 -35l-43 47zM834 602l28 -59l223 -146l-30 62zM836 475l313 -205l-33 66l-227 147l4 -8h-57zM948 362l29 -65l233 -150l-32 66zM1006 238l30 -64l238 -154l-33 66zM1063 117 l31 -66l53 -35h72z" />
<glyph unicode="&#xc8;" d="M117 -45h12l96 -96h834v219l-96 96v12h-480v232h445v215l-97 96v12h-346v189h574v223l-96 96v13h-191l-158 307l-88 86l-10 22l-156 -10l-67 -147l252 -258h-428v-1307zM137 -25v1266h805v-194h-573v-326h442v-186h-444v-369h575v-191h-805zM182 16h15l-15 11v-11z M182 47l47 -31h95l-142 93v-62zM182 133l180 -117h89l-269 177v-60zM182 221l140 -92v55l-140 90v-53zM182 303l140 -90v53l-140 94v-57zM182 387l140 -90v51l-140 94v-55zM182 473l140 -90v51l-140 90v-51zM182 559l140 -92v49l-140 92v-49zM182 645l140 -92v25h32 l-172 112v-45zM182 729l234 -151h65l-149 98h-6v4l-144 94v-45zM182 815l144 -94v45l-144 92v-43zM182 897l144 -94v45l-144 94v-45zM182 983l144 -94v43l-144 92v-41zM182 1071l144 -96v39l-144 94v-37zM182 1153l144 -92v31h8l-152 98v-37zM250 1196l160 -104h53l-160 104 h-53zM317 1524l56 123l131 10l168 -326l-99 -69zM334 121l160 -105h86l-160 105h-86zM377 1196l162 -104h51l-160 104h-53zM383 1561l180 -119l-28 57l-140 90zM393 676l152 -98h67l-151 98h-68zM397 1503l107 -108l96 -62l14 13l-12 24zM440 1608l58 -37l-21 41zM463 121 l162 -105h82l-160 105h-84zM508 1196l162 -104h49l-162 104h-49zM522 676l152 -98h67l-149 98h-70zM592 121l164 -105h78l-160 105h-82zM641 1196l160 -104h47l-162 104h-45zM655 676l111 -72v41l-47 31h-64zM721 121l164 -105h14v43l-96 62h-82zM772 1196l127 -82v27 l-86 55h-41zM856 121l43 -27v27h-43z" />
<glyph unicode="&#xc9;" d="M117 -45h12l96 -96h834v219l-96 96v12h-480v232h445v215l-97 96v12h-346v189h574v223l-96 96v13h-183l121 120l-63 144l-90 90l-9 18l-157 11l-183 -355l39 -28h-321v-1307zM137 -25v1266h805v-194h-573v-326h442v-186h-444v-369h575v-191h-805zM182 16h15l-15 11v-11z M182 47l47 -31h95l-142 93v-62zM182 133l180 -117h89l-269 177v-60zM182 221l140 -92v55l-140 90v-53zM182 303l140 -90v53l-140 94v-57zM182 387l140 -90v51l-140 94v-55zM182 473l140 -90v51l-140 90v-51zM182 559l140 -92v49l-140 92v-49zM182 645l140 -92v25h32 l-172 112v-45zM182 729l234 -151h65l-149 98h-6v4l-144 94v-45zM182 815l144 -94v45l-144 92v-43zM182 897l144 -94v45l-144 94v-45zM182 983l144 -94v43l-144 92v-41zM182 1071l144 -96v39l-144 94v-37zM182 1153l144 -92v31h8l-152 98v-37zM250 1196l160 -104h53l-160 104 h-53zM334 121l160 -105h86l-160 105h-86zM377 1196l162 -104h51l-160 104h-53zM393 676l152 -98h67l-151 98h-68zM426 1298l168 326l133 -10l55 -125l-258 -260zM463 121l162 -105h82l-160 105h-84zM483 1313l37 -27l15 17l-43 28zM508 1196l162 -104h49l-162 104h-49z M508 1362l53 -35l25 27l-62 39zM522 676l152 -98h67l-149 98h-70zM543 1425l69 -45l23 23l-78 51zM575 1489l89 -57l22 22l-96 64zM592 121l164 -105h78l-160 105h-82zM608 1554l107 -69l14 14l-6 14l-102 64zM641 1196l160 -104h47l-162 104h-45zM655 676l111 -72v41 l-47 31h-64zM721 121l164 -105h14v43l-96 62h-82zM772 1196l127 -82v27l-86 55h-41zM856 121l43 -27v27h-43z" />
<glyph unicode="&#xca;" d="M117 -45h12l96 -96h834v219l-96 96v12h-480v232h445v215l-97 96v12h-346v189h574v223l-96 96v13h-33l-168 235l-80 80l-20 29h-230l-252 -344h-63v-1307zM137 -25v1266h805v-194h-573v-326h442v-186h-444v-369h575v-191h-805zM182 16h15l-15 11v-11zM182 47l47 -31h95 l-142 93v-62zM182 133l180 -117h89l-269 177v-60zM182 221l140 -92v55l-140 90v-53zM182 303l140 -90v53l-140 94v-57zM182 387l140 -90v51l-140 94v-55zM182 473l140 -90v51l-140 90v-51zM182 559l140 -92v49l-140 92v-49zM182 645l140 -92v25h32l-172 112v-45zM182 729 l234 -151h65l-149 98h-6v4l-144 94v-45zM182 815l144 -94v45l-144 92v-43zM182 897l144 -94v45l-144 94v-45zM182 983l144 -94v43l-144 92v-41zM182 1071l144 -96v39l-144 94v-37zM182 1153l144 -92v31h8l-152 98v-37zM193 1241l249 344h209l250 -350h-211l-151 184 l-150 -178h-196zM250 1196l160 -104h53l-160 104h-53zM279 1284h51l-35 23zM315 1335l62 -39l22 25l-63 41zM334 121l160 -105h86l-160 105h-86zM358 1393l64 -43l22 26l-67 43zM377 1196l162 -104h51l-160 104h-53zM393 676l152 -98h67l-151 98h-68zM399 1452l70 -47l20 25 l-71 47zM442 1509l74 -49l19 23l-76 49zM463 121l162 -105h82l-160 105h-84zM508 1196l162 -104h49l-162 104h-49zM520 1540l201 -131l-45 66l-103 65h-53zM522 676l152 -98h67l-149 98h-70zM555 1470l57 -71l185 -121h18l-27 39zM592 121l164 -105h78l-160 105h-82z M610 1262l17 18l16 -18h-33zM641 1196l160 -104h47l-162 104h-45zM655 676l111 -72v41l-47 31h-64zM698 1292l11 -14h12zM721 121l164 -105h14v43l-96 62h-82zM772 1196l127 -82v27l-86 55h-41zM856 121l43 -27v27h-43z" />
<glyph unicode="&#xcb;" d="M117 -45h12l96 -96h834v219l-96 96v12h-480v232h445v215l-97 96v12h-346v189h574v223l-96 96v13h-17l47 55l-96 98l2 4l-192 199l-154 -174l-166 174l-184 -209l129 -147h-215v-1307zM137 -25v1266h805v-194h-573v-326h442v-186h-444v-369h575v-191h-805zM182 16h15 l-15 11v-11zM182 47l47 -31h95l-142 93v-62zM182 133l180 -117h89l-269 177v-60zM182 221l140 -92v55l-140 90v-53zM182 303l140 -90v53l-140 94v-57zM182 387l140 -90v51l-140 94v-55zM182 473l140 -90v51l-140 90v-51zM182 559l140 -92v49l-140 92v-49zM182 645l140 -92 v25h32l-172 112v-45zM182 729l234 -151h65l-149 98h-6v4l-144 94v-45zM182 815l144 -94v45l-144 92v-43zM182 897l144 -94v45l-144 94v-45zM182 983l144 -94v43l-144 92v-41zM182 1071l144 -96v39l-144 94v-37zM182 1153l144 -92v31h8l-152 98v-37zM229 1409l158 180 l166 -172l-162 -194zM250 1196l160 -104h53l-160 104h-53zM307 1430l129 -84l21 22l-131 86zM315 1376l76 -86l19 25zM334 121l160 -105h86l-160 105h-86zM352 1485l129 -84l13 14l-35 37l-84 53zM377 1196l162 -104h51l-160 104h-53zM393 676l152 -98h67l-151 98h-68z M463 121l162 -105h82l-160 105h-84zM508 1196l162 -104h49l-162 104h-49zM522 676l152 -98h67l-149 98h-70zM549 1409l158 180l165 -172l-161 -194zM592 121l164 -105h78l-160 105h-82zM608 1409l10 -14l115 -76l21 24l-131 84zM627 1262l12 14l12 -14h-24zM641 1196 l160 -104h47l-162 104h-45zM651 1458l129 -82l19 21l-129 84zM655 676l111 -72v41l-47 31h-64zM700 1513l54 -36l-45 47zM721 121l164 -105h14v43l-96 62h-82zM772 1196l127 -82v27l-86 55h-41zM856 121l43 -27v27h-43z" />
<glyph unicode="&#xcc;" horiz-adv-x="520" d="M37 1526l260 -264h-172v-1307h12l96 -96h246v1294l-22 23l80 55l-179 346l-88 86l-10 23l-156 -11zM61 1530l56 125l131 10l168 -326l-99 -69zM127 1569l180 -119l-28 55l-140 92zM141 1511l107 -108l96 -62l14 13l-12 24zM145 -25v1266h217v-1266h-217zM184 1616l58 -37 l-21 39zM190 16h5l-5 4v-4zM190 43l41 -27h88v4l-129 84v-61zM190 127l129 -82v59l-129 84v-61zM190 215l129 -84v55l-129 82v-53zM190 299l129 -82v51l-129 86v-55zM190 383l129 -86v55l-129 84v-53zM190 467l129 -84v51l-129 84v-51zM190 553l129 -84v49l-129 84v-49z M190 639l129 -86v47l-129 84v-45zM190 725l129 -84v43l-129 84v-43zM190 809l129 -84v45l-129 84v-45zM190 893l129 -84v43l-129 84v-43zM190 977l129 -84v43l-129 84v-43zM190 1065l129 -86v41l-129 82v-37zM190 1149l129 -84v37l-129 84v-37zM250 1196l69 -45v35l-16 10 h-53z" />
<glyph unicode="&#xcd;" horiz-adv-x="520" d="M68 1348l32 -25l64 -61h-39v-1307h12l96 -96h246v1294l-96 96v4l186 187l-63 143l-90 90l-8 19l-156 10zM94 1356l170 325l131 -10l56 -125l-258 -260zM145 -25v1266h217v-1266h-217zM152 1370l36 -27l17 17l-43 29zM178 1419l51 -35l25 27l-59 39zM190 16h5l-5 4v-4z M190 43l41 -27h88v4l-129 84v-61zM190 127l129 -82v59l-129 84v-61zM190 215l129 -84v55l-129 82v-53zM190 299l129 -82v51l-129 86v-55zM190 383l129 -86v55l-129 84v-53zM190 467l129 -84v51l-129 84v-51zM190 553l129 -84v49l-129 84v-49zM190 639l129 -86v47l-129 84 v-45zM190 725l129 -84v43l-129 84v-43zM190 809l129 -84v45l-129 84v-45zM190 893l129 -84v43l-129 84v-43zM190 977l129 -84v43l-129 84v-43zM190 1065l129 -86v41l-129 82v-37zM190 1149l129 -84v37l-129 84v-37zM211 1483l70 -45l24 22l-80 51zM244 1546l88 -57l22 22 l-96 64zM250 1196l69 -45v35l-16 10h-53zM276 1612l109 -70l14 14l-8 15l-100 63z" />
<glyph unicode="&#xce;" horiz-adv-x="520" d="M-135 1210h18l97 -96h145v-1159h12l96 -96h246v1267l17 -16h245l-270 377l-80 78l-20 30h-230zM-94 1231l246 344h208l250 -348h-211l-151 184l-150 -180h-192zM-8 1276h47l-35 22zM25 1327l63 -41l21 27l-64 41zM68 1384l65 -43l21 27l-68 43zM109 1442l69 -45l21 22 l-72 49zM145 -25v1266h217v-1266h-217zM152 1501l73 -49l19 23l-76 49zM190 16h5l-5 4v-4zM190 43l41 -27h88v4l-129 84v-61zM190 127l129 -82v59l-129 84v-61zM190 215l129 -84v55l-129 82v-53zM190 299l129 -82v51l-129 86v-55zM190 383l129 -86v55l-129 84v-53zM190 467 l129 -84v51l-129 84v-51zM190 553l129 -84v49l-129 84v-49zM190 639l129 -86v47l-129 84v-45zM190 725l129 -84v43l-129 84v-43zM190 809l129 -84v45l-129 84v-45zM190 893l129 -84v43l-129 84v-43zM190 977l129 -84v43l-129 84v-43zM190 1065l129 -86v41l-129 82v-37z M190 1149l129 -84v37l-129 84v-37zM229 1532l203 -131l-47 65l-102 66h-54zM250 1196l69 -45v35l-16 10h-53zM264 1460l58 -69l184 -121h18l-26 39zM328 1262l8 10l10 -10h-18zM408 1284l12 -14h10z" />
<glyph unicode="&#xcf;" horiz-adv-x="520" d="M-94 1415l186 -213l4 4l29 -28v-1223h12l96 -96h246v1286l37 -37l180 217l-96 98l2 4l-192 199l-154 -174l-166 176zM-68 1415l158 182l164 -172l-162 -194zM8 1438l129 -84l21 22l-129 84zM16 1384l76 -86l21 25zM55 1491l129 -82l11 14l-33 35l-86 55zM145 -25v1266 h217v-1266h-217zM190 16h5l-5 4v-4zM190 43l41 -27h88v4l-129 84v-61zM190 127l129 -82v59l-129 84v-61zM190 215l129 -84v55l-129 82v-53zM190 299l129 -82v51l-129 86v-55zM190 383l129 -86v55l-129 84v-53zM190 467l129 -84v51l-129 84v-51zM190 553l129 -84v49l-129 84 v-49zM190 639l129 -86v47l-129 84v-45zM190 725l129 -84v43l-129 84v-43zM190 809l129 -84v45l-129 84v-45zM190 893l129 -84v43l-129 84v-43zM190 977l129 -84v43l-129 84v-43zM190 1065l129 -86v41l-129 82v-37zM190 1149l129 -84v37l-129 84v-37zM250 1196l69 -45v35 l-16 10h-53zM250 1415l160 182l165 -172l-161 -194zM309 1415l13 -12l114 -76l21 23l-131 84zM322 1262l18 22l20 -22h-38zM354 1466l129 -82l17 19l-127 84zM401 1520l56 -35l-45 47z" />
<glyph unicode="&#xd1;" horiz-adv-x="1556" d="M125 -45h12l96 -96h246v868l934 -895h98v1321l-96 96v13h-186q18 20 39 55l-99 96q4 4 7 8l-177 111l-67 -94q-12 -16 -23 -19q-43 25 -75 41l-23 13q-10 4 -25 14q-80 43 -149 43q-86 0 -156 -64q-18 -16 -119 -139l33 -22l80 -78l164 -105q53 100 96 111l99 -51 q119 -61 172 -62q76 0 147 58v-783l-915 895h-113v-1335zM145 -25v1295h84l945 -922v893h221v-1292h-78l-955 919v-893h-217zM190 16h5l-5 4v-4zM190 43l41 -27h88v4l-129 84v-61zM190 127l129 -82v59l-129 84v-61zM190 215l129 -84v55l-129 82v-53zM190 299l129 -82v51 l-129 86v-55zM190 383l129 -86v55l-129 84v-53zM190 467l129 -84v53l-129 82v-51zM190 553l129 -82v47l-129 84v-49zM190 639l129 -82v45l-129 82v-45zM190 725l129 -84v43l-129 84v-43zM190 809l129 -82v43l-129 84v-45zM190 893l129 -84v43l-129 84v-43zM190 977l129 -84 v43l-129 84v-43zM190 1065l560 -367l-119 119l-441 285v-37zM190 1149l295 -191l-110 107l-185 121v-37zM201 1227l28 -19l-18 19h-10zM393 1333q80 98 103 119q63 57 141 57q72 0 141 -41l33 -18q31 -18 96 -53q25 4 41 28l56 78l141 -88q-115 -178 -242 -178 q-51 0 -166 59l-102 54q-45 -4 -103 -105zM434 862l131 -129l443 -287l-127 123zM461 1348l59 -37q8 14 19 24l-58 37zM508 1403l59 -39q16 14 29 18l-64 43q-8 -6 -24 -22zM571 1450l115 -76l72 -39q47 -27 114 -49l-270 174q-20 -4 -31 -10zM684 1458l262 -170q18 4 33 12 l-82 54q-10 4 -96 53q-59 35 -117 51zM692 610l142 -135l516 -338v45l-133 86v-26l-84 82zM950 1370l68 -43l18 19l-63 40q-10 -10 -23 -16zM958 354l140 -135l252 -164v43zM1001 1423l66 -43q6 6 14 19l-67 45zM1217 311l133 -88v41l-133 88v-41zM1217 397l133 -86v37 l-133 86v-37zM1217 481l133 -86v35l-133 88v-37zM1217 567l133 -88v35l-133 86v-33zM1217 649l133 -86v33l-133 88v-35zM1217 735l133 -86v33l-133 84v-31zM1217 821l133 -86v29l-133 86v-29zM1217 905l133 -84v27l-133 84v-27zM1217 991l133 -86v25l-133 86v-25zM1217 1077 l133 -86v23l-133 86v-23zM1217 1159l133 -84v21l-133 86v-23zM1225 96l108 -104h17v22zM1292 1196l58 -37v21l-25 16h-33z" />
<glyph unicode="&#xd2;" horiz-adv-x="1769" d="M74 598q0 -307 243 -496l43 -43q33 -33 74 -63q227 -172 543 -172q313 0 539 184q240 197 239 504q0 256 -174 430l-35 35q-158 207 -422 280l-166 320l-88 86l-10 23l-153 -11l-70 -149l229 -232h-10q-313 0 -541 -188q-242 -201 -241 -508zM94 598q0 301 236 494 q219 182 526 182q309 0 535 -172q248 -186 247 -488q0 -303 -235 -495q-220 -178 -529 -178q-307 0 -534 170q-246 184 -246 487zM137 588l162 -107q-4 14 -6 29l-4 29l-150 96q-2 -10 -2 -21v-26zM139 551l4 -27l4 -28l201 -131q-23 37 -37 73zM143 670l140 -92v47l-136 88 q0 -14 -4 -43zM154 459q6 -23 22 -68l621 -401q41 -4 77 -4h13l-228 143q-168 55 -270 176zM156 748l131 -86q2 14 6 40l-127 80zM178 817l121 -80q4 10 10 39l-116 76q-4 -12 -15 -35zM195 352q18 -41 59 -96l364 -236q61 -18 127 -24zM209 881l113 -74q4 8 14 35l-109 71 q-6 -10 -18 -32zM246 940l108 -68q6 8 19 29l-105 68q-14 -14 -22 -29zM293 997l102 -67q4 6 11 12l12 12l-103 68l-12 -12q-6 -6 -10 -13zM319 186q82 -76 193 -125zM328 602q0 -211 172 -342q158 -121 374 -121q227 0 375 123q156 133 156 356q0 211 -172 343 q-158 118 -377 118q-229 0 -375 -121q-154 -131 -153 -356zM344 1049l102 -66l25 21l-102 65q-8 -8 -25 -20zM406 1094l102 -64l12 8q6 4 15 9l-103 65q-8 -6 -26 -18zM444 500q0 215 150 344h-2q143 119 366 119q195 0 349 -107q78 -106 77 -238q0 -215 -149 -342 q-141 -117 -361 -116q-94 0 -196 30q-115 35 -172 93q-62 88 -62 217zM471 1135l104 -68l31 12l-104 70q-10 -4 -31 -14zM549 1171l113 -73l32 8l-114 76q-20 -8 -31 -11zM635 1200l125 -82q12 0 39 4l-131 84q-10 -2 -33 -6zM662 1530l57 125l129 10l170 -326l-98 -69z M729 1569l180 -119l-28 55l-140 92zM735 1221l148 -97q16 0 47 -4l-162 105zM743 1511l107 -108l94 -62l17 13l-15 24zM745 109l187 -121l67 6l-161 102q-47 2 -93 13zM786 1616l58 -37l-23 39zM852 1229l207 -135q51 -16 98 -37l-266 172h-39zM893 96l149 -96l56 12 l-137 88q-33 -4 -68 -4zM1004 1217l528 -343q-8 16 -21 33l-460 299q-27 8 -47 11zM1008 109l129 -84q14 6 45 16l-121 80q-29 -10 -53 -12zM1100 133l117 -76l38 19l-112 74q-14 -6 -43 -17zM1180 166l108 -72q12 8 37 23l-108 71q-12 -8 -37 -22zM1245 207l107 -70l30 25 l-106 69zM1253 1137l133 -88q-55 49 -133 88zM1282 975q39 -33 66 -68l229 -147q-2 10 -10 31zM1303 254l108 -68q14 10 23 25l-107 70q-6 -8 -12 -15zM1350 309l110 -69q8 8 21 24l-111 72q-6 -8 -20 -27zM1389 369l114 -72l15 27l-115 73q-6 -14 -14 -28zM1409 809l14 -37 l168 -108q0 18 -2 28zM1419 436l119 -78q4 8 6 15l4 12l-121 80q-4 -16 -8 -29zM1440 508l123 -84q6 12 10 29l-129 84q0 -10 -4 -29zM1442 705q0 -10 4 -33l147 -94q2 10 2 28zM1448 588l135 -88q4 16 4 26l-139 92v-30z" />
<glyph unicode="&#xd3;" horiz-adv-x="1769" d="M74 598q0 -307 243 -496l43 -43q33 -33 74 -63q227 -172 543 -172q313 0 539 184q240 197 239 504q0 256 -174 430l-35 35q-172 225 -477 293l143 147l-65 142l-90 88l-8 20l-156 10l-182 -354l39 -29l6 -6q-248 -25 -439 -182q-244 -203 -243 -508zM94 598 q0 301 236 494q219 182 526 182q309 0 535 -172q248 -186 247 -488q0 -303 -235 -495q-220 -178 -529 -178q-307 0 -534 170q-246 184 -246 487zM137 588l162 -107q-4 14 -6 29l-4 29l-150 96q-2 -10 -2 -21v-26zM139 551l4 -27l4 -28l201 -131q-23 37 -37 73zM143 670 l140 -92v47l-136 88q0 -14 -4 -43zM154 459q6 -23 22 -68l621 -401q41 -4 77 -4h13l-228 143q-168 55 -270 176zM156 748l131 -86q2 14 6 40l-127 80zM178 817l121 -80q4 10 10 39l-116 76q-4 -12 -15 -35zM195 352q18 -41 59 -96l364 -236q61 -18 127 -24zM209 881l113 -74 q4 8 14 35l-109 71q-6 -10 -18 -32zM246 940l108 -68q6 8 19 29l-105 68q-14 -14 -22 -29zM293 997l102 -67q4 6 11 12l12 12l-103 68l-12 -12q-6 -6 -10 -13zM319 186q82 -76 193 -125zM328 602q0 -211 172 -342q158 -121 374 -121q227 0 375 123q156 133 156 356 q0 211 -172 343q-158 118 -377 118q-229 0 -375 -121q-154 -131 -153 -356zM344 1049l102 -66l25 21l-102 65q-8 -8 -25 -20zM406 1094l102 -64l12 8q6 4 15 9l-103 65q-8 -6 -26 -18zM444 500q0 215 150 344h-2q143 119 366 119q195 0 349 -107q78 -106 77 -238 q0 -215 -149 -342q-141 -117 -361 -116q-94 0 -196 30q-115 35 -172 93q-62 88 -62 217zM471 1135l104 -68l31 12l-104 70q-10 -4 -31 -14zM549 1171l113 -73l32 8l-114 76q-20 -8 -31 -11zM635 1200l125 -82q12 0 39 4l-131 84q-10 -2 -33 -6zM735 1221l148 -97q16 0 47 -4 l-162 105zM737 1331l168 326l131 -10l58 -123l-258 -262zM745 109l187 -121l67 6l-161 102q-47 2 -93 13zM795 1346l36 -27l15 16l-43 29zM819 1395l53 -35l25 26l-61 39zM852 1229l207 -135q51 -16 98 -37l-266 172h-39zM852 1458l72 -45l22 25l-78 49zM887 1524l88 -58 l22 21l-96 63zM893 96l149 -96l56 12l-137 88q-33 -4 -68 -4zM920 1587l106 -69l14 14l-6 14l-102 66zM1004 1217l528 -343q-8 16 -21 33l-460 299q-27 8 -47 11zM1008 109l129 -84q14 6 45 16l-121 80q-29 -10 -53 -12zM1100 133l117 -76l38 19l-112 74q-14 -6 -43 -17z M1180 166l108 -72q12 8 37 23l-108 71q-12 -8 -37 -22zM1245 207l107 -70l30 25l-106 69zM1253 1137l133 -88q-55 49 -133 88zM1282 975q39 -33 66 -68l229 -147q-2 10 -10 31zM1303 254l108 -68q14 10 23 25l-107 70q-6 -8 -12 -15zM1350 309l110 -69q8 8 21 24l-111 72 q-6 -8 -20 -27zM1389 369l114 -72l15 27l-115 73q-6 -14 -14 -28zM1409 809l14 -37l168 -108q0 18 -2 28zM1419 436l119 -78q4 8 6 15l4 12l-121 80q-4 -16 -8 -29zM1440 508l123 -84q6 12 10 29l-129 84q0 -10 -4 -29zM1442 705q0 -10 4 -33l147 -94q2 10 2 28zM1448 588 l135 -88q4 16 4 26l-139 92v-30z" />
<glyph unicode="&#xd4;" horiz-adv-x="1769" d="M74 598q0 -307 243 -496l43 -43q33 -33 74 -63q227 -172 543 -172q313 0 539 184q240 197 239 504q0 256 -174 430l-35 35q-43 55 -190 174h20l-270 379l-80 80l-20 28h-230l-280 -385h18l16 -18q-115 -49 -213 -129q-244 -201 -243 -508zM94 598q0 301 236 494 q219 182 526 182q309 0 535 -172q248 -186 247 -488q0 -303 -235 -495q-220 -178 -529 -178q-307 0 -534 170q-246 184 -246 487zM137 588l162 -107q-4 14 -6 29l-4 29l-150 96q-2 -10 -2 -21v-26zM139 551l4 -27l4 -28l201 -131q-23 37 -37 73zM143 670l140 -92v47l-136 88 q0 -14 -4 -43zM154 459q6 -23 22 -68l621 -401q41 -4 77 -4h13l-228 143q-168 55 -270 176zM156 748l131 -86q2 14 6 40l-127 80zM178 817l121 -80q4 10 10 39l-116 76q-4 -12 -15 -35zM195 352q18 -41 59 -96l364 -236q61 -18 127 -24zM209 881l113 -74q4 8 14 35l-109 71 q-6 -10 -18 -32zM246 940l108 -68q6 8 19 29l-105 68q-14 -14 -22 -29zM293 997l102 -67q4 6 11 12l12 12l-103 68l-12 -12q-6 -6 -10 -13zM319 186q82 -76 193 -125zM328 602q0 -211 172 -342q158 -121 374 -121q227 0 375 123q156 133 156 356q0 211 -172 343 q-158 118 -377 118q-229 0 -375 -121q-154 -131 -153 -356zM344 1049l102 -66l25 21l-102 65q-8 -8 -25 -20zM406 1094l102 -64l12 8q6 4 15 9l-103 65q-8 -6 -26 -18zM444 500q0 215 150 344h-2q143 119 366 119q195 0 349 -107q78 -106 77 -238q0 -215 -149 -342 q-141 -117 -361 -116q-94 0 -196 30q-115 35 -172 93q-62 88 -62 217zM471 1135l104 -68l31 12l-104 70q-10 -4 -31 -14zM537 1274l249 344h209l250 -350h-211l-151 186l-150 -180h-196zM549 1171l113 -73l32 8l-114 76q-20 -8 -31 -11zM623 1317h51l-35 22zM635 1200 l125 -82q12 0 39 4l-131 84q-10 -2 -33 -6zM659 1368l62 -39l22 27l-63 41zM702 1425l64 -43l22 27l-67 43zM735 1221l148 -97q16 0 47 -4l-162 105zM743 1485l70 -45l21 22l-72 47zM745 109l187 -121l67 6l-161 102q-47 2 -93 13zM786 1542l74 -47l19 21l-76 51zM852 1229 l207 -135q51 -16 98 -37l-266 172h-39zM864 1573l201 -131l-45 67l-102 64h-54zM893 96l149 -96l56 12l-137 88q-33 -4 -68 -4zM899 1503l57 -71l185 -119h18l-26 37zM950 1288l21 25l24 -29q-25 4 -45 4zM1004 1217l528 -343q-8 16 -21 33l-460 299q-27 8 -47 11zM1008 109 l129 -84q14 6 45 16l-121 80q-29 -10 -53 -12zM1042 1327l13 -14h10zM1100 133l117 -76l38 19l-112 74q-14 -6 -43 -17zM1180 166l108 -72q12 8 37 23l-108 71q-12 -8 -37 -22zM1245 207l107 -70l30 25l-106 69zM1253 1137l133 -88q-55 49 -133 88zM1282 975q39 -33 66 -68 l229 -147q-2 10 -10 31zM1303 254l108 -68q14 10 23 25l-107 70q-6 -8 -12 -15zM1350 309l110 -69q8 8 21 24l-111 72q-6 -8 -20 -27zM1389 369l114 -72l15 27l-115 73q-6 -14 -14 -28zM1409 809l14 -37l168 -108q0 18 -2 28zM1419 436l119 -78q4 8 6 15l4 12l-121 80 q-4 -16 -8 -29zM1440 508l123 -84q6 12 10 29l-129 84q0 -10 -4 -29zM1442 705q0 -10 4 -33l147 -94q2 10 2 28zM1448 588l135 -88q4 16 4 26l-139 92v-30z" />
<glyph unicode="&#xd5;" horiz-adv-x="1769" d="M74 598q0 -307 243 -496l43 -43q33 -33 74 -63q227 -172 543 -172q313 0 539 184q240 197 239 504q0 256 -174 430l-35 35q-106 139 -282 227q49 43 96 121l-96 96l4 9l-174 110l-70 -94q-12 -16 -23 -19l-45 27l-28 14l-23 13l-24 12q-82 43 -152 43q-80 0 -151 -59 q-31 -27 -123 -142l34 -22l68 -68q-131 -49 -240 -139q-244 -201 -243 -508zM94 598q0 301 236 494q219 182 526 182q309 0 535 -172q248 -186 247 -488q0 -303 -235 -495q-220 -178 -529 -178q-307 0 -534 170q-246 184 -246 487zM137 588l162 -107q-4 14 -6 29l-4 29 l-150 96q-2 -10 -2 -21v-26zM139 551l4 -27l4 -28l201 -131q-23 37 -37 73zM143 670l140 -92v47l-136 88q0 -14 -4 -43zM154 459q6 -23 22 -68l621 -401q41 -4 77 -4h13l-228 143q-168 55 -270 176zM156 748l131 -86q2 14 6 40l-127 80zM178 817l121 -80q4 10 10 39l-116 76 q-4 -12 -15 -35zM195 352q18 -41 59 -96l364 -236q61 -18 127 -24zM209 881l113 -74q4 8 14 35l-109 71q-6 -10 -18 -32zM246 940l108 -68q6 8 19 29l-105 68q-14 -14 -22 -29zM293 997l102 -67q4 6 11 12l12 12l-103 68l-12 -12q-6 -6 -10 -13zM319 186q82 -76 193 -125z M328 602q0 -211 172 -342q158 -121 374 -121q227 0 375 123q156 133 156 356q0 211 -172 343q-158 118 -377 118q-229 0 -375 -121q-154 -131 -153 -356zM344 1049l102 -66l25 21l-102 65q-8 -8 -25 -20zM406 1094l102 -64l12 8q6 4 15 9l-103 65q-8 -6 -26 -18zM444 500 q0 215 150 344h-2q143 119 366 119q195 0 349 -107q78 -106 77 -238q0 -215 -149 -342q-141 -117 -361 -116q-94 0 -196 30q-115 35 -172 93q-62 88 -62 217zM471 1135l104 -68l31 12l-104 70q-10 -4 -31 -14zM485 1341l66 78q25 31 39 41q63 55 139 56q70 0 143 -41 l127 -70q23 4 41 29l58 77l139 -88q-115 -178 -242 -178q-49 0 -164 60l-102 53q-43 -4 -104 -105zM549 1171l113 -73l32 8l-114 76q-20 -8 -31 -11zM553 1356l61 -39q6 8 19 26l-58 37zM602 1411l57 -39q16 14 29 19l-63 41q-4 -4 -11.5 -10.5t-11.5 -10.5zM635 1200 l125 -82q12 0 39 4l-131 84q-10 -2 -33 -6zM664 1458l114 -76l72 -39q66 -37 115 -49l-271 174q-20 -4 -30 -10zM735 1221l148 -97q16 0 47 -4l-162 105zM745 109l187 -121l67 6l-161 102q-47 2 -93 13zM776 1466l262 -170q18 4 33 13l-82 51q-131 82 -213 106zM852 1229 l207 -135q51 -16 98 -37l-266 172h-39zM893 96l149 -96l56 12l-137 88q-33 -4 -68 -4zM1004 1217l528 -343q-8 16 -21 33l-460 299q-27 8 -47 11zM1008 109l129 -84q14 6 45 16l-121 80q-29 -10 -53 -12zM1044 1376l66 -43l20 21l-65 41q-4 -4 -10 -9.5t-11 -9.5zM1094 1432 l65 -43q6 6 15 18l-68 45zM1100 133l117 -76l38 19l-112 74q-14 -6 -43 -17zM1180 166l108 -72q12 8 37 23l-108 71q-12 -8 -37 -22zM1245 207l107 -70l30 25l-106 69zM1253 1137l133 -88q-55 49 -133 88zM1282 975q39 -33 66 -68l229 -147q-2 10 -10 31zM1303 254l108 -68 q14 10 23 25l-107 70q-6 -8 -12 -15zM1350 309l110 -69q8 8 21 24l-111 72q-6 -8 -20 -27zM1389 369l114 -72l15 27l-115 73q-6 -14 -14 -28zM1409 809l14 -37l168 -108q0 18 -2 28zM1419 436l119 -78q4 8 6 15l4 12l-121 80q-4 -16 -8 -29zM1440 508l123 -84q6 12 10 29 l-129 84q0 -10 -4 -29zM1442 705q0 -10 4 -33l147 -94q2 10 2 28zM1448 588l135 -88q4 16 4 26l-139 92v-30z" />
<glyph unicode="&#xd6;" horiz-adv-x="1769" d="M74 598q0 -307 243 -496l43 -43q33 -33 74 -63q227 -172 543 -172q313 0 539 184q240 197 239 504q0 256 -174 430l-35 35q-123 162 -323 246l84 102l-97 98l2 4l-192 199l-152 -174l-168 174l-184 -211l127 -145q-178 -43 -326 -164q-244 -201 -243 -508zM94 598 q0 301 236 494q219 182 526 182q309 0 535 -172q248 -186 247 -488q0 -303 -235 -495q-220 -178 -529 -178q-307 0 -534 170q-246 184 -246 487zM137 588l162 -107q-4 14 -6 29l-4 29l-150 96q-2 -10 -2 -21v-26zM139 551l4 -27l4 -28l201 -131q-23 37 -37 73zM143 670 l140 -92v47l-136 88q0 -14 -4 -43zM154 459q6 -23 22 -68l621 -401q41 -4 77 -4h13l-228 143q-168 55 -270 176zM156 748l131 -86q2 14 6 40l-127 80zM178 817l121 -80q4 10 10 39l-116 76q-4 -12 -15 -35zM195 352q18 -41 59 -96l364 -236q61 -18 127 -24zM209 881l113 -74 q4 8 14 35l-109 71q-6 -10 -18 -32zM246 940l108 -68q6 8 19 29l-105 68q-14 -14 -22 -29zM293 997l102 -67q4 6 11 12l12 12l-103 68l-12 -12q-6 -6 -10 -13zM319 186q82 -76 193 -125zM328 602q0 -211 172 -342q158 -121 374 -121q227 0 375 123q156 133 156 356 q0 211 -172 343q-158 118 -377 118q-229 0 -375 -121q-154 -131 -153 -356zM344 1049l102 -66l25 21l-102 65q-8 -8 -25 -20zM406 1094l102 -64l12 8q6 4 15 9l-103 65q-8 -6 -26 -18zM444 500q0 215 150 344h-2q143 119 366 119q195 0 349 -107q78 -106 77 -238 q0 -215 -149 -342q-141 -117 -361 -116q-94 0 -196 30q-115 35 -172 93q-62 88 -62 217zM471 1135l104 -68l31 12l-104 70q-10 -4 -31 -14zM543 1415l157 182l166 -172l-161 -194zM549 1171l113 -73l32 8l-114 76q-20 -8 -31 -11zM621 1438l129 -84l20 22l-129 84zM629 1384 l76 -86l18 25zM635 1200l125 -82q12 0 39 4l-131 84q-10 -2 -33 -6zM666 1491l129 -82l12 14l-35 35l-84 55zM735 1221l148 -97q16 0 47 -4l-162 105zM745 109l187 -121l67 6l-161 102q-47 2 -93 13zM852 1229l207 -135q51 -16 98 -37l-266 172h-39zM862 1415l158 182 l166 -172l-162 -194zM893 96l149 -96l56 12l-137 88q-33 -4 -68 -4zM922 1415l10 -12l115 -76l20 23l-131 84zM965 1466l129 -82l18 19l-129 84zM1004 1217l528 -343q-8 16 -21 33l-460 299q-27 8 -47 11zM1008 109l129 -84q14 6 45 16l-121 80q-29 -10 -53 -12zM1014 1520 l53 -35l-45 47zM1100 133l117 -76l38 19l-112 74q-14 -6 -43 -17zM1180 166l108 -72q12 8 37 23l-108 71q-12 -8 -37 -22zM1245 207l107 -70l30 25l-106 69zM1253 1137l133 -88q-55 49 -133 88zM1282 975q39 -33 66 -68l229 -147q-2 10 -10 31zM1303 254l108 -68 q14 10 23 25l-107 70q-6 -8 -12 -15zM1350 309l110 -69q8 8 21 24l-111 72q-6 -8 -20 -27zM1389 369l114 -72l15 27l-115 73q-6 -14 -14 -28zM1409 809l14 -37l168 -108q0 18 -2 28zM1419 436l119 -78q4 8 6 15l4 12l-121 80q-4 -16 -8 -29zM1440 508l123 -84q6 12 10 29 l-129 84q0 -10 -4 -29zM1442 705q0 -10 4 -33l147 -94q2 10 2 28zM1448 588l135 -88q4 16 4 26l-139 92v-30z" />
<glyph unicode="&#xd9;" horiz-adv-x="1462" d="M117 395q0 -223 176 -350l53 -53q27 -27 68 -55q156 -109 393 -109q240 0 401 100q199 125 201 359l4 866l-96 96v13h-275v-867q0 -109 -108 -178q-96 -61 -211 -61q-133 0 -225 55h-2q-13 37 -13 82v860l-96 96v13h-270v-867zM137 395v846h230v-846q0 -133 116 -202 q98 -57 240 -58q127 0 225 66q115 74 115 194v846h233l-4 -852q-1 -227 -194 -346q-160 -98 -393 -98q-229 0 -388 106q-180 123 -180 344zM182 387l162 -104q-12 31 -18 65l-144 94v-55zM182 473l140 -92v53l-140 90v-51zM182 559l140 -92v49l-140 92v-49zM182 645l140 -92 v47l-140 90v-45zM182 729l140 -90v43l-140 90v-43zM182 815l140 -90v43l-140 90v-43zM182 897l140 -90v43l-140 92v-45zM182 983l140 -92v43l-140 90v-41zM182 1069l140 -92v41l-140 90v-39zM182 1153l140 -90v39l-140 88v-37zM184 358q2 -20 11 -63l475 -305h80l-197 127 q-123 35 -180 116zM207 260q14 -47 51 -90l231 -152q61 -18 129 -24zM250 1196l72 -47v35l-21 12h-51zM369 78v2l2 -2h-2zM451 1511l278 -284l4 2l98 -96l119 86l-178 342l-88 86l-10 22l-156 -10zM475 1516l55 122l132 11l167 -324l-98 -72zM541 1554l180 -120l-29 57 l-139 90zM555 1497l107 -111l96 -61l14 12l-12 25zM598 1599l57 -36l-20 41zM625 98l168 -104q23 2 69 8l-143 90q-49 0 -94 6zM766 94l131 -86q18 6 55 17l-123 79q-16 -4 -63 -10zM866 113l119 -76l45 18l-115 78q-25 -12 -49 -20zM946 147l115 -73l12 6q8 6 25 16 l-115 74q-12 -8 -37 -23zM1012 190l112 -73q10 8 29 26l-115 76q-6 -8 -12 -14zM1059 244l117 -76q8 10 22 31l-119 77q-8 -16 -20 -32zM1092 305l120 -80q6 12 17 37l-127 82q-2 -12 -10 -39zM1108 383l131 -86l6 37l-137 90v-41zM1108 467l141 -90v39l-141 90v-39z M1108 551l141 -90v35l-141 92v-37zM1108 637l141 -90v33l-141 92v-35zM1108 721l141 -90v33l-141 92v-35zM1108 807l141 -92v33l-141 90v-31zM1108 893l141 -92v28l-141 93v-29zM1108 977l141 -90v26l-141 93v-29zM1108 1063l141 -92v22l-141 94v-24zM1108 1149l143 -94v22 l-143 94v-22zM1161 1196l90 -57v20l-55 37h-35z" />
<glyph unicode="&#xda;" horiz-adv-x="1462" d="M117 395q0 -223 176 -350l53 -53q27 -27 68 -55q156 -109 393 -109q240 0 401 100q199 125 201 359l4 866l-96 96v13h-275v-867q0 -109 -108 -178q-96 -61 -211 -61q-133 0 -225 55h-2q-13 37 -13 82v860l-96 96v13h-270v-867zM137 395v846h230v-846q0 -133 116 -202 q98 -57 240 -58q127 0 225 66q115 74 115 194v846h233l-4 -852q-1 -227 -194 -346q-160 -98 -393 -98q-229 0 -388 106q-180 123 -180 344zM182 387l162 -104q-12 31 -18 65l-144 94v-55zM182 473l140 -92v53l-140 90v-51zM182 559l140 -92v49l-140 92v-49zM182 645l140 -92 v47l-140 90v-45zM182 729l140 -90v43l-140 90v-43zM182 815l140 -90v43l-140 90v-43zM182 897l140 -90v43l-140 92v-45zM182 983l140 -92v43l-140 90v-41zM182 1069l140 -92v41l-140 90v-39zM182 1153l140 -90v39l-140 88v-37zM184 358q2 -20 11 -63l475 -305h80l-197 127 q-123 35 -180 116zM207 260q14 -47 51 -90l231 -152q61 -18 129 -24zM250 1196l72 -47v35l-21 12h-51zM369 78v2l2 -2h-2zM553 1298l33 -24l78 -76l118 -82l273 277l-64 141l-90 90l-8 18l-156 11zM580 1307l170 325l131 -10l55 -123l-258 -262zM625 98l168 -104q23 2 69 8 l-143 90q-49 0 -94 6zM637 1321l37 -27l16 17l-43 28zM664 1370l51 -35l26 27l-61 39zM696 1434l70 -45l25 24l-78 49zM729 1499l88 -57l23 20l-97 64zM762 1563l108 -70l15 14l-8 15l-101 65zM766 94l131 -86q18 6 55 17l-123 79q-16 -4 -63 -10zM866 113l119 -76l45 18 l-115 78q-25 -12 -49 -20zM946 147l115 -73l12 6q8 6 25 16l-115 74q-12 -8 -37 -23zM1012 190l112 -73q10 8 29 26l-115 76q-6 -8 -12 -14zM1059 244l117 -76q8 10 22 31l-119 77q-8 -16 -20 -32zM1092 305l120 -80q6 12 17 37l-127 82q-2 -12 -10 -39zM1108 383l131 -86 l6 37l-137 90v-41zM1108 467l141 -90v39l-141 90v-39zM1108 551l141 -90v35l-141 92v-37zM1108 637l141 -90v33l-141 92v-35zM1108 721l141 -90v33l-141 92v-35zM1108 807l141 -92v33l-141 90v-31zM1108 893l141 -92v28l-141 93v-29zM1108 977l141 -90v26l-141 93v-29z M1108 1063l141 -92v22l-141 94v-24zM1108 1149l143 -94v22l-143 94v-22zM1161 1196l90 -57v20l-55 37h-35z" />
<glyph unicode="&#xdb;" horiz-adv-x="1462" d="M117 395q0 -223 176 -350l53 -53q27 -27 68 -55q156 -109 393 -109q240 0 401 100q199 125 201 359l4 866l-96 96v13h-213l-174 241l-80 78l-21 31h-231l-254 -350h-227v-867zM137 395v846h230v-846q0 -133 116 -202q98 -57 240 -58q127 0 225 66q115 74 115 194v846h233 l-4 -852q-1 -227 -194 -346q-160 -98 -393 -98q-229 0 -388 106q-180 123 -180 344zM182 387l162 -104q-12 31 -18 65l-144 94v-55zM182 473l140 -92v53l-140 90v-51zM182 559l140 -92v49l-140 92v-49zM182 645l140 -92v47l-140 90v-45zM182 729l140 -90v43l-140 90v-43z M182 815l140 -90v43l-140 90v-43zM182 897l140 -90v43l-140 92v-45zM182 983l140 -92v43l-140 90v-41zM182 1069l140 -92v41l-140 90v-39zM182 1153l140 -90v39l-140 88v-37zM184 358q2 -20 11 -63l475 -305h80l-197 127q-123 35 -180 116zM207 260q14 -47 51 -90l231 -152 q61 -18 129 -24zM250 1196l72 -47v35l-21 12h-51zM360 1247l248 344h211l250 -348h-211l-151 184l-150 -180h-197zM369 78v2l2 -2h-2zM446 1292h50l-33 23zM483 293v837h183l129 158l55 -65h8l96 -97h88v-731q0 -109 -108 -178q-96 -61 -211 -61q-133 0 -225 55h-2 q-12 37 -13 82zM483 1343l62 -40l22 26l-63 41zM524 1401l66 -43l22 26l-67 43zM567 1458l70 -45l20 25l-71 47zM608 1518l76 -50l18 23l-77 49zM625 98l168 -104q23 2 69 8l-143 90q-49 0 -94 6zM688 1548l201 -131l-45 66l-103 65h-53zM723 1477l57 -70l185 -121h18 l-27 39zM766 94l131 -86q18 6 55 17l-123 79q-16 -4 -63 -10zM866 113l119 -76l45 18l-115 78q-25 -12 -49 -20zM866 1300l11 -14h12zM946 147l115 -73l12 6q8 6 25 16l-115 74q-12 -8 -37 -23zM1012 190l112 -73q10 8 29 26l-115 76q-6 -8 -12 -14zM1059 244l117 -76 q8 10 22 31l-119 77q-8 -16 -20 -32zM1092 305l120 -80q6 12 17 37l-127 82q-2 -12 -10 -39zM1108 383l131 -86l6 37l-137 90v-41zM1108 467l141 -90v39l-141 90v-39zM1108 551l141 -90v35l-141 92v-37zM1108 637l141 -90v33l-141 92v-35zM1108 721l141 -90v33l-141 92v-35z M1108 807l141 -92v33l-141 90v-31zM1108 893l141 -92v28l-141 93v-29zM1108 977l141 -90v26l-141 93v-29zM1108 1063l141 -92v22l-141 94v-24zM1108 1149l143 -94v22l-143 94v-22zM1161 1196l90 -57v20l-55 37h-35z" />
<glyph unicode="&#xdc;" horiz-adv-x="1462" d="M117 395q0 -223 176 -350l53 -53q27 -27 68 -55q156 -109 393 -109q240 0 401 100q199 125 201 359l4 866l-96 96v13h-182l34 38l-96 101l2 2l-190 199l-154 -175l-168 175l-184 -211l188 -213l4 4l99 -99l145 174l72 -79l4 4l98 -99l53 64v-752q0 -109 -108 -178 q-96 -61 -211 -61q-133 0 -225 55h-2q-12 37 -13 82v860l-96 96v13h-270v-867zM137 395v846h230v-846q0 -133 116 -202q98 -57 240 -58q127 0 225 66q115 74 115 194v846h233l-4 -852q-1 -227 -194 -346q-160 -98 -393 -98q-229 0 -388 106q-180 123 -180 344zM182 387 l162 -104q-12 31 -18 65l-144 94v-55zM182 473l140 -92v53l-140 90v-51zM182 559l140 -92v49l-140 92v-49zM182 645l140 -92v47l-140 90v-45zM182 729l140 -90v43l-140 90v-43zM182 815l140 -90v43l-140 90v-43zM182 897l140 -90v43l-140 92v-45zM182 983l140 -92v43 l-140 90v-41zM182 1069l140 -92v41l-140 90v-39zM182 1153l140 -90v39l-140 88v-37zM184 358q2 -20 11 -63l475 -305h80l-197 127q-123 35 -180 116zM207 260q14 -47 51 -90l231 -152q61 -18 129 -24zM250 1196l72 -47v35l-21 12h-51zM369 78v2l2 -2h-2zM406 1391l157 182 l166 -172l-162 -195zM483 1413l129 -84l21 23l-129 86zM492 1360l75 -86l21 24zM530 1468l129 -84l11 15l-35 35l-84 55zM625 98l168 -104q23 2 69 8l-143 90q-49 0 -94 6zM725 1391l160 182l164 -172l-162 -195zM766 94l131 -86q18 6 55 17l-123 79q-16 -4 -63 -10z M784 1391l11 -13l116 -75l19 24l-129 84zM829 1442l129 -82l17 18l-129 84zM866 113l119 -76l45 18l-115 78q-25 -12 -49 -20zM877 1497l53 -37l-43 47zM946 147l115 -73l12 6q8 6 25 16l-115 74q-12 -8 -37 -23zM1012 190l112 -73q10 8 29 26l-115 76q-6 -8 -12 -14z M1059 244l117 -76q8 10 22 31l-119 77q-8 -16 -20 -32zM1092 305l120 -80q6 12 17 37l-127 82q-2 -12 -10 -39zM1108 383l131 -86l6 37l-137 90v-41zM1108 467l141 -90v39l-141 90v-39zM1108 551l141 -90v35l-141 92v-37zM1108 637l141 -90v33l-141 92v-35zM1108 721 l141 -90v33l-141 92v-35zM1108 807l141 -92v33l-141 90v-31zM1108 893l141 -92v28l-141 93v-29zM1108 977l141 -90v26l-141 93v-29zM1108 1063l141 -92v22l-141 94v-24zM1108 1149l143 -94v22l-143 94v-22zM1161 1196l90 -57v20l-55 37h-35z" />
<glyph unicode="&#xdd;" horiz-adv-x="1144" d="M-76 1262l510 -734v-573h12l97 -96h260v567l487 727l-98 98l6 11h-317l-293 -469l-232 360l-80 80l-18 29h-334zM-37 1241h283l332 -510l315 510h268l-475 -706v-560h-231v560zM45 1196l51 -70l297 -194l-45 69zM117 1196l180 -117l-41 64l-82 53h-57zM152 1044l53 -75 l284 -185l-47 72zM258 893l57 -82l351 -225l20 28l-92 60l-16 -25l-41 64zM367 737l53 -78l221 -143v33l6 8zM420 1298l33 -24l77 -76l119 -82l273 277l-66 141l-90 88l-8 20l-156 11zM446 1307l168 325l131 -10l58 -123l-258 -262zM475 582l25 -33v-25l141 -92v43zM500 16 h80l-80 54v-54zM500 98l125 -82h16v43l-141 93v-54zM500 182l141 -94v55l-141 93v-54zM500 266l141 -92v51l-141 92v-51zM500 352l141 -92v49l-141 92v-49zM500 438l141 -92v45l-141 92v-45zM504 1321l35 -27l16 17l-43 28zM528 1370l52 -35l26 27l-61 39zM561 1434l72 -45 l22 24l-77 49zM594 1499l90 -57l21 20l-97 64zM610 705l95 -60l20 27l-94 61zM629 1563l106 -70l15 14l-7 15l-102 65zM649 764l96 -62l19 27l-96 64zM688 827l98 -65l17 26l-98 64zM727 889l98 -68l17 25l-101 65zM762 946l102 -67l17 24l-105 68zM799 1006l104 -68l17 23 l-107 69zM838 1069l106 -70l14 21l-108 67zM874 1128l111 -71l12 20l-110 72zM913 1190l113 -74l10 19l-96 61h-22zM1034 1196l31 -20l10 16l-6 4h-35z" />
<glyph unicode="&#xe0;" horiz-adv-x="1144" d="M33 387q0 -236 178 -369l59 -57q127 -123 332 -123q147 0 250 62l41 -41h231v843l-96 97v12h-248v-70q-23 14 -67 41l57 41l-178 346l-88 86l-10 23l-156 -10l-68 -150l279 -282l4 2l12 -11q-33 4 -61 4q-199 0 -332 -122q-139 -125 -139 -322zM53 387q0 188 133 307 q127 117 318 117q176 0 297 -111v91h207v-816h-203v86q-109 -106 -305 -106q-197 0 -322 117.5t-125 314.5zM98 358l146 -94l-17 66l-129 84v-56zM102 326q2 -12 15 -64l405 -264q25 2 76 6l-135 88q-135 25 -199 129zM102 438l123 -80v31q0 10 2 21l-116 77q-4 -16 -9 -49z M119 514l112 -76q4 14 15 45l-111 72zM129 227q23 -57 57 -96l176 -115q55 -16 117 -18zM150 578l108 -68q6 16 21 35l-107 67q-14 -16 -22 -34zM193 637l104 -70q4 4 15.5 14.5t15.5 14.5l-109 70l-14 -15q-6 -6 -12 -14zM248 688l106 -72q12 8 35 21l-108 72 q-10 -8 -33 -21zM268 371q0 -111 78 -176.5t191 -65.5q117 0 187.5 64.5t70.5 181.5t-70 183.5t-188 66.5q-115 0 -192 -70.5t-77 -183.5zM295 1122l55 125l131 10l168 -325l-98 -70zM317 727l113 -74q14 4 51 11l-123 79q-18 -6 -41 -16zM360 1161l183 -119l-29 58l-141 90 zM375 1104l106 -109l97 -61l14 12l-12 25zM385 68h2l8 -9q-4 3 -10 9zM385 268q0 109 73.5 174.5t180.5 65.5q59 0 111 -23q25 -47 24 -110q0 -106 -65.5 -165.5t-171.5 -59.5q-82 0 -138 28q-14 37 -14 90zM401 756l136 -86q45 0 77 -8l-157 102q-18 -2 -56 -8zM418 1208 l57 -37l-20 41zM516 766l447 -291v41l-117 76v-4l-12 12l-246 160q-35 6 -72 6zM518 84l115 -72q31 10 51 21l-90 57q-29 -6 -57 -6h-19zM631 96l78 -51q10 6 39 29l-64 43q-25 -12 -53 -21zM711 129l57 -37l31 31l-51 35q-18 -18 -37 -29zM770 178l47 -31l25 31l-47 31 q-10 -16 -25 -31zM793 545q20 -31 30 -66l140 -90v43zM809 236l154 -101v47l-140 90zM834 307l129 -86v45l-125 80q0 -18 -4 -39zM834 436q2 -23 6 -49l123 -80v43zM846 637l117 -76v39l-117 78v-41zM846 723l117 -76v37l-97 61h-20v-22zM848 39l37 -23h78l-115 74v-51z M848 125l115 -76v49l-115 76v-49zM944 745l19 -12v12h-19z" />
<glyph unicode="&#xe1;" horiz-adv-x="1144" d="M33 387q0 -236 178 -369l59 -57q127 -123 332 -123q147 0 250 62l41 -41h231v843l-96 97v12h-248v-70q-72 51 -153 74l190 193l-63 141l-90 90l-9 18l-157 11l-183 -355l33 -24l66 -66q-141 -23 -242 -114q-139 -129 -139 -322zM53 387q0 188 133 307q127 117 318 117 q176 0 297 -111v91h207v-816h-203v86q-109 -106 -305 -106q-197 0 -322 117.5t-125 314.5zM98 358l146 -94l-17 66l-129 84v-56zM102 326q2 -12 15 -64l405 -264q25 2 76 6l-135 88q-135 25 -199 129zM102 438l123 -80v31q0 10 2 21l-116 77q-4 -16 -9 -49zM119 514l112 -76 q4 14 15 45l-111 72zM129 227q23 -57 57 -96l176 -115q55 -16 117 -18zM150 578l108 -68q6 16 21 35l-107 67q-14 -16 -22 -34zM193 637l104 -70q4 4 15.5 14.5t15.5 14.5l-109 70l-14 -15q-6 -6 -12 -14zM248 688l106 -72q12 8 35 21l-108 72q-10 -8 -33 -21zM268 371 q0 -111 78 -176.5t191 -65.5q117 0 187.5 64.5t70.5 181.5t-70 183.5t-188 66.5q-115 0 -192 -70.5t-77 -183.5zM317 727l113 -74q14 4 51 11l-123 79q-18 -6 -41 -16zM342 922l168 325l133 -10l55 -123l-258 -262zM385 68h2l8 -9q-4 3 -10 9zM385 268q0 109 73.5 174.5 t180.5 65.5q59 0 111 -23q25 -47 24 -110q0 -106 -65.5 -165.5t-171.5 -59.5q-82 0 -138 28q-14 37 -14 90zM399 936l37 -27l15 17l-43 28zM401 756l136 -86q45 0 77 -8l-157 102q-18 -2 -56 -8zM424 985l53 -35l25 27l-60 39zM459 1049l69 -45l23 24l-78 49zM492 1114 l88 -57l22 20l-96 64zM516 766l447 -291v41l-117 76v-4l-12 12l-246 160q-35 6 -72 6zM518 84l115 -72q31 10 51 21l-90 57q-29 -6 -57 -6h-19zM524 1178l107 -70l14 14l-6 15l-102 65zM631 96l78 -51q10 6 39 29l-64 43q-25 -12 -53 -21zM711 129l57 -37l31 31l-51 35 q-18 -18 -37 -29zM770 178l47 -31l25 31l-47 31q-10 -16 -25 -31zM793 545q20 -31 30 -66l140 -90v43zM809 236l154 -101v47l-140 90zM834 307l129 -86v45l-125 80q0 -18 -4 -39zM834 436q2 -23 6 -49l123 -80v43zM846 637l117 -76v39l-117 78v-41zM846 723l117 -76v37 l-97 61h-20v-22zM848 39l37 -23h78l-115 74v-51zM848 125l115 -76v49l-115 76v-49zM944 745l19 -12v12h-19z" />
<glyph unicode="&#xe2;" horiz-adv-x="1144" d="M33 387q0 -236 178 -369l59 -57q127 -123 332 -123q147 0 250 62l41 -41h231v843l-96 97v12h-164l-162 233l-81 82l-19 27h-231l-236 -344h17l63 -66q-14 -10 -43 -34q-139 -127 -139 -322zM53 387q0 188 133 307q127 117 318 117q176 0 297 -111v91h207v-816h-203v86 q-109 -106 -305 -106q-197 0 -322 117.5t-125 314.5zM98 358l146 -94l-17 66l-129 84v-56zM102 326q2 -12 15 -64l405 -264q25 2 76 6l-135 88q-135 25 -199 129zM102 438l123 -80v31q0 10 2 21l-116 77q-4 -16 -9 -49zM119 514l112 -76q4 14 15 45l-111 72zM129 227 q23 -57 57 -96l176 -115q55 -16 117 -18zM150 578l108 -68q6 16 21 35l-107 67q-14 -16 -22 -34zM174 829l207 304h211l211 -304h-209l-115 140l-112 -140h-193zM193 637l104 -70q4 4 15.5 14.5t15.5 14.5l-109 70l-14 -15q-6 -6 -12 -14zM248 688l106 -72q12 8 35 21 l-108 72q-10 -8 -33 -21zM262 881l12 -9h70l-61 39zM268 371q0 -111 78 -176.5t191 -65.5q117 0 187.5 64.5t70.5 181.5t-70 183.5t-188 66.5q-115 0 -192 -70.5t-77 -183.5zM301 940l64 -43l24 31l-67 41zM317 727l113 -74q14 4 51 11l-123 79q-18 -6 -41 -16zM342 997 l68 -43l22 25l-70 47zM383 1057l74 -47l20 24l-76 49zM385 68h2l8 -9q-4 3 -10 9zM385 268q0 109 73.5 174.5t180.5 65.5q59 0 111 -23q25 -47 24 -110q0 -106 -65.5 -165.5t-171.5 -59.5q-82 0 -138 28q-14 37 -14 90zM401 756l136 -86q45 0 77 -8l-157 102q-18 -2 -56 -8z M463 1090l192 -125l-47 65l-90 60h-55zM487 1028l70 -84l109 -72h53l-6 13zM516 766l447 -291v41l-117 76v-4l-12 12l-246 160q-35 6 -72 6zM518 84l115 -72q31 10 51 21l-90 57q-29 -6 -57 -6h-19zM567 827l2 2l2 -2h-4zM631 96l78 -51q10 6 39 29l-64 43q-25 -12 -53 -21z M711 129l57 -37l31 31l-51 35q-18 -18 -37 -29zM770 178l47 -31l25 31l-47 31q-10 -16 -25 -31zM793 545q20 -31 30 -66l140 -90v43zM809 236l154 -101v47l-140 90zM834 307l129 -86v45l-125 80q0 -18 -4 -39zM834 436q2 -23 6 -49l123 -80v43zM846 637l117 -76v39l-117 78 v-41zM846 723l117 -76v37l-97 61h-20v-22zM848 39l37 -23h78l-115 74v-51zM848 125l115 -76v49l-115 76v-49zM944 745l19 -12v12h-19z" />
<glyph unicode="&#xe3;" horiz-adv-x="1144" d="M33 387q0 -236 178 -369l59 -57q127 -123 332 -123q147 0 250 62l41 -41h231v843l-96 97v12h-108q51 43 106 129l-98 96q4 4 6 8l-176 113l-68 -98q-10 -10 -24 -17l-45 27q-16 8 -29 14l-23 13q-10 4 -24 14q-80 43 -150 43q-84 0 -155 -63q-29 -25 -119 -138l33 -22 l79 -78l82 -53q-76 -29 -143 -90q-139 -127 -139 -322zM53 387q0 188 133 307q127 117 318 117q176 0 297 -111v91h207v-816h-203v86q-109 -106 -305 -106q-197 0 -322 117.5t-125 314.5zM98 358l146 -94l-17 66l-129 84v-56zM102 326q2 -12 15 -64l405 -264q25 2 76 6 l-135 88q-135 25 -199 129zM102 438l123 -80v31q0 10 2 21l-116 77q-4 -16 -9 -49zM119 514l112 -76q4 14 15 45l-111 72zM129 227q23 -57 57 -96l176 -115q55 -16 117 -18zM150 578l108 -68q6 16 21 35l-107 67q-14 -16 -22 -34zM152 958q72 88 102 117q66 57 141 58 q72 0 142 -41l32 -19q31 -18 97 -53q27 6 41 29l55 79l141 -90q-115 -178 -241 -178q-55 0 -166 60l-103 55q-45 -6 -102 -105zM193 637l104 -70q4 4 15.5 14.5t15.5 14.5l-109 70l-14 -15q-6 -6 -12 -14zM219 973l60 -39q8 14 18 24l-57 39zM248 688l106 -72q12 8 35 21 l-108 72q-10 -8 -33 -21zM266 1026l60 -39q16 14 28 19l-63 43q-16 -10 -25 -23zM268 371q0 -111 78 -176.5t191 -65.5q117 0 187.5 64.5t70.5 181.5t-70 183.5t-188 66.5q-115 0 -192 -70.5t-77 -183.5zM317 727l113 -74q14 4 51 11l-123 79q-18 -6 -41 -16zM330 1073 l114 -76l72 -36q74 -39 115 -50l-271 174q-16 -4 -30 -12zM385 68h2l8 -9q-4 2 -10 9zM385 268q0 109 73.5 174.5t180.5 65.5q59 0 111 -23q25 -47 24 -110q0 -106 -65.5 -165.5t-171.5 -59.5q-82 0 -138 28q-14 37 -14 90zM401 756l136 -86q45 0 77 -8l-157 102 q-18 -2 -56 -8zM442 1081l263 -170q8 2 16 7l16 8l-82 51q-125 78 -213 104zM455 829q23 23 39 29l53 -29q-8 0 -23 2h-20h-25q-16 -2 -24 -2zM516 766l447 -291v41l-117 76v-4l-12 12l-246 160q-35 6 -72 6zM518 84l115 -72q31 10 51 21l-90 57q-29 -6 -57 -6h-19zM631 96 l78 -51q10 6 39 29l-64 43q-25 -12 -53 -21zM709 993l67 -43l19 19l-64 43q-8 -12 -22 -19zM711 129l57 -37l31 31l-51 35q-18 -18 -37 -29zM760 1047l65 -43q6 6 15 18l-68 45zM770 178l47 -31l25 31l-47 31q-10 -16 -25 -31zM776 743h4v-2q-2 0 -4 2zM793 545 q20 -31 30 -66l140 -90v43zM809 236l154 -101v47l-140 90zM834 307l129 -86v45l-125 80q0 -18 -4 -39zM834 436q2 -23 6 -49l123 -80v43zM846 637l117 -76v39l-117 78v-41zM846 723l117 -76v37l-97 61h-20v-22zM848 39l37 -23h78l-115 74v-51zM848 125l115 -76v49l-115 76 v-49zM944 745l19 -12v12h-19z" />
<glyph unicode="&#xe4;" horiz-adv-x="1144" d="M33 387q0 -236 178 -369l59 -57q127 -123 332 -123q147 0 250 62l41 -41h231v843l-96 97v12h-141l88 104l-96 99l2 4l-193 199l-151 -175l-168 175l-187 -211l172 -195q-98 -27 -182 -102q-139 -127 -139 -322zM53 387q0 188 133 307q127 117 318 117q176 0 297 -111v91 h207v-816h-203v86q-109 -106 -305 -106q-197 0 -322 117.5t-125 314.5zM98 358l146 -94l-17 66l-129 84v-56zM102 326q2 -12 15 -64l405 -264q25 2 76 6l-135 88q-135 25 -199 129zM102 438l123 -80v31q0 10 2 21l-116 77q-4 -16 -9 -49zM119 514l112 -76q4 14 15 45 l-111 72zM129 227q23 -57 57 -96l176 -115q55 -16 117 -18zM150 578l108 -68q6 16 21 35l-107 67q-14 -16 -22 -34zM193 637l104 -70q4 4 15.5 14.5t15.5 14.5l-109 70l-14 -15q-6 -6 -12 -14zM209 1006l160 182l166 -172l-162 -195zM248 688l106 -72q12 8 35 21l-108 72 q-10 -8 -33 -21zM268 371q0 -111 78 -176.5t191 -65.5q117 0 187.5 64.5t70.5 181.5t-70 183.5t-188 66.5q-115 0 -192 -70.5t-77 -183.5zM289 1028l129 -84l18 23l-129 84zM295 975l78 -86l18 24zM317 727l113 -74q14 4 51 11l-123 79q-18 -6 -41 -16zM334 1083l129 -84 l12 15l-35 35l-86 55zM385 68h2l8 -9q-4 2 -10 9zM385 268q0 109 73.5 174.5t180.5 65.5q59 0 111 -23q25 -47 24 -110q0 -106 -65.5 -165.5t-171.5 -59.5q-82 0 -138 28q-14 37 -14 90zM401 756l136 -86q45 0 77 -8l-157 102q-18 -2 -56 -8zM516 766l447 -291v41l-117 76 v-4l-12 12l-246 160q-35 6 -72 6zM518 84l115 -72q31 10 51 21l-90 57q-29 -6 -57 -6h-19zM530 1006l158 182l166 -172l-162 -195zM580 825l41 45l69 -77q-70 27 -110 32zM590 1006l10 -13l115 -75l20 24l-131 84zM631 96l78 -51q10 6 39 29l-64 43q-25 -12 -53 -21z M633 1057l129 -82l16 18l-127 84zM680 1112l55 -37l-45 47zM692 793l2 4l11 -11zM711 129l57 -37l31 31l-51 35q-18 -18 -37 -29zM770 178l47 -31l25 31l-47 31q-10 -16 -25 -31zM793 545q20 -31 30 -66l140 -90v43zM809 236l154 -101v47l-140 90zM834 307l129 -86v45 l-125 80q0 -18 -4 -39zM834 436q2 -23 6 -49l123 -80v43zM846 637l117 -76v39l-117 78v-41zM846 723l117 -76v37l-97 61h-20v-22zM848 39l37 -23h78l-115 74v-51zM848 125l115 -76v49l-115 76v-49zM942 469l4 -2l17 -16zM944 745l19 -12v12h-19z" />
<glyph unicode="&#xe8;" d="M41 383q0 -211 135 -332q12 -10 37 -31l70 -67q117 -113 338 -113q313 0 497 219l-98 97q2 2 3 4t3 4l-68 37h132v37q0 242 -121 358l-66 63q-10 14 -33 43q-53 55 -116 86l28 23l-178 344l-88 86l-10 23l-156 -13l-67 -147l260 -266h-29q-207 0 -340 -124t-133 -331z M61 383q0 199 127 316.5t326 117.5q221 0 340 -127t119 -350v-23h-694q12 -88 83 -137q66 -47 158 -47q193 0 295 121l178 -96q-170 -201 -475 -201q-205 0 -328 109q-129 112 -129 317zM106 352l142 -92q-6 20 -15 64l-127 82v-54zM109 322q2 -12 14 -64l397 -258 q39 0 80 4l-139 90q-131 20 -195 125zM109 434l122 -80v8h74l-188 121q-4 -16 -8 -49zM125 510l113 -74q4 14 14 43l-113 72q-8 -18 -14 -41zM133 223q20 -51 60 -96l155 -102q66 -20 133 -23zM152 578l110 -72q8 20 19 37l-107 69q-14 -16 -22 -34zM193 637l104 -70 q12 16 27 31l-105 68l-14 -15q-6 -6 -12 -14zM242 434l110 -72h80l-110 72h-80zM246 688l102 -67q16 16 33 24l-102 66q-18 -10 -33 -23zM297 477h451q-59 160 -238 160q-72 0 -129 -45t-84 -115zM307 1108l55 123l132 12l168 -325l-99 -72zM311 729l105 -65q29 10 47 14 l-109 70zM373 434l112 -72h76l-112 72h-76zM373 1147l180 -119l-29 55l-139 91zM387 1090l107 -111l96 -61l14 12l-12 26zM395 760l119 -78q45 0 88 -12l-156 100q-16 -2 -51 -10zM397 201h318q-82 -47 -195 -47q-68 0 -119 26q-4 13 -4 21zM430 1192l57 -35l-20 39z M504 774l401 -260q-8 29 -20 53l-312 205q-16 2 -30 2h-39zM506 434l110 -72h72l-113 72h-69zM514 88l123 -80q35 4 65 12l-110 72q-37 -4 -72 -4h-6zM522 498q45 22 90 22q53 0 99 -16q2 -2 2 -3t2 -3h-193zM629 96l104 -65q23 6 53 18l-100 64q-18 -6 -57 -17zM637 434 l111 -72h67l-110 72h-68zM668 754l172 -113q-63 78 -172 113zM717 125l96 -64l43 25l-94 61q-29 -16 -45 -22zM737 580q31 -37 47 -74l142 -90l-8 49zM768 434l111 -72h49v13l-129 84l6 -25h-37zM788 166l91 -62q12 8 34 29l-94 60q-14 -14 -31 -27z" />
<glyph unicode="&#xe9;" d="M41 383q0 -211 135 -332q12 -10 37 -31l70 -67q113 -113 338 -113q313 0 497 219l-98 97q2 2 3 4t3 4l-68 37h132v37q0 242 -121 358l-66 63q-10 14 -33 43q-82 88 -208 119l174 176l-64 142l-90 90l-8 18l-156 13l-184 -353l39 -28l49 -50q-174 -27 -277.5 -147.5 t-103.5 -298.5zM61 383q0 199 127 316.5t326 117.5q221 0 340 -127t119 -350v-23h-694q12 -88 83 -137q66 -47 158 -47q193 0 295 121l178 -96q-170 -201 -475 -201q-205 0 -328 109q-129 112 -129 317zM106 352l142 -92q-6 20 -15 64l-127 82v-54zM109 322q2 -12 14 -64 l397 -258q39 0 80 4l-139 90q-131 20 -195 125zM109 434l122 -80v8h74l-188 121q-4 -16 -8 -49zM125 510l113 -74q4 14 14 43l-113 72q-8 -18 -14 -41zM133 223q20 -51 60 -96l155 -102q66 -20 133 -23zM152 578l110 -72q8 20 19 37l-107 69q-14 -16 -22 -34zM193 637 l104 -70q12 16 27 31l-105 68l-14 -15q-6 -6 -12 -14zM242 434l110 -72h80l-110 72h-80zM246 688l102 -67q16 16 33 24l-102 66q-18 -10 -33 -23zM297 477h451q-59 160 -238 160q-72 0 -129 -45t-84 -115zM311 729l105 -65q29 10 47 14l-109 70zM360 913l170 326l132 -12 l55 -123l-258 -262zM373 434l112 -72h76l-112 72h-76zM395 760l119 -78q45 0 88 -12l-156 100q-16 -2 -51 -10zM397 201h318q-82 -47 -195 -47q-68 0 -119 26q-4 13 -4 21zM418 926l37 -27l16 16l-43 29zM444 975l52 -33l24 25l-59 39zM477 1040l70 -47l24 25l-79 51z M504 774l401 -260q-8 29 -20 53l-312 205q-16 2 -30 2h-39zM506 434l110 -72h72l-113 72h-69zM510 1104l88 -57l23 20l-97 63zM514 88l123 -80q35 4 65 12l-110 72q-37 -4 -72 -4h-6zM522 498q45 22 90 22q53 0 99 -16q2 -2 2 -3t2 -3h-193zM543 1167l106 -69l15 14l-7 14 l-100 66zM629 96l104 -65q23 6 53 18l-100 64q-18 -6 -57 -17zM637 434l111 -72h67l-110 72h-68zM668 754l172 -113q-63 78 -172 113zM717 125l96 -64l43 25l-94 61q-29 -16 -45 -22zM737 580q31 -37 47 -74l142 -90l-8 49zM768 434l111 -72h49v13l-129 84l6 -25h-37z M788 166l91 -62q12 8 34 29l-94 60q-14 -14 -31 -27z" />
<glyph unicode="&#xea;" d="M41 383q0 -211 135 -332q12 -10 37 -31l70 -67q117 -113 338 -113q313 0 497 219l-98 97q2 2 3 4t3 4l-68 37h132v37q0 242 -121 358l-66 63q-10 14 -33 43l-24 25h176l-270 379l-80 80l-21 28h-229l-281 -385h19l69 -71q-29 -18 -53 -43q-135 -129 -135 -332zM61 383 q0 199 127 316.5t326 117.5q221 0 340 -127t119 -350v-23h-694q12 -88 83 -137q66 -47 158 -47q193 0 295 121l178 -96q-170 -201 -475 -201q-205 0 -328 109q-129 112 -129 317zM106 352l142 -92q-6 20 -15 64l-127 82v-54zM109 322q2 -12 14 -64l397 -258q39 0 80 4 l-139 90q-131 20 -195 125zM109 434l122 -80v8h74l-188 121q-4 -16 -8 -49zM125 510l113 -74q4 14 14 43l-113 72q-8 -18 -14 -41zM133 223q20 -51 60 -96l155 -102q66 -20 133 -23zM152 578l110 -72q8 20 19 37l-107 69q-14 -16 -22 -34zM182 850l250 344h209l250 -350 h-211l-152 186l-149 -180h-197zM193 637l104 -70q12 16 27 31l-105 68l-14 -15q-6 -6 -12 -14zM242 434l110 -72h80l-110 72h-80zM246 688l102 -67q16 16 33 24l-102 66q-18 -10 -33 -23zM268 893h51l-34 22zM297 477h451q-59 160 -238 160q-72 0 -129 -45t-84 -115z M305 944l62 -39l22 27l-63 41zM311 729l105 -65q29 10 47 14l-109 70zM348 1001l66 -43l20 27l-67 43zM373 434l112 -72h76l-112 72h-76zM389 1061l70 -45l20 22l-71 47zM395 760l119 -78q45 0 88 -12l-156 100q-16 -2 -51 -10zM397 201h318q-82 -47 -195 -47q-68 0 -119 26 q-4 13 -4 21zM432 1118l74 -47l18 21l-75 51zM504 774l401 -260q-8 29 -20 53l-312 205q-16 2 -30 2h-39zM506 434l110 -72h72l-113 72h-69zM510 1149l203 -131l-47 67l-103 64h-53zM514 88l123 -80q35 4 65 12l-110 72q-37 -4 -72 -4h-6zM522 498q45 22 90 22q53 0 99 -16 q2 -2 2 -3t2 -3h-193zM545 1079l57 -71l184 -119h19l-27 39zM569 836l47 55l56 -68h8l8 -10q-47 14 -119 23zM629 96l104 -65q23 6 53 18l-100 64q-18 -6 -57 -17zM637 434l111 -72h67l-110 72h-68zM668 754l172 -113q-63 78 -172 113zM688 903l12 -14h11zM717 125l96 -64 l43 25l-94 61q-29 -16 -45 -22zM737 580q31 -37 47 -74l142 -90l-8 49zM768 434l111 -72h49v13l-129 84l6 -25h-37zM788 166l91 -62q12 8 34 29l-94 60q-14 -14 -31 -27z" />
<glyph unicode="&#xeb;" d="M41 383q0 -211 135 -332q12 -10 37 -31l70 -67q117 -113 338 -113q313 0 497 219l-98 97q2 2 3 4t3 4l-68 37h132v37q0 242 -121 358l-66 63q-10 14 -33 43l-14 17l-16 12l143 174l-96 101l2 2l-191 198l-155 -174l-166 174l-184 -209l159 -182q-102 -31 -176 -100 q-135 -129 -135 -332zM61 383q0 199 127 316.5t326 117.5q221 0 340 -127t119 -350v-23h-694q12 -88 83 -137q66 -47 158 -47q193 0 295 121l178 -96q-170 -201 -475 -201q-205 0 -328 109q-129 112 -129 317zM106 352l142 -92q-6 20 -15 64l-127 82v-54zM109 322 q2 -12 14 -64l397 -258q39 0 80 4l-139 90q-131 20 -195 125zM109 434l122 -80v8h74l-188 121q-4 -16 -8 -49zM125 510l113 -74q4 14 14 43l-113 72q-8 -18 -14 -41zM133 223q20 -51 60 -96l155 -102q66 -20 133 -23zM152 578l110 -72q8 20 19 37l-107 69q-14 -16 -22 -34z M193 637l104 -70q12 16 27 31l-105 68l-14 -15q-6 -6 -12 -14zM219 997l158 181l166 -172l-162 -195zM242 434l110 -72h80l-110 72h-80zM246 688l102 -67q16 16 33 24l-102 66q-18 -10 -33 -23zM297 477h451q-59 160 -238 160q-72 0 -129 -45t-84 -115zM297 1018l129 -84 l20 22l-129 86zM305 965l76 -86l20 24zM311 729l105 -65q29 10 47 14l-109 70zM344 1073l129 -84l10 15l-34 36l-84 54zM373 434l112 -72h76l-112 72h-76zM395 760l119 -78q45 0 88 -12l-156 100q-16 -2 -51 -10zM397 201h318q-82 -47 -195 -47q-68 0 -119 26q-4 13 -4 21z M504 774l401 -260q-8 29 -20 53l-312 205q-16 2 -30 2h-39zM506 434l110 -72h72l-113 72h-69zM514 88l123 -80q35 4 65 12l-110 72q-37 -4 -72 -4h-6zM522 498q45 22 90 22q53 0 99 -16q2 -2 2 -3t2 -3h-193zM539 997l159 181l164 -172l-162 -195zM598 997l10 -14l115 -76 l20 25l-129 84zM602 831l25 31l39 -43q-35 8 -64 12zM629 96l104 -65q23 6 53 18l-100 64q-18 -6 -57 -17zM637 434l111 -72h67l-110 72h-68zM643 1047l129 -82l16 20l-129 84zM668 754l172 -113q-63 78 -172 113zM690 1102l53 -37l-43 47zM717 125l96 -64l43 25l-94 61 q-29 -16 -45 -22zM737 580q31 -37 47 -74l142 -90l-8 49zM768 434l111 -72h49v13l-129 84l6 -25h-37zM788 166l91 -62q12 8 34 29l-94 60q-14 -14 -31 -27z" />
<glyph unicode="&#xec;" horiz-adv-x="520" d="M25 1133l280 -283l4 2l47 -45h-231v-852h12l96 -96h238v839l-59 60l114 80l-180 346l-88 86l-10 22l-154 -10zM49 1137l57 125l130 10l170 -326l-99 -69zM117 1176l180 -119l-29 57l-139 90zM131 1118l107 -108l94 -62l16 13l-14 24zM145 -25v811h209v-811h-209z M174 1223l57 -37l-22 41zM190 16h5l-5 4v-4zM190 43l41 -27h80v9l-121 79v-61zM190 127l121 -78v60l-121 79v-61zM190 215l121 -80v55l-121 78v-53zM190 299l121 -80v55l-121 80v-55zM190 383l121 -80v53l-121 80v-53zM190 467l121 -78v49l-121 80v-51zM190 553l121 -80v49 l-121 80v-49zM190 637l121 -78v47l-121 78v-47zM190 723l121 -78v45l-82 53h-39v-20zM293 743l18 -12v12h-18z" />
<glyph unicode="&#xed;" horiz-adv-x="520" d="M49 911l37 -26l74 -74l6 -4h-41v-852h12l96 -96h238v839l-96 97v12h-17l193 194l-64 142l-90 90l-8 18l-156 13zM76 918l170 325l131 -12l55 -123l-258 -262zM133 930l37 -27l16 17l-43 28zM145 -25v811h209v-811h-209zM160 979l51 -33l25 25l-60 41zM190 16h5l-5 4v-4z M190 43l41 -27h80v9l-121 79v-61zM190 127l121 -78v60l-121 79v-61zM190 215l121 -80v55l-121 78v-53zM190 299l121 -80v55l-121 80v-55zM190 383l121 -80v53l-121 80v-53zM190 467l121 -78v49l-121 80v-51zM190 553l121 -80v49l-121 80v-49zM190 637l121 -78v47l-121 78 v-47zM190 723l121 -78v45l-82 53h-39v-20zM193 1044l69 -45l25 23l-80 51zM225 1108l88 -57l23 20l-96 64zM258 1171l107 -69l14 14l-6 14l-101 66zM293 743l18 -12v12h-18z" />
<glyph unicode="&#xee;" horiz-adv-x="520" d="M-135 825h18l97 -96h145v-774h12l96 -96h238v839l-96 97v12h-105l68 78l55 -66h8l97 -96h245l-270 379l-80 80l-20 28h-232zM-94 846l246 344h210l250 -350h-211l-151 186l-152 -180h-192zM-8 889h47l-33 22zM27 940l61 -39l23 27l-64 41zM68 997l65 -43l23 27l-68 43z M111 1057l69 -45l21 22l-72 47zM145 -25v811h209v-811h-209zM152 1114l73 -49l21 22l-78 50zM190 16h5l-5 4v-4zM190 43l41 -27h80v9l-121 79v-61zM190 127l121 -78v60l-121 79v-61zM190 215l121 -80v55l-121 78v-53zM190 299l121 -80v55l-121 80v-55zM190 383l121 -80v53 l-121 80v-53zM190 467l121 -78v49l-121 80v-51zM190 553l121 -80v49l-121 80v-49zM190 637l121 -78v47l-121 78v-47zM190 723l121 -78v45l-82 53h-39v-20zM231 1145l201 -131l-45 65l-104 66h-52zM266 1075l58 -71l184 -119h18l-26 37zM293 743l18 -12v12h-18zM410 899 l10 -14h12z" />
<glyph unicode="&#xef;" horiz-adv-x="520" d="M-90 1030l186 -213l4 4l25 -24v-842h12l96 -96h238v839l-96 97v12h-109l78 90l72 -80l4 4l98 -98l180 217l-96 100l2 2l-190 199l-154 -174l-168 174zM-63 1030l155 182l166 -172l-162 -194zM12 1053l129 -84l21 22l-129 84zM20 999l76 -86l21 25zM59 1106l129 -82l11 12 l-35 37l-84 55zM145 -25v811h209v-811h-209zM190 16h5l-5 4v-4zM190 43l41 -27h80v9l-121 79v-61zM190 127l121 -78v60l-121 79v-61zM190 215l121 -80v55l-121 78v-53zM190 299l121 -80v55l-121 80v-55zM190 383l121 -80v53l-121 80v-53zM190 467l121 -78v49l-121 80v-51z M190 553l121 -80v49l-121 80v-49zM190 637l121 -78v47l-121 78v-47zM190 723l121 -78v45l-82 53h-39v-20zM254 1030l160 182l164 -172l-162 -194zM293 743l18 -12v12h-18zM313 1030l11 -12l114 -76l21 23l-129 84zM358 1081l129 -82l17 19l-129 84zM406 1135l53 -35l-43 47z " />
<glyph unicode="&#xf1;" d="M98 -45h13l96 -96h244v540q0 41 71 78q63 35 109 35q10 0 31 -4v-553h12l96 -96h250v565q0 111 -78 188l-55 56q-20 33 -53 61q102 33 202 189l-98 96q4 4 6 8l-174 111l-70 -95q-12 -16 -22 -18l-45 27q-16 8 -29 14l-22 12q-10 4 -25 14q-80 41 -151 41q-80 0 -152 -59 q-31 -27 -123 -141l33 -23l80 -78l24 -16h-170v-856zM119 -25v816h211v-76q100 90 239 90q133 0 228 -72q106 -80 106 -207v-551h-221v555q0 37 -56.5 68t-97.5 31q-47 0 -120.5 -40t-73.5 -87v-527h-215zM162 934l65 78q25 31 39 41q63 55 140 55q76 0 143 -39l33 -18 q31 -18 94 -54q23 4 41 29l57 78l139 -88q-115 -178 -241 -178q-49 0 -164 59l-102 53q-43 -4 -105 -104zM164 16h33l-33 23v-23zM164 59l67 -43h58v23l-125 82v-62zM164 147l125 -84v60l-125 82v-58zM164 231l125 -81v55l-125 82v-56zM164 317l125 -81v53l-125 82v-54z M164 399l125 -82v56l-125 80v-54zM164 485l125 -82v52l-125 80v-50zM164 571l125 -82v13q0 16 6 33l-131 86v-50zM164 655l145 -94q4 8 13 17l14 14l-35 22l-16 -18v29l-121 77v-47zM164 741l121 -79v45l-62 38h-59v-4zM231 948l60 -37q8 14 18 25l-57 37zM279 1004l57 -39 q16 14 29 18l-64 43zM322 639l40 -27q16 14 35 23l-51 31q-8 -6 -24 -27zM340 1051l117 -76l71 -39q41 -23 115 -49l-270 174q-20 -4 -33 -10zM371 690l63 -39q14 4 43 15l-74 49q-16 -8 -32 -25zM434 733l94 -61q59 0 124 -37t73 -90l133 -86v43l-381 248q-14 -6 -43 -17z M453 1059l262 -170q18 4 33 12l-82 53q-37 23 -113 64q-51 27 -100 41zM473 813q17 17 33 21l18 -11q-16 -2 -51 -10zM526 760l332 -217l-4 24q-2 12 -6 25l-260 170h-41q-10 0 -21 -2zM686 741l121 -79q-47 53 -121 79zM721 971l65 -43q4 4 10.5 9t10.5 9l-66 41 q-8 -8 -20 -16zM727 33l25 -17h82l-107 70v-53zM727 119l131 -86v51l-131 88v-53zM727 207l131 -88v49l-131 86v-47zM727 289l131 -84v45l-131 86v-47zM727 375l131 -84v43l-131 86v-45zM727 461l131 -86v45l-131 86v-45zM770 1024l66 -43q6 6 14 18l-66 45z" />
<glyph unicode="&#xf2;" horiz-adv-x="1144" d="M43 377q0 -211 160 -336q10 -10 16 -14l49 -47q14 -12 41 -37q139 -109 353 -109q207 0 350 111q156 121 155 327q0 186 -116 303l-19 19q2 -2 2 -3t2 -3l-32 33q-80 125 -240 180l18 12l-178 346l-88 86l-10 23l-156 -11l-67 -147l268 -274h-2q-213 0 -369 -129h2 q-139 -127 -139 -330zM63 377q0 205 144 325q133 113 342 113q213 0 352 -110q150 -121 150 -330q0 -199 -150 -316q-139 -109 -342 -108q-207 0 -346 106q-150 117 -150 320zM109 352l151 -98q-16 37 -22 68l-129 81v-51zM111 319l16 -65l403 -258q10 -2 29 -2h27 q14 0 28 2l-168 108q-94 27 -155 101zM111 434l120 -80v56l-110 71q-8 -27 -10 -47zM129 508l107 -70q2 20 12 43l-103 68zM141 219q35 -78 92 -117l91 -61q70 -35 159 -43zM158 573l102 -65q6 16 21 35l-101 65q-14 -16 -22 -35zM201 633l100 -68l29 29l-103 65 q-14 -12 -26 -26zM254 680l104 -66q12 8 35 21l-104 70q-20 -10 -35 -25zM274 385q0 -119 82 -185.5t203 -66.5q117 0 199 62q92 68 92 180q0 119 -81 186.5t-202 67.5q-119 0 -200 -62q-93 -67 -93 -182zM307 1114l55 123l132 10l168 -325l-99 -70zM324 723l110 -72 q20 8 45 13l-114 75zM373 1153l180 -121l-29 58l-139 90zM387 1094l107 -109l96 -61l14 12l-12 25zM391 283q0 109 88 172q78 57 191 57q84 0 135 -29q25 -47 24 -108q0 -100 -84 -164q-76 -57 -186 -57q-92 0 -151 32q-17 40 -17 97zM406 752l124 -80q10 2 19 2h18 q20 0 31 -2l-139 92q-25 -2 -53 -12zM430 1198l57 -37l-20 41zM510 770l178 -115q84 -29 137 -90l176 -112q-4 25 -12 49l-414 268h-65zM512 90l139 -90q33 6 62 12l-119 78q-10 -2 -19 -2h-40q-12 0 -23 2zM631 94l112 -71q23 8 50 22l-103 66l-28 -9q-14 -4 -31 -8z M655 762l306 -199q-20 41 -54 74l-149 96q-53 20 -103 29zM721 123l98 -64q25 10 41 25l-98 61q-20 -14 -41 -22zM788 164l95 -62q4 4 15 14.5t15 14.5l-94 62q-4 -4 -15 -14.5t-16 -14.5zM840 215l94 -61q12 14 22 32l-94 64q-8 -18 -22 -35zM870 494q6 -18 17 -56l121 -76 v25q0 8 -2 19zM877 279l96 -62q4 10 14 33l-100 65q-4 -23 -10 -36zM893 352l104 -65l7 37l-111 73v-45z" />
<glyph unicode="&#xf3;" horiz-adv-x="1144" d="M43 377q0 -211 160 -336q10 -10 16 -14l49 -47q14 -12 41 -37q139 -109 353 -109q207 0 350 111q156 121 155 327q0 190 -116 303l-52 50q-104 154 -313 198l162 164l-66 141l-90 89l-8 20l-156 12l-182 -352l35 -25l45 -49q-139 -29 -246 -116h2q-139 -127 -139 -330z M63 377q0 205 144 325q133 113 342 113q213 0 352 -110q150 -121 150 -330q0 -199 -150 -316q-139 -109 -342 -108q-207 0 -346 106q-150 117 -150 320zM109 352l151 -98q-16 37 -22 68l-129 81v-51zM111 319l16 -65l403 -258q10 -2 29 -2h27q14 0 28 2l-168 108 q-94 27 -155 101zM111 434l120 -80v56l-110 71q-8 -27 -10 -47zM129 508l107 -70q2 20 12 43l-103 68zM141 219q35 -78 92 -117l91 -61q70 -35 159 -43zM158 573l102 -65q6 16 21 35l-101 65q-14 -16 -22 -35zM201 633l100 -68l29 29l-103 65q-14 -12 -26 -26zM254 680 l104 -66q12 8 35 21l-104 70q-20 -10 -35 -25zM274 385q0 -119 82 -185.5t203 -66.5q117 0 199 62q92 68 92 180q0 119 -81 186.5t-202 67.5q-119 0 -200 -62q-93 -67 -93 -182zM324 723l110 -72q20 8 45 13l-114 75zM373 903l168 326l131 -12l57 -123l-258 -263zM391 283 q0 109 88 172q78 57 191 57q84 0 135 -29q25 -47 24 -108q0 -100 -84 -164q-76 -57 -186 -57q-92 0 -151 32q-17 40 -17 97zM406 752l124 -80q10 2 19 2h18q20 0 31 -2l-139 92q-25 -2 -53 -12zM430 915l35 -26l16 16l-43 29zM455 965l51 -33l26 24l-61 41zM487 1030l72 -45 l23 23l-78 51zM510 770l178 -115q84 -29 137 -90l176 -112q-4 25 -12 49l-414 268h-65zM512 90l139 -90q33 6 62 12l-119 78q-10 -2 -19 -2h-40q-12 0 -23 2zM520 1094l88 -58l23 21l-96 63zM553 1157l109 -70l14 15l-6 14l-103 66zM631 94l112 -71q23 8 50 22l-103 66 l-28 -9q-14 -4 -31 -8zM655 762l306 -199q-20 41 -54 74l-149 96q-53 20 -103 29zM721 123l98 -64q25 10 41 25l-98 61q-20 -14 -41 -22zM788 164l95 -62q4 4 15 14.5t15 14.5l-94 62q-4 -4 -15 -14.5t-16 -14.5zM840 215l94 -61q12 14 22 32l-94 64q-8 -18 -22 -35z M870 494q6 -18 17 -56l121 -76v25q0 8 -2 19zM877 279l96 -62q4 10 14 33l-100 65q-4 -23 -10 -36zM893 352l104 -65l7 37l-111 73v-45z" />
<glyph unicode="&#xf4;" horiz-adv-x="1144" d="M43 377q0 -211 160 -336q10 -10 16 -14l49 -47q14 -12 41 -37q139 -109 353 -109q207 0 350 111q156 121 155 327q0 186 -116 303l-19 19q2 -2 2 -3t2 -3l-32 33q-33 47 -80 88h116l-270 378l-80 80l-20 29h-232l-278 -385h18l60 -63q-18 -14 -58 -41h2 q-139 -127 -139 -330zM63 377q0 205 144 325q133 113 342 113q213 0 352 -110q150 -121 150 -330q0 -199 -150 -316q-139 -109 -342 -108q-207 0 -346 106q-150 117 -150 320zM109 352l151 -98q-16 37 -22 68l-129 81v-51zM111 319l16 -65l403 -258q10 -2 29 -2h27 q14 0 28 2l-168 108q-94 27 -155 101zM111 434l120 -80v56l-110 71q-8 -27 -10 -47zM129 508l107 -70q2 20 12 43l-103 68zM141 219q35 -78 92 -117l91 -61q70 -35 159 -43zM158 573l102 -65q6 16 21 35l-101 65q-14 -16 -22 -35zM201 633l100 -68l29 29l-103 65 q-14 -12 -26 -26zM201 831l248 345h210l250 -351h-211l-151 187l-152 -181h-194zM254 680l104 -66q12 8 35 21l-104 70q-20 -10 -35 -25zM274 385q0 -119 82 -185.5t203 -66.5q117 0 199 62q92 68 92 180q0 119 -81 186.5t-202 67.5q-119 0 -200 -62q-93 -67 -93 -182z M287 874h49l-33 23zM324 723l110 -72q20 8 45 13l-114 75zM324 926l61 -39l23 26l-64 41zM365 983l65 -43l23 27l-68 43zM391 283q0 109 88 172q78 57 191 57q84 0 135 -29q25 -47 24 -108q0 -100 -84 -164q-76 -57 -186 -57q-92 0 -151 32q-17 40 -17 97zM406 752l124 -80 q10 2 19 2h18q20 0 31 -2l-139 92q-25 -2 -53 -12zM408 1042l69 -45l19 23l-72 47zM449 1100l73 -49l21 22l-78 49zM510 770l178 -115q84 -29 137 -90l176 -112q-4 25 -12 49l-414 268h-65zM512 90l139 -90q33 6 62 12l-119 78q-10 -2 -19 -2h-40q-12 0 -23 2zM528 1130 l201 -131l-45 66l-104 65h-52zM563 1061l58 -72l184 -119h18l-28 37zM604 834l31 36l39 -45q-12 2 -70 9zM631 94l112 -71q23 8 50 22l-103 66l-28 -9q-14 -4 -31 -8zM655 762l306 -199q-20 41 -54 74l-149 96q-53 20 -103 29zM707 885l10 -15h12zM721 123l98 -64 q25 10 41 25l-98 61q-20 -14 -41 -22zM788 164l95 -62q4 4 15 14.5t15 14.5l-94 62q-4 -4 -15 -14.5t-16 -14.5zM840 215l94 -61q12 14 22 32l-94 64q-8 -18 -22 -35zM870 494q6 -18 17 -56l121 -76v25q0 8 -2 19zM877 279l96 -62q4 10 14 33l-100 65q-4 -23 -10 -36z M893 352l104 -65l7 37l-111 73v-45z" />
</font>
</defs>
</svg>
