<svg xmlns="http://www.w3.org/2000/svg"><defs><font-face units-per-em="512" ascent="480" descent="-32" /><missing-glyph horiz-adv-x="512" /><glyph unicode="&#x20;" d="" horiz-adv-x="256" /><glyph unicode="&#xe600;" d="M436.608 435.568c-65.68 31.424-144.064 2.832-174.976-63.84-2.16-4.64-4.016-10.448-5.664-17.2-1.648 6.752-3.504 12.56-5.632 17.2-30.944 66.672-109.248 95.264-174.944 63.84-65.6-31.424-93.744-110.96-62.832-177.648 30.928-66.672 243.344-257.84 243.344-257.84s0.016 0.224 0.048 0.576c0.048-0.352 0.064-0.576 0.064-0.576s212.512 191.168 243.44 257.84c30.896 66.688 2.832 146.224-62.848 177.648z" /><glyph unicode="&#xe601;" d="M362.533 425.051c-49.81-49.792-20.809-20.772-20.809-20.772l96.402-96.384c0 0-31.067-31.049 20.772 20.773s-46.611 146.194-96.365 96.384zM320.147 383.671l-227.987-227.986 0.329-0.293-54.071-146.524 149.833 50.688 0.311-0.311 0.786 0.805v0.019l227.2 227.2-96.403 96.403zM179.036 104.375l-78.811-33.28 37.047 75.044 38.345 38.363 41.764-41.783-38.345-38.345z" /><glyph unicode="&#xe602;" d="M255.952 480l-255.952-448h512l-256.048 448zM287.12 353.808v-65.36l-16.688-128.544h-27.088l-18.032 128.544-0.992 65.36h62.8zM224.096 64.112v64.112h64.24v-64.112h-64.24z" /><glyph unicode="&#xe603;" d="M363.923 112.019c-29.805-28.764-68.663-43.502-108.013-43.538-35.145 0.036-70.199 11.757-99.347 35.932-37.029 30.829-56.046 74.971-56.1 119.661 0 7.442 0.549 14.829 1.591 22.18l-60.672-11.374c-0.164-3.602-0.292-7.186-0.292-10.807-0.036-61.495 26.459-122.899 77.549-165.285 40.009-33.335 88.887-49.683 137.252-49.683h0.128c56.211 0 112.164 22.217 153.746 64.914l39.844-39.772 0.311 124.745-131.803 0.348 45.805-47.324zM393.344 389.23c-40.046 33.335-88.923 49.664-137.271 49.664-55.808 0-111.397-21.833-152.923-63.945l-37.687 34.798-0.677-120.722 130.487-0.75-46.336 48.493c29.641 28.252 68.188 42.697 107.154 42.733 35.108-0.036 70.217-11.721 99.328-35.932 37.029-30.829 56.046-74.935 56.137-119.698 0-6.437-0.457-12.892-1.225-19.365l60.435 11.593c0.036 2.615 0.164 5.212 0.164 7.772-0.036 61.549-26.514 122.899-77.587 165.357z" /><glyph unicode="&#xe604;" d="M95.792-32h320.4v320.080h-320.4v-320.080zM318.336 228.512c0 9.904 8.032 17.904 17.952 17.904 9.904 0 17.936-8 17.936-17.904v-188.736c0-9.888-8.032-17.92-17.936-17.92-9.92 0-17.952 8.032-17.952 17.92v188.736zM238.048 228.512c0 9.904 8.032 17.904 17.92 17.904s17.92-8 17.92-17.904v-188.736c0-9.888-8.032-17.92-17.92-17.92s-17.92 8.032-17.92 17.92v188.736zM157.6 228.512c0 9.904 8 17.904 17.92 17.904 9.888 0 17.92-8 17.92-17.904v-188.736c0-9.888-8.032-17.92-17.92-17.92-9.92 0-17.92 8.032-17.92 17.92v188.736zM423.216 416.528h-71.232v10.896c0 29.040-19.76 52.576-48.8 52.576h-94.72c-29.008 0-48.48-23.536-48.48-52.576v-10.896h-71.232c-13.696 0-24.768-11.088-24.768-24.752v-71.984h384v71.984c0 13.664-11.040 24.752-24.768 24.752zM319.936 416.528h-128.192v14.704c0.032 9.248 7.488 16.736 16.72 16.768h94.72c9.216-0.032 16.704-7.52 16.752-16.768v-14.704z" /><glyph unicode="&#xe605;" d="M511.52 278.496c-1.312 4.096-5.152 6.88-9.44 6.88h-180.704l-55.952 171.744c-1.344 4.096-5.136 6.88-9.44 6.88-4.272 0-8.096-2.784-9.44-6.88l-56.24-171.744h-180.384c-4.256 0-8.096-2.784-9.44-6.88-1.312-4.064 0.128-8.592 3.584-11.088l145.984-106.32-56.256-172.72c-1.328-4.096 0.128-8.592 3.616-11.12 3.456-2.496 8.208-2.496 11.664 0l146.896 106.624 146.64-106.624c1.792-1.28 3.76-1.936 5.808-1.936 2.096 0 4.144 0.656 5.856 1.936 3.568 2.528 4.96 7.008 3.6 11.12l-56.24 172.72 146.288 106.32c3.488 2.496 4.928 6.992 3.6 11.088z" /><glyph unicode="&#xe606;" d="M473.015 200.375v49.371l-7.003 2.268-52.882 17.244-14.116 34.103 27.154 57.381-34.908 34.907-6.583-3.309-49.555-25.198-34.103 14.117-21.394 59.757h-49.371l-2.286-6.985-17.262-52.882-34.048-14.099-57.399 27.136-34.925-34.926 3.309-6.564 25.18-49.591-14.080-34.029-59.758-21.412v-49.39l6.949-2.249 52.901-17.28 14.099-34.067-27.118-57.38 34.925-34.925 6.528 3.328 49.591 25.197 34.066-14.116 21.394-59.757h49.371l2.286 6.985 17.28 52.882 34.029 14.116 57.399-27.136 34.944 34.908-3.346 6.546-25.197 49.572 14.116 34.067 59.813 21.413zM256 154.861c-38.199 0-69.156 30.957-69.156 69.139 0 38.217 30.958 69.156 69.156 69.156 38.163 0 69.156-30.94 69.156-69.156 0-38.18-31.012-69.139-69.156-69.139z" /><glyph unicode="&#xe607;" d="M31.008 351.36l224.992-239.984 225.040 239.984z" /><glyph unicode="&#xe608;" d="M383.415 226.596l-212.571 218.587-37.285-34.981 178.286-183.277-183.278-188.452 36.48-35.657 205.659 211.456-0.201 0.201z" /><glyph unicode="&#xe609;" d="M52.928 345.2h406.144c11.056 0 20 8.976 20 20.016 0 11.072-8.944 20.032-20 20.032h-406.144c-11.056 0-20.016-8.96-20.016-20.032 0-11.040 8.96-20.016 20.016-20.016zM459.072 244.016h-406.144c-11.056 0-20.016-8.944-20.016-20.016s8.96-20.016 20.016-20.016h406.144c11.056 0 20 8.944 20 20.016s-8.928 20.016-20 20.016zM459.072 102.8h-406.144c-11.056 0-20.016-8.96-20.016-20.032s8.96-20.016 20.016-20.016h406.144c11.056 0 20 8.944 20 20.016s-8.928 20.032-20 20.032z" /><glyph unicode="&#xe60a;" d="M256.144 480c-89.12 0-161.344-72.24-161.344-161.376 0-89.104 161.344-350.624 161.344-350.624s161.376 261.52 161.376 350.624c0 89.136-72.192 161.376-161.376 161.376zM256.144 269.616c-27.056 0-49.024 21.952-49.024 49.008 0 27.072 21.984 49.024 49.024 49.024 27.104 0 49.088-21.952 49.088-49.024 0-27.056-21.984-49.008-49.088-49.008z" /><glyph unicode="&#xe60b;" d="M0 256.144h224.032v223.808h-224.032v-223.808zM288.128 479.952v-95.728h224.176v95.728h-224.176zM0-32h224.032v223.808h-224.032v-223.808zM288.128 256.144h224.176v95.728h-224.176v-95.728zM288.128 96.080h224.176v95.728h-224.176v-95.728zM288.128-32h224.176v95.712h-224.176v-95.712z" /><glyph unicode="&#xe60c;" d="M332.764 119.003c-9.216 0-45.495-56.027-65.243-56.027-5.284 0-7.863 4.644-7.863 9.216 0 10.569 7.241 27.044 11.154 36.937l47.397 128.384c23.772 63.891-6.546 81.024-34.871 81.024-38.217 0-72.448-19.091-98.779-44.124-8.576-8.576-37.523-36.206-37.523-48.091 0-3.932 3.931-8.576 8.576-8.576 11.813 0 43.447 57.308 67.803 57.308 5.285 0 11.191-5.924 6.583-17.755l-46.080-115.968c-4.644-11.154-27.044-65.171-27.044-96.786 0-25.015 16.476-36.188 40.192-36.188 66.523 0 143.543 81.645 143.543 100.755-0.019 5.925-4.589 9.892-7.844 9.892zM319.543 439.661c-28.947 0-54.016-23.68-54.016-52.663 0-27.008 17.792-44.8 44.837-44.8 29.55 0 54.62 22.4 54.62 52.7 0 27.008-19.072 44.764-45.44 44.764z" /><glyph unicode="&#xe60d;" d="M0 351.552h128.464v128.448h-128.464v-128.448zM191.76 351.552h128.528v128.448h-128.528v-128.448zM383.568 480v-128.448h128.496v128.448h-128.496zM0 159.744h128.464v128.464h-128.464v-128.464zM191.76 159.744h128.528v128.464h-128.528v-128.464zM383.568 159.744h128.496v128.464h-128.496v-128.464zM0-32h128.464v128h-128.464v-128zM191.76-32h128.528v128h-128.528v-128zM383.568-32h128.496v128h-128.496v-128z" /><glyph unicode="&#xe60e;" d="M255.296 450.464c-124.688 0-225.76-101.072-225.76-225.76 0-124.672 101.072-225.76 225.76-225.76 124.672 0 225.76 101.088 225.76 225.76 0 124.688-101.072 225.76-225.76 225.76zM231.936 94.576l-125.936 128.032 32.208 25.936 72.864-57.088c29.76 35.424 96 106.032 187.312 161.984l7.696-17.792c-83.808-77.088-152.48-185.6-174.144-241.072z" /><glyph unicode="&#xe60f;" d="M0 241.12h512v-34.064h-512v34.064z" /><glyph unicode="&#xe610;" d="M478.263 426.149c-142.555-87.388-245.98-197.632-292.48-252.947l-113.792 89.161-50.267-40.539 196.663-199.973c33.847 86.674 141.056 256.11 271.872 376.485l-11.995 27.813z" /><glyph unicode="&#xe611;" d="M220.576 83.248c-26.352 0-47.696-21.376-47.696-47.712s21.344-47.664 47.696-47.664c26.336 0 47.696 21.328 47.696 47.664s-21.36 47.712-47.696 47.712zM385.344 83.248c-26.4 0-47.76-21.376-47.76-47.712s21.344-47.664 47.76-47.664c26.288 0 47.632 21.328 47.632 47.664s-21.344 47.712-47.632 47.712zM459.856 350.32c-122.384 0-319.856 0-319.856 0s-19.152 52.608-37.392 84.864c-14.128 24.976-43.344 23.968-43.344 23.968-20.096 0-33.024-12.288-33.024-32.4 0-20.096 15.92-36.16 36.032-36.16l8.496-0.080 95.2-262.192 266.832-0.208c0 0 48.784 199.632 46.272 191.888 8.944 27.68-2.448 30.32-19.216 30.32zM166.528 257.344c-14 0-25.36 11.36-25.36 25.376s11.36 25.392 25.36 25.392c14.016 0 25.36-11.376 25.36-25.392s-11.344-25.376-25.36-25.376zM220.768 172.64c-14.016 0-25.376 11.376-25.376 25.392 0 13.984 11.36 25.36 25.376 25.36 14 0 25.36-11.376 25.36-25.36 0.016-14.016-11.36-25.392-25.36-25.392zM248.656 257.344c-14 0-25.376 11.36-25.376 25.376s11.36 25.392 25.376 25.392c14 0 25.36-11.376 25.36-25.392s-11.36-25.376-25.36-25.376zM302.896 172.64c-14 0-25.36 11.376-25.36 25.392 0 13.984 11.36 25.36 25.36 25.36 14.048 0 25.44-11.376 25.44-25.36 0-14.016-11.392-25.392-25.44-25.392zM330.848 257.344c-14 0-25.408 11.36-25.408 25.376s11.408 25.392 25.408 25.392c14 0 25.328-11.376 25.328-25.392s-11.328-25.376-25.328-25.376zM385.040 172.64c-13.984 0-25.328 11.376-25.328 25.392 0 13.984 11.36 25.36 25.328 25.36 14 0 25.408-11.376 25.408-25.36 0-14.016-11.408-25.392-25.408-25.392zM412.96 257.344c-14.016 0-25.36 11.36-25.36 25.376s11.344 25.392 25.36 25.392c14.048 0 25.376-11.376 25.376-25.392s-11.328-25.376-25.376-25.376z" /><glyph unicode="&#xe612;" d="M142.992 332.768c10.352 0 18.8 8.4 18.8 18.8v67.68c0 10.368-8.432 18.784-18.8 18.784-10.384 0-18.8-8.4-18.8-18.784v-67.68c0-10.4 8.416-18.8 18.8-18.8zM394.384 383.344v-0.32c7.776-6.944 12.72-17.008 12.72-28.288 0-20.816-16.88-37.712-37.744-37.712s-37.76 16.912-37.76 37.712c0 11.264 4.976 21.344 12.784 28.288v0.32h-176.416v-0.32c7.824-6.944 12.768-17.008 12.768-28.288 0-20.816-16.896-37.712-37.728-37.712-20.864 0-37.744 16.912-37.744 37.712 0 11.264 4.928 21.344 12.752 28.288v0.32h-85.536v-383.6h447.248v383.6h-85.344zM448.72 32.832h-383.152v254.72h383.152v-254.72zM369.36 332.768c10.384 0 18.784 8.4 18.784 18.8v67.68c0 10.368-8.4 18.784-18.784 18.784-10.352 0-18.816-8.4-18.816-18.784v-67.68c0-10.4 8.464-18.8 18.816-18.8zM349.216 184.128h-47.936v-47.872h47.952v47.872zM349.216 256.112h-47.936v-47.824h47.952v47.824zM349.216 114.112h-47.936v-47.872h47.952v47.872zM416.656 256.112h-47.92v-47.824h47.92v47.824zM416.656 184.128h-47.92v-47.872h47.92v47.872zM281.696 256.112h-47.872v-47.824h47.872v47.824zM146.8 184.128h-47.856v-47.872h47.856v47.872zM214.288 114.112h-47.888v-47.872h47.872v47.872zM146.8 114.112h-47.856v-47.872h47.856v47.872zM281.696 184.128h-47.872v-47.872h47.872v47.872zM281.696 114.112h-47.872v-47.872h47.872v47.872zM214.288 184.128h-47.888v-47.872h47.872v47.872zM214.288 256.112h-47.888v-47.824h47.872v47.824z" /><glyph unicode="&#xe613;" d="M256 444.727l-200.814-243.291h131.054v-198.144h139.575v198.144h131.017z" /><glyph unicode="&#xe614;" d="M325.779 246.583v198.144h-139.593v-198.144h-130.999l200.832-243.292 200.813 243.292z" /><glyph unicode="&#xe615;" d="M487.232 35.872c0 0-78.176 80.288-109.328 111.312-13.552 13.552-22.832 22.752-22.832 22.752 10.56 15.088 18.816 31.616 24.704 49.392 5.84 17.76 8.752 36.496 8.752 56.192 0 25.36-4.816 49.2-14.448 71.552-9.664 22.32-22.784 41.824-39.456 58.432-16.64 16.688-36.144 29.824-58.496 39.472-22.336 9.664-46.176 14.496-71.536 14.496-25.344 0-49.184-4.848-71.552-14.496-22.336-9.648-41.712-22.784-58.192-39.472-16.416-16.608-29.52-36.128-39.152-58.448-9.664-22.336-14.496-46.192-14.496-71.552 0-25.376 4.848-49.216 14.496-71.552 9.632-22.304 22.72-41.792 39.152-58.464 16.464-16.608 35.856-29.776 58.176-39.456 22.368-9.664 46.208-14.448 71.552-14.448 19.68 0 38.416 2.88 56.208 8.768 17.776 5.856 34.288 14.144 49.36 24.72 0 0 8.576-8.512 21.2-21.216 34.512-34.64 110.416-113.392 110.416-113.392 11.456-4.992 29.712 0.336 38.848 8.064 9.040 7.776 14.096 23.984 6.624 37.344zM327.792 223.28c-7.008-16.192-16.576-30.336-28.624-42.336-12.096-12.048-26.192-21.616-42.336-28.608-16.128-7.024-33.392-10.528-51.68-10.528-18.704 0-36.096 3.504-52.256 10.528-16.16 7.008-30.288 16.56-42.336 28.608-12.048 12.016-21.616 26.16-28.608 42.336-7.008 16.112-10.512 33.568-10.512 52.24 0 18.272 3.504 35.632 10.512 51.984 6.992 16.336 16.56 30.56 28.608 42.592 12.048 12.096 26.176 21.664 42.336 28.608 16.16 7.056 33.552 10.512 52.256 10.512 18.288 0 35.552-3.456 51.68-10.512 16.144-6.96 30.24-16.512 42.336-28.608 12.032-12.032 21.616-26.256 28.624-42.592 7.008-16.352 10.48-33.712 10.48-51.984 0.016-18.672-3.456-36.128-10.48-52.24z" /><glyph unicode="&#xe616;" d="M483.255 415.177l-36.023 35.968-191.25-191.268-191.25 191.268-35.986-35.968 191.268-191.269-191.123-191.14 35.968-35.932 191.14 191.104 191.123-191.104 35.932 35.932-191.104 191.123z" /><glyph unicode="&#xe617;" d="M200.21 226.889l178.213 183.315-37.248 34.981-212.608-218.588 218.459-223.78 36.389 35.657z" /><glyph unicode="&#xe618;" d="M256 335.168l-224.992-239.984h450.032z" /><glyph unicode="&#xe619;" d="M96.624 451.12v-454.24l312.928 227.12z" /><glyph unicode="&#xe61a;" d="M102.992 224l312.912-227.12v454.24z" /><glyph unicode="&#xe61b;" d="M0 0.464h63.984v479.536h-63.984v-479.536zM512.080 480h-415.824v-287.888h415.824l-138.208 142.032 138.208 145.856z" /><glyph unicode="&#xe61c;" d="M512 241.12h-238.512v238.88h-34.016v-238.88h-239.472v-34.064h239.472v-239.056h34.016v239.056h238.512z" /><glyph unicode="&#xe61d;" d="M255.968 228.064l221.488 155.84c-2.656 0.528-5.344 0.848-8.128 0.848h-426.656c-2.8 0-5.504-0.32-8.144-0.848l221.44-155.84zM256.928 168.496l-0.96 1.408-0.944-1.408-254.56 179.136c-0.176-1.6-0.464-3.2-0.464-4.816v-267.712c0-23.904 19.104-43.312 42.672-43.312h426.656c23.6 0 42.688 19.408 42.688 43.312v267.712c0 1.632-0.288 3.216-0.496 4.816l-254.592-179.136z" /><glyph unicode="&#xe61e;" d="M127.584 31.776v127.632h-127.584v-127.632h127.584zM319.248 416.24h-126.928v-384.448h126.928v384.448zM511.584 287.472h-127.376v-255.68h127.376v255.68z" /><glyph unicode="&#xe61f;" d="M255.296 450.464c-124.688 0-225.76-101.072-225.76-225.76 0-124.672 101.072-225.76 225.76-225.76 124.672 0 225.76 101.088 225.76 225.76 0 124.688-101.072 225.76-225.76 225.76zM372.16 144.832l-37.104-37.104-79.088 79.056-79.056-79.040-37.12 37.136 79.024 79.024-79.136 79.12 37.136 37.136 79.12-79.136 79.184 79.184 37.152-37.152-79.2-79.168 79.088-79.056z" /><glyph unicode="&#xe620;" d="M262.748 418.688c-113.664 2.249-207.214-67.803-208.969-156.435-0.585-30.829 9.984-59.813 28.8-84.644l-4.919 4.955c32.384-41.618-31.104-153.308-31.104-153.308l142.281 70.345c22.51-7.095 44.16-11.923 69.724-12.452 113.664-2.231 205.111 78.355 206.848 167.004 1.755 88.631-88.96 162.304-202.661 164.535z" /><glyph unicode="&#xe621;" d="M259.163 285.422l201.837-196.224 38.546 41.070-240.713 234.021-246.363-240.476 39.26-40.101z" /><glyph unicode="&#xe622;" d="M252.819 162.579l-201.82 196.224-38.528-41.070 240.677-234.021 246.4 240.476-39.332 40.101z" /><glyph unicode="&#xe623;" d="M256-33.248c-141.408 0-256 114.624-256 256s114.592 256 256 256c141.376 0 256-114.624 256-256s-114.608-256-256-256zM256 447.76c-124.048 0-225.008-100.96-225.008-225.008s100.96-225.024 225.008-225.024 224.992 100.96 224.992 225.008-100.928 225.024-224.992 225.024zM320.24 219.152l-15.6-12.128c-8.496-6.624-14.128-14.32-16.912-23.152-1.776-5.6-3.008-12.256-3.168-24h-59.712c0.88 24.848 3.504 39.968 7.328 49.472 3.808 9.472 13.632 20.368 29.44 32.72l16.032 12.528c5.28 4 9.536 8.32 12.752 13.024 5.872 8.064 8.784 16.976 8.784 26.656 0 11.152-3.248 21.312-9.776 30.496-6.496 9.184-18.4 13.808-35.712 13.808-17.008 0-29.056-5.68-36.16-17.008s-10.592-21.664-10.592-33.84h-63.68c1.744 41.872 16.32 70.16 43.776 87.632 17.344 11.152 38.656 16.752 63.904 16.752 33.216 0 60.784-7.936 82.752-23.808 21.968-15.84 34.8-48.432 34.8-79.6 0-19.088-6.624-26.096-16.144-39.184-5.584-7.92-16.272-18.048-32.112-30.368zM287.728 64h-63.504v63.68h63.504v-63.68z" /><glyph unicode="&#xe624;" d="M416.656 128v135.696h-320.672v-135.696h-95.984v199.344c0 13.76 11.168 24.912 24.944 24.912h462.144c13.744 0 24.912-11.152 24.912-24.912v-199.344h-95.344zM464.304 324.624c-11.024 0-19.92-8.928-19.92-19.936s8.896-19.952 19.92-19.952c10.992 0 19.968 8.96 19.968 19.952 0 11.008-8.992 19.936-19.968 19.936zM127.728 480h256v-96.192h-256v96.192zM160.976 31.664h191.232v192.336h31.824v-224.080h-255.984v224.080h32.912v-192.336z" /><glyph unicode="&#xe625;" d="M502.080 285.376h-180.704l-55.952 171.744c-1.344 4.096-5.136 6.88-9.44 6.88-4.272 0-8.096-2.784-9.44-6.88l-56.24-171.744h-180.384c-4.256 0-8.096-2.784-9.44-6.88-1.312-4.064 0.128-8.592 3.584-11.088l145.984-106.32-56.256-172.72c-1.328-4.096 0.128-8.592 3.616-11.12 3.456-2.496 8.208-2.496 11.664 0l146.896 106.624 146.64-106.624c1.792-1.28 3.76-1.936 5.808-1.936 2.096 0 4.144 0.656 5.856 1.936 3.568 2.528 4.96 7.008 3.6 11.12l-56.24 172.72 146.288 106.32c3.488 2.496 4.928 7.008 3.6 11.088-1.312 4.096-5.168 6.88-9.44 6.88zM333.424 170.256l48.208-148.064-125.632 91.36-125.968-91.44 48.256 148.128-125.168 91.136h154.576l48.256 147.376 48.016-147.376h154.832l-125.376-91.12z" /><glyph unicode="&#xe626;" d="M319.376 223.824v127.76h-126.752v-127.76h-89.744l153.168-188.608 153.088 188.608zM256.016 480c-141.392 0-256-114.608-256-255.984 0-141.392 114.608-256.016 256-256.016 141.376 0 256 114.624 256 256.016 0 141.376-114.624 255.984-256 255.984zM256.016 0c-123.52 0-224 100.496-224 224.016 0 123.504 100.48 223.984 224 223.984s224-100.48 224-223.984c0-123.52-100.48-224.016-224-224.016z" /><glyph unicode="&#xe627;" d="M255.982 440.594c-119.607 0-216.576-96.969-216.576-216.594s96.969-216.595 216.576-216.595c119.625 0 216.595 96.969 216.595 216.595s-96.951 216.595-216.595 216.595zM255.982 419.913c108.051 0 195.913-87.881 195.913-195.913 0-45.184-15.507-86.711-41.325-119.899-3.108 1.134-6.217 2.195-9.197 3.456-19.748 8.265-41.709 17.957-61.421 26.094-5.632 1.536-11.264 3.072-16.896 4.608-6.692 4.589-13.33 19.986-16.914 27.666-3.548 0.512-7.149 1.005-10.752 1.481 0.531 11.868 7.881 12.544 10.752 21.541 2.541 7.954 0.293 18.341 4.279 25.728 2.779 5.12 9.125 5.12 12.233 9.545 2.853 3.95 4.772 10.917 5.668 15.799 1.609 8.905 3.017 21.12-1.207 29.988-2.432 5.065-3.968 5.577-4.644 11.739-0.823 7.516 2.212 31.891 2.341 37.175 0.293 13.678-0.055 14.793-3.346 28.123 0 0-4.005 12.087-10.295 15.726l-12.58 2.158-7.772 7.186c-31.305 19.273-64.877 5.76-82.834-1.499-25.911-8.43-42.295-33.792-30.867-87.955 1.957-9.289-5.065-13.421-4.608-18.468 1.042-11.045 1.207-37.614 11.648-44.124 0.969-0.603 8.375-2.469 8.339-1.938 1.006-10.752 2.048-21.522 3.054-32.238 2.615-7.149 8.869-7.954 10.679-18.048l-7.991-1.92c-3.602-7.68-10.185-23.077-16.896-27.666-5.65-1.517-11.282-3.053-16.915-4.589-19.731-8.119-41.655-17.829-61.422-26.094-1.079-0.439-2.213-0.786-3.291-1.207-24.759 32.786-39.625 73.454-39.625 117.632 0 108.032 87.881 195.913 195.895 195.913z" /><glyph unicode="&#xe628;" d="M94.8 322.592l-93.424 78.464-0.496-321.968 316.688 56.336-89.216 74.96c182.112 167.52 227.904-8.128 246.272-204.784 65.936 574.064-229.84 445.328-379.824 316.992z" /><glyph unicode="&#xe629;" d="M428.432 224h-20.080v96.176c0 43.36-16.448 83.104-43.632 112.144-27.056 29.056-65.632 47.712-108.16 47.68-42.544 0.032-81.12-18.624-108.192-47.68-27.184-29.040-43.632-68.784-43.648-112.144v-96.176h-20.816c-10.816 0-19.584-8.752-19.584-19.584v-216.8c0-10.848 8.768-19.616 19.584-19.616h344.528c10.8 0 19.584 8.768 19.584 19.632v216.8c0 10.816-8.784 19.568-19.584 19.568zM176.816 320.176c0 25.024 9.472 47.168 24.192 62.928 14.848 15.728 34.144 24.784 55.552 24.816 21.376-0.032 40.688-9.072 55.536-24.816 14.704-15.744 24.176-37.888 24.176-62.928v-96.176h-159.44v96.176z" /><glyph unicode="&#xe62a;" d="M150.896 316.944h-112.192c-9.040 0-16.384-7.312-16.384-16.368v-80c0-9.056 7.344-16.368 16.384-16.368h112.192c9.056 0 16.432 7.312 16.432 16.368v80c0 9.056-7.376 16.368-16.432 16.368zM150.896 171.056h-79.376c-9.056 0-16.432-7.312-16.432-16.368v-170.32c-0.016-9.056 7.36-16.368 16.432-16.368h79.376c9.056 0 16.432 7.312 16.432 16.368v170.32c0 9.056-7.376 16.368-16.432 16.368zM473.328 316.944h-244.88c-9.056 0-16.368-7.312-16.368-16.368v-80c0-9.056 7.312-16.368 16.368-16.368h244.88c8.992 0 16.368 7.312 16.368 16.368v80c0 9.056-7.36 16.368-16.368 16.368zM439.52 169.376h-210.56c-9.056 0-16.368-7.344-16.368-16.4v-168.592c0-9.056 7.312-16.368 16.368-16.368h210.56c9.056 0 16.368 7.312 16.368 16.368v168.592c0 9.056-7.312 16.4-16.368 16.4zM251.952 335.68c19.12-3.504 37.568-5.536 54.816-5.536 86.688 0 133.68 46.592 133.936 90.464 0.128 28.256-20.752 58.88-68.368 59.376-63.808 0-103.312-45.056-123.872-78.496-20.944 33.312-60.624 77.472-124.56 77.472-46.256-0.464-67.2-31.088-67.008-59.328 0.176-43.888 47.248-90.512 133.936-90.512v0c18.752 0 38.88 2.128 59.872 6.336l1.248 0.224zM373.264 439.008c8-0.064 26.56-2 26.432-18.192-0.064-20.624-28.992-49.68-92.944-49.68-8.816 0-18 0.56-27.632 1.68 14.576 25.648 45.216 66.192 94.144 66.192zM190.832 370.128v0c-63.936 0-92.88 29.056-92.992 49.68-0.080 16.16 18.496 18.096 27.36 18.192 48.368 0 78.816-40.56 93.184-66.224-9.552-1.088-18.736-1.648-27.552-1.648z" /><glyph unicode="&#xe62b;" d="M182.256 403.408c0-9.248-7.504-16.72-16.688-16.72h-9.776c-9.216 0-16.72 7.472-16.72 16.72v59.872c0 9.216 7.504 16.72 16.72 16.72h9.776c9.184 0 16.688-7.504 16.688-16.72v-59.872zM373.072 403.408c0-9.248-7.504-16.72-16.688-16.72h-9.744c-9.248 0-16.688 7.472-16.688 16.72v59.872c0 9.216 7.424 16.72 16.688 16.72h9.744c9.184 0 16.688-7.504 16.688-16.72v-59.872zM398.816 253.152l-33.936 27.664-133.68-163.872-71.312 56.688-25.28-31.728 105.184-83.648zM471.952 434h-62.432v-26.064c0-27.68-22.56-50.192-50.128-50.192h-9.808c-27.68 0-50.128 22.496-50.128 50.192v26.064h-85.504v-26.064c0-27.68-22.496-50.192-50.128-50.192h-9.76c-27.664 0-50.16 22.496-50.16 50.192v26.064h-63.808c-9.216 0-16.72-7.504-16.72-16.688v-432.592c0-9.216 7.504-16.72 16.72-16.72h431.84c9.184 0 16.688 7.504 16.688 16.72v432.592c0.016 9.184-7.488 16.688-16.672 16.688zM438.512 42.592c0-9.248-7.504-16.72-16.752-16.72h-331.504c-9.248 0-16.752 7.472-16.752 16.72v252.096c0 9.248 7.504 16.688 16.752 16.688h331.504c9.248 0 16.752-7.44 16.752-16.688v-252.096z" /></font>
</defs>
</svg>
