<?xml version="1.0" standalone="no"?>
<!DOCTYPE svg PUBLIC "-//W3C//DTD SVG 1.1//EN" "http://www.w3.org/Graphics/SVG/1.1/DTD/svg11.dtd" >
<svg xmlns="http://www.w3.org/2000/svg">
<metadata></metadata>
<defs>
<font id="fontdinerdotcom_luvableRg" horiz-adv-x="1277" >
<font-face units-per-em="2048" ascent="1638" descent="-410" />
<missing-glyph horiz-adv-x="647" />
<glyph horiz-adv-x="2048" />
<glyph horiz-adv-x="2048" />
<glyph unicode="&#xd;" horiz-adv-x="2048" />
<glyph unicode=" "  horiz-adv-x="647" />
<glyph unicode="&#x09;" horiz-adv-x="647" />
<glyph unicode="&#xa0;" horiz-adv-x="647" />
<glyph unicode="!" horiz-adv-x="587" d="M57 115q0 74 84 118q70 37 152 37t151 -37q86 -44 86 -118q0 -76 -86 -121q-70 -37 -151 -37q-82 0 -152 37q-84 45 -84 121zM127 369q20 256 18 784l367 8q4 -154 4 -338t-12 -465z" />
<glyph unicode="&#x22;" horiz-adv-x="831" d="M57 729q4 297 17 623l311 -19q-16 -303 -20 -614zM446 729q4 297 17 623l311 -19q-16 -303 -20 -614z" />
<glyph unicode="#" horiz-adv-x="1171" d="M57 219l11 258l159 2l15 158h-154l12 258l166 2l17 162l264 -10l-17 -150l154 -2l16 162l265 -10l-17 -156l166 -4l-31 -268l-163 8l-13 -154l176 -4l-30 -268l-166 8l-10 -160l-261 -8l13 174l-158 2l-12 -168l-260 -8l12 176h-154zM489 481l156 -2l14 156l-155 2z" />
<glyph unicode="$" horiz-adv-x="872" d="M57 778q0 94 72 166q63 63 162 92l6 154l319 -14l-8 -158q131 -49 207 -139l-153 -191q-109 96 -230 96q-76 0 -76 -30q0 -25 111 -72q152 -61 211 -102q111 -76 110 -172q0 -92 -52 -165t-140 -108l4 -127l-311 -10l-4 152q-119 55 -226 169l154 197q129 -145 262 -145 q37 0 53 18l9 17q0 29 -125 75q-166 61 -230 103q-125 82 -125 194z" />
<glyph unicode="%" horiz-adv-x="1314" d="M57 821q0 127 70 219q76 104 199 105q43 0 156.5 -47t179.5 -47q150 0 266 32l170 -125q-469 -618 -803 -1001l-152 135q338 393 686 858q-70 -16 -141 -16q-70 0 -131 22q18 -55 18 -127q0 -119 -73 -208q-80 -96 -193 -97q-109 0 -184 97q-68 88 -68 200zM227 825 q0 -41 21 -82q25 -49 63 -49q45 0 72 56q23 45 23 92q0 43 -23 87t-61 44q-43 0 -72 -53q-23 -45 -23 -95zM739 266q0 127 70 219q76 100 199 101q111 0 180 -93t69 -206q0 -125 -69 -217q-76 -102 -199 -103q-109 0 -182 99q-68 88 -68 200zM909 268q0 -43 21 -82 q25 -49 63 -49q45 0 72 56q22 43 22 92q0 43 -22.5 87t-60.5 44q-45 0 -72 -54q-23 -45 -23 -94z" />
<glyph unicode="&#x26;" horiz-adv-x="1701" d="M0 934q0 184 130 314t314 130q135 0 245 -74.5t163 -193.5q51 119 161.5 193.5t246.5 74.5q182 0 312 -130t130 -314q-16 -145 -107 -318q-213 -412 -743 -880q-532 469 -746 880q-88 172 -106 318zM229 709l2 -166h76q25 0 107 -8l2 170q-59 6 -109 6q-43 0 -78 -2z M510 606q0 -150 14 -297l2 -14l228 -10l-2 18q-10 90 -17 320l201 -330l248 -2l14 651l-209 6l-14 -346l-195 359l-266 -7v-16q-4 -184 -4 -332zM1286 709l2 -166h82q27 0 117 -8l2 170q-66 6 -119 6q-47 0 -84 -2z" />
<glyph unicode="'" horiz-adv-x="442" d="M57 729q4 297 17 623l311 -19q-16 -303 -20 -614z" />
<glyph unicode="(" horiz-adv-x="811" d="M66 555q0 209 105 414t278 325l213 -186l2 2q-127 -92 -204 -245.5t-77 -309.5q0 -172 100 -318.5t262 -203.5h-2l-133 -226q-240 82 -392 290t-152 458z" />
<glyph unicode=")" horiz-adv-x="811" d="M66 33q162 57 262 203.5t100 318.5q0 156 -77 309.5t-204 245.5l3 -2l212 186q172 -121 277.5 -325.5t105.5 -413.5q0 -250 -152.5 -458t-391.5 -290l-133 226h-2z" />
<glyph unicode="*" horiz-adv-x="1079" d="M57 457q106 33 136 43q80 27 131 57q-72 41 -263 92l150 277q80 -78 104 -99q63 -55 115 -84q2 72 -45 275l322 -10q-33 -113 -39 -134q-18 -78 -21 -135q66 37 223 181l152 -285q-115 -29 -135 -35q-80 -23 -131 -49q61 -37 262 -100l-170 -273q-82 84 -98 101 q-59 57 -109 88q0 -82 49 -275l-313 -10q49 205 49 287q-68 -41 -205 -179z" />
<glyph unicode="+" horiz-adv-x="915" d="M57 739q100 4 211 4q2 90 8 209l377 -10q-8 -96 -12 -201q94 -4 217 -10l-8 -375q-102 8 -217 13v-211l-365 -8q-4 106 -4 225h-198z" />
<glyph unicode="," horiz-adv-x="587" d="M57 115q0 74 84 118q70 37 152 37t151 -37q86 -44 86 -118q0 -111 -112 -191q-102 -74 -215 -67h-31q98 33 162 102q-20 -2 -41 -2q-82 0 -152 37q-84 45 -84 121z" />
<glyph unicode="-" horiz-adv-x="915" d="M73 739q152 6 336 6q186 0 465 -14l-8 -375q-258 18 -784 19z" />
<glyph unicode="." horiz-adv-x="587" d="M57 115q0 74 84 118q70 37 152 37t151 -37q86 -44 86 -118q0 -76 -86 -121q-70 -37 -151 -37q-82 0 -152 37q-84 45 -84 121z" />
<glyph unicode="/" horiz-adv-x="1019" d="M0 115q420 522 770 1054l250 -170q-406 -594 -793 -1067z" />
<glyph unicode="0" d="M20 582q0 264 178.5 457.5t440.5 193.5t440 -193.5t178 -457.5q0 -262 -176 -453q-180 -197 -442 -197t-442 197q-176 190 -177 453zM393 582q0 -113 66 -203q72 -100 180 -100q111 0 180 100q66 90 66 203q0 115 -66 204q-70 98 -180 99q-109 0 -180 -99 q-66 -90 -66 -204z" />
<glyph unicode="1" horiz-adv-x="512" d="M57 487q0 274 23 691l375 -13q-27 -377 -27 -688q0 -305 8 -479l-364 -12q-14 227 -15 501z" />
<glyph unicode="2" horiz-adv-x="1105" d="M57 313q201 80 383 193q281 174 281 301q0 63 -100 63q-86 0 -191 -65q-88 -55 -158 -131l-213 268q268 285 541 285q188 0 324 -107q145 -113 145 -299q0 -197 -244 -368q-184 -131 -417 -197q190 -4 247 -4q223 0 351 8l8 -309q-164 -12 -365 -12q-203 0 -583 26z" />
<glyph unicode="3" horiz-adv-x="1036" d="M-45 188l227 258q180 -182 342 -182q88 0 88 45q0 113 -295 273q295 162 295 274q0 45 -88 45q-162 0 -342 -182l-227 258q279 264 549 264q184 0 319 -92q156 -104 156 -281q0 -154 -170 -286q170 -131 170 -285q0 -176 -156 -283q-135 -90 -319 -90q-270 0 -549 264z " />
<glyph unicode="4" horiz-adv-x="1093" d="M-41 231q199 422 567 1008l226 -145l182 -9q-23 -334 -25 -626l119 2l8 -240l-127 -4q2 -178 9 -278l-340 -13q-6 119 -11 285l-59 -2q-303 -4 -549 22zM393 453h172q2 129 8 309q-106 -170 -180 -309z" />
<glyph unicode="5" horiz-adv-x="1042" d="M-25 240l215 268q68 -78 156 -131q104 -66 191 -66q100 0 100 62q0 129 -252 186q-162 37 -338 35l35 598q311 18 514 18q201 0 381 -18l-8 -311q-143 14 -367 14q-57 0 -203 -4v-86q223 -31 381 -127q205 -125 205 -320q0 -184 -145 -299q-133 -106 -324 -106 q-272 0 -541 287z" />
<glyph unicode="6" horiz-adv-x="1052" d="M16 555q0 274 236 471q223 188 504 188q88 0 147 -24l-67 -367l-52 2q-145 2 -262 -51q-135 -66 -174 -192q109 94 258 94q158 0 271 -96q118 -102 118 -258q0 -168 -139 -273q-129 -98 -301 -98q-252 0 -399 178q-139 168 -140 426zM348 424q37 -131 168 -131 q57 0 102 24q54 29 54 80t-51 82q-43 27 -99 27q-135 0 -174 -82z" />
<glyph unicode="7" horiz-adv-x="1040" d="M16 1194q217 14 480 14q364 1 565 -26q-98 -375 -557 -1225l-334 170q217 328 250 377q150 238 215 397q-285 -6 -606 -41z" />
<glyph unicode="8" horiz-adv-x="1114" d="M57 303q0 176 207 279q-207 104 -207 280q0 164 176 262q147 84 324 84q176 0 324 -84q176 -98 176 -262q0 -176 -207 -280q207 -103 207 -279q0 -164 -176 -262q-147 -84 -324 -84q-176 0 -324 84q-176 98 -176 262zM401 375q0 -51 56 -82q47 -25 100 -25q55 0 102 25 q56 31 56 82q0 49 -56 80q-47 27 -102 26q-53 0 -100 -26q-55 -31 -56 -80zM401 788q0 -51 56 -81q47 -25 100 -25q55 0 102 25q56 30 56 81q0 49 -56 80q-47 25 -102 25q-53 0 -100 -25q-55 -31 -56 -80z" />
<glyph unicode="9" horiz-adv-x="1052" d="M16 842q0 168 140 274q127 98 301 98q252 0 399 -178q139 -168 139 -426q0 -274 -235 -473q-225 -186 -504 -186q-88 0 -150 24l70 365h51q145 -2 260 51q137 66 175 193q-106 -94 -256 -95q-158 0 -271 97q-119 102 -119 256zM340 766q0 -49 47 -78t100 -29 q136 0 177 82q-39 131 -170 131q-55 0 -101 -24q-53 -31 -53 -82z" />
<glyph unicode=":" horiz-adv-x="604" d="M66 115q0 74 84 118q70 37 151 37q82 0 152 -37q86 -44 86 -118q0 -76 -86 -121q-70 -37 -152 -37t-151 37q-84 45 -84 121zM66 532q0 76 84 121q70 37 151 37q82 0 152 -37q86 -45 86 -121q0 -74 -86 -118q-70 -39 -152 -39t-151 39q-84 45 -84 118z" />
<glyph unicode=";" horiz-adv-x="604" d="M66 115q0 74 84 118q70 37 151 37q82 0 152 -37q86 -44 86 -118q0 -111 -113 -191q-102 -74 -215 -67h-31q98 33 162 102q-20 -2 -41 -2q-82 0 -151 37q-84 45 -84 121zM66 532q0 76 84 121q70 37 151 37q82 0 152 -37q86 -45 86 -121q0 -74 -86 -118q-70 -39 -152 -39 t-151 39q-84 45 -84 118z" />
<glyph unicode="&#x3c;" horiz-adv-x="1173" d="M57 551l942 487l117 -286l-471 -201l471 -201l-117 -287z" />
<glyph unicode="=" horiz-adv-x="1052" d="M57 518q178 6 394 6t544 -12l-10 -324q-301 16 -919 17zM57 909q178 4 394 4t544 -12l-10 -323q-301 16 -919 16z" />
<glyph unicode="&#x3e;" horiz-adv-x="1173" d="M57 350l471 201l-471 201l117 286l942 -487l-942 -488z" />
<glyph unicode="?" horiz-adv-x="1099" d="M25 956q268 250 540 250q178 0 314 -84q155 -100 155 -270q0 -137 -121 -201q-111 -47 -221 -92q-121 -63 -121 -203l-376 -6q0 143 127 232q12 8 237 116q127 61 127 142q0 55 -100 55q-84 0 -189 -57q-90 -47 -157 -117zM158 115q0 74 84 118q70 37 151 37 q82 0 152 -37q84 -44 84 -118q0 -76 -84 -121q-70 -37 -152 -37t-151 37q-84 45 -84 121z" />
<glyph unicode="@" horiz-adv-x="1327" d="M20 573q0 262 175.5 448.5t437.5 186.5q285 0 477 -176q197 -182 197 -465q0 -164 -76 -297q-90 -158 -242 -157q-150 0 -219 127q-70 -35 -162 -35q-98 0 -172 55t-74 152q0 137 130 200q117 43 233 88q-12 55 -78 56q-61 0 -137 -86l-133 100q31 76 110.5 130t159.5 54 q129 0 201 -92q68 -84 67 -215q0 -29 -3 -85t-3 -85q0 -178 80 -178q63 0 103 107q31 82 30 161q0 205 -143 334q-137 123 -344 123q-184 0 -307 -132t-123 -319q0 -223 137 -348q131 -125 354 -125q86 0 154 23l57 -176q-96 -31 -205 -31q-303 0 -489 174 q-193 180 -193 483zM549 412q0 -23 59 -23q117 0 117 70v43q-51 -14 -102 -31q-74 -29 -74 -59zM727 688h2l-2 4v-4z" />
<glyph unicode="A" horiz-adv-x="1179" d="M37 655q0 244 151.5 392.5t395.5 148.5q242 0 400.5 -157.5t158.5 -399.5q0 -176 -64 -711l-389 54l10 149l-221 -6l10 -139l-393 -52q-59 541 -59 721zM457 604q0 -147 8 -264l250 4q8 107 8 246q0 70 -33 121q-39 59 -104 59q-61 0 -95 -50t-34 -116zM823 1538 q12 41 58 41q55 0 59 -55q19 22 44 22q10 0 22 -4q41 -14 41 -57q-1 -11 -3 -21q-16 -20 -38 -41q-53 -47 -123 -77q-62 105 -62 169q0 12 2 23z" />
<glyph unicode="B" horiz-adv-x="1343" d="M0 1112q385 96 723 96q199 0 356 -61q215 -84 215 -250q0 -141 -180 -256q213 -78 213 -268q0 -219 -227 -348q-190 -109 -428 -109l-103 188v-147h-385v801l-135 -29zM496 1458q-2 10 -2 19q0 42 49 51q8 2 15 2q29 0 46 -27q10 39 49 47q9 1 16 1q45 0 56 -50v-6 q0 -67 -84 -176q-125 74 -145 139zM569 221q98 18 181 49q124 50 124 107l-6 14q-20 14 -73 15q-88 0 -226 -33v-152zM569 670q236 35 236 123l-4 8q-27 20 -123 20q-47 0 -109 -4v-147zM977 1767q18 70 90 70q84 0 94 -82q29 35 76 35q39 0 66.5 -27.5t27.5 -66.5 q0 -15 -4 -27q-10 -29 -39 -59q-68 -72 -205 -140q-108 167 -108 270q0 14 2 27z" />
<glyph unicode="C" horiz-adv-x="1171" d="M84 1454q12 4 24 4q33 0 56 -31q10 68 76 68q57 0 73 -57q1 -9 1 -19q0 -81 -87 -217q-198 96 -198 177q0 60 55 75zM37 502q0 297 223 504q216 202 513 202h3q211 0 338 -49l-72 -401q-135 35 -202 35q-166 0 -275 -76q-123 -86 -123 -246q0 -86 56.5 -140.5 t144.5 -54.5q207 0 365 216l147 -345q-199 -231 -516 -231q-260 0 -431 163t-171 423zM485 1632q6 56 57 56h9q41 -4 53 -41q16 31 50 31q5 0 10 -1q54 -5 54 -56q0 -5 -1 -11q-4 -18 -19 -41q-35 -53 -112 -111q-98 106 -101 174z" />
<glyph unicode="D" horiz-adv-x="1308" d="M0 1108q287 102 580 102q324 0 505 -133q207 -154 207 -465q0 -225 -182 -448q-188 -229 -408 -250l-104 236l10 -175l-381 -10q-27 334 -43 801l-110 -29zM571 836q6 -193 21 -578q119 20 207 150q84 120 84 245q0 92 -82 142q-70 43 -168 43q-25 0 -62 -2z" />
<glyph unicode="E" horiz-adv-x="1085" d="M57 530q0 248 17 609l913 12l4 -356l-551 -19l-4 -59l559 4l9 -285l-564 -16l4 -68l570 25l14 -379q-305 -27 -715 -27h-57l-176 2q-23 311 -23 557zM375 1473q11 48 53 48q10 0 21 -3q39 -8 45 -50q19 25 46 25q8 0 17 -2q48 -11 48 -51q0 -10 -3 -21q-6 -20 -24 -39 q-41 -49 -127 -94q-76 111 -76 177v10z" />
<glyph unicode="F" horiz-adv-x="1032" d="M41 1139l950 12l-4 -356l-549 -19l-2 -80l512 6l8 -286l-522 -17l-2 -426h-358z" />
<glyph unicode="G" horiz-adv-x="1337" d="M37 502q0 297 223 504q216 202 513 202h3q211 0 338 -49l-72 -401q-135 35 -202 35q-164 0 -273 -76q-125 -86 -125 -246q0 -98 65.5 -151.5t166.5 -53.5q125 0 239 109q-90 -2 -286 -17l-19 287l695 57q18 -55 18 -112q0 -283 -199.5 -478.5t-482.5 -195.5 q-260 0 -431 163t-171 423z" />
<glyph unicode="H" horiz-adv-x="1183" d="M57 1137l404 14l-6 -659l276 2l-8 657l403 -14l-32 -1166l-359 2l-2 232l-282 -10l-2 -222l-359 -2zM324 1642q-3 32 -3 60q0 97 33 141q18 18 43 19q25 0 43 -19q20 -18 19 -41q0 -11 -4 -24q13 6 25 5q22 0 40 -18t19 -43q-1 -25 -19 -43q-47 -38 -162 -38q-16 0 -34 1 zM614 1427q0 45 43 58q11 3 21 3q26 0 45 -22q6 53 59 54q46 0 60 -45q1 -8 1 -16q0 -66 -69 -175q-160 76 -160 143z" />
<glyph unicode="I" horiz-adv-x="512" d="M57 467q0 274 23 690l375 -14q-27 -375 -27 -686q0 -305 8 -480l-364 -12q-14 227 -15 502z" />
<glyph unicode="J" horiz-adv-x="1062" d="M0 252l340 197q27 -139 156 -140q147 0 147 164q0 115 -45 696l383 31q45 -598 45 -727q0 -242 -145.5 -395.5t-384.5 -153.5q-170 0 -301.5 86t-194.5 242zM197 1401q12 45 59 45q51 0 59 -53q19 25 45 25q9 0 19 -3q45 -12 45 -59q0 -9 -2 -17q-8 -18 -25 -36 q-43 -47 -131 -91q-70 105 -70 171q0 10 1 18zM496 1661q0 25 18 43t40 18q12 0 26 -6q-5 13 -5 25q0 23 19 41q18 18 43 18t43 -18q34 -44 34 -142q0 -27 -3 -59q-18 -1 -34 -1q-116 0 -163 38q-18 18 -18 43z" />
<glyph unicode="K" horiz-adv-x="1095" d="M57 1149l404 14l-4 -368l368 372l234 -190l-342 -414l362 -401l-221 -207l-405 387l-4 -356l-359 -2z" />
<glyph unicode="L" horiz-adv-x="999" d="M57 453q0 233 23 702l375 -2q-12 -408 -13 -520v-285l519 4l2 -358q-395 -25 -609 -25q-113 0 -284 4q-12 240 -13 480zM473 1454q0 45 32 76t75 31q51 0 82 -39q6 41 35.5 67.5t70.5 26.5q79 0 102 -76q4 -10 4 -29q0 -119 -118 -307q-229 109 -279 219q-4 14 -4 31z " />
<glyph unicode="M" horiz-adv-x="1445" d="M57 541q0 276 4 596l414 14l248 -514l248 514l413 -14q5 -324 5 -596q0 -279 -23 -535l-354 -18q18 178 26 567l-315 -582l-315 582q4 -188 26 -567l-354 18q-23 256 -23 535zM236 1567q-2 10 -2 19q0 42 47 52q9 2 18 2q27 0 45 -24q6 41 45 49q12 3 21 3q41 0 53 -48 q1 -6 1 -12q0 -66 -75 -174q-129 68 -153 133zM647 1417q14 57 72 58q68 0 76 -68q23 31 56 31q11 0 23 -4q55 -14 56 -74q0 -11 -2 -21q-18 -27 -43 -53q-61 -61 -152 -104q-88 133 -88 214q0 11 2 21z" />
<glyph unicode="N" horiz-adv-x="1300" d="M57 532q0 279 4 601l461 14l338 -621l23 600l360 -12l-22 -1126l-430 6l-345 567q4 -207 9 -293q6 -164 20 -291l-391 19q-27 256 -27 536zM240 1696q0 39 27.5 66.5t66.5 27.5q47 0 76 -35q10 82 94 82q72 0 90 -70q2 -12 2 -26q0 -102 -109 -271q-203 100 -243 199 q-4 12 -4 27zM868 1477q14 43 58 43q55 0 61 -56q19 21 43 21q10 0 21 -4q43 -12 43 -58q0 -10 -4 -18q-16 -23 -37 -41q-53 -49 -125 -80q-62 105 -62 170q0 12 2 23z" />
<glyph unicode="O" d="M20 586q0 264 178.5 456.5t440.5 192.5t440 -192.5t178 -456.5t-176 -455q-180 -197 -442 -197t-442 197q-176 190 -177 455zM393 586q0 -115 66 -205q72 -98 180 -98q111 0 180 98q66 90 66 205q0 113 -66 202q-70 100 -180 101q-109 0 -180 -101q-66 -90 -66 -202z" />
<glyph unicode="P" horiz-adv-x="1331" d="M0 1096q272 125 752 125q225 0 378 -95q185 -112 185 -325q0 -231 -230 -389q-205 -141 -446 -142l-74 166v-487l-368 4l-15 805q-72 -18 -133 -41zM565 551q113 16 195 53q123 55 123 139t-174 84q-70 0 -144 -6v-270zM668 1618q0 45 31.5 75.5t76.5 30.5q49 0 82 -38 q4 41 35 67.5t72 26.5q79 0 102 -76q2 -10 2 -29q0 -119 -117 -307q-231 109 -278 219q-6 16 -6 31z" />
<glyph unicode="Q" d="M20 586q0 264 177 452q180 197 442 197t442 -197q176 -188 176 -452q0 -256 -163 -443q53 -88 86 -157l-232 -156q-31 70 -74 154q-113 -49 -235 -50q-262 0 -442 197q-176 190 -177 455zM393 586q0 -115 66 -205q72 -98 180 -98q23 0 43 4q-74 106 -137 190l172 133 q66 -61 145 -151q23 59 23 127q0 113 -66 202q-70 100 -180 101q-109 0 -180 -101q-66 -90 -66 -202z" />
<glyph unicode="R" horiz-adv-x="1298" d="M0 1112q418 98 721 98q209 0 364 -77q197 -99 197 -289q0 -305 -309 -449l227 -327l-352 -191l-303 430v-350h-379v799q-55 -14 -115 -29zM545 565q311 45 311 174q0 47 -80 68q-55 16 -123 16q-49 0 -108 -6v-252z" />
<glyph unicode="S" horiz-adv-x="1099" d="M16 866q0 178 172 293q152 100 338 101q158 0 314 -66q164 -67 260 -184l-219 -273q-156 139 -330 140q-109 0 -109 -46q0 -35 160 -100q215 -90 299 -147q162 -111 162 -248q0 -193 -150 -313q-139 -113 -335 -113q-281 0 -560 301l222 281q72 -80 168 -140 q111 -67 201 -67h3q90 0 90 49q0 41 -178 108q-240 88 -329 148q-178 115 -179 276zM246 1495q-3 11 -3 21q0 41 48 53q9 2 17 2q27 0 46 -25q6 41 45 49q12 3 22 3q41 0 52 -46q1 -6 0 -13q0 -68 -74 -175q-129 68 -153 131zM715 1772q14 40 55 40h2q55 0 59 -57 q19 21 44 21q10 0 22 -4q41 -14 41 -58q0 -10 -4 -20q-16 -20 -39 -41q-55 -47 -125 -76q-58 103 -58 167q0 15 3 28z" />
<glyph unicode="T" horiz-adv-x="1105" d="M37 805l8 340l1012 8l12 -326l-297 -6l-27 -887l-362 3l-10 876zM195 1565q20 69 90 69h2q84 0 94 -84q29 37 74 37q41 0 68.5 -27.5t27.5 -68.5q0 -13 -4 -25q-12 -29 -39 -59q-68 -72 -205 -139q-110 168 -110 272q0 13 2 25zM694 1690q-3 11 -3 21q0 40 48 50 q9 2 18 2q27 0 46 -24q6 41 45 49q12 3 21 3q41 0 53 -48q1 -6 0 -12q0 -66 -76 -175q-127 68 -152 134z" />
<glyph unicode="U" horiz-adv-x="1148" d="M37 469q0 123 45 715l385 -29q-45 -578 -45 -686q0 -180 158 -180q147 0 147 164q0 113 -45 696l383 31q47 -598 47 -727q0 -242 -146.5 -395.5t-385.5 -153.5q-238 0 -390.5 161.5t-152.5 403.5zM213 1747q12 43 57 43q55 0 62 -55q18 22 42 22q10 0 21 -4 q43 -12 43 -57q0 -11 -4 -19q-14 -23 -37 -41q-51 -49 -123 -82q-63 106 -63 171q0 12 2 22zM627 1534q0 39 35 55q14 7 28 7q19 0 37 -15q-2 27 16.5 46.5t44.5 19.5q38 0 54 -33q6 -16 6 -45q0 -63 -35 -156q-139 37 -178 94q-8 12 -8 27z" />
<glyph unicode="V" horiz-adv-x="1157" d="M-41 1067l358 145l250 -589l252 589l359 -145l-611 -1178z" />
<glyph unicode="W" horiz-adv-x="1406" d="M-41 1112l336 113l170 -604l229 473l228 -473l170 604l335 -113l-469 -1237l-264 506l-266 -506zM485 1440q0 59 62 59q39 0 55 -35q16 35 55 35q62 0 62 -59q-2 -20 -14 -43q-29 -57 -103 -121q-109 94 -117 164zM977 1767q18 70 90 70q84 0 94 -82q29 35 76 35 q39 0 66.5 -27.5t27.5 -66.5q0 -15 -4 -27q-10 -29 -39 -59q-68 -72 -205 -140q-108 167 -108 270q0 14 2 27z" />
<glyph unicode="X" horiz-adv-x="1130" d="M16 145q152 186 332 424q-158 221 -328 471l297 203q115 -176 250 -371q137 195 252 371l295 -203q-168 -250 -328 -471q178 -236 326 -417l-272 -218q-131 160 -273 342q-143 -184 -280 -350z" />
<glyph unicode="Y" horiz-adv-x="1148" d="M37 809q0 244 10 383l385 -31q-10 -123 -10 -352q0 -188 158 -188q147 0 147 172q0 236 -10 372l383 31q12 -151 12 -403q0 -186 -86 -330q-94 -158 -260 -213q0 -170 2 -270l-365 -7q-4 115 -6 277q-168 57 -268 219q-92 154 -92 340zM236 1690q-2 10 -2 19q0 42 47 52 q9 2 18 2q27 0 45 -24q6 41 45 49q12 3 21 3q42 0 53 -48q1 -6 1 -12q0 -67 -75 -175q-129 68 -153 134zM647 1540q14 57 72 57q68 0 76 -67q23 30 55 30q11 0 24 -4q55 -14 56 -73q0 -11 -2 -21q-18 -27 -43 -53q-61 -61 -152 -104q-88 133 -88 214q0 11 2 21z" />
<glyph unicode="Z" horiz-adv-x="1097" d="M16 45l486 786l-443 -16l-4 338l1026 -27l-503 -778l458 -6l-14 -326zM137 1675q0 39 28 66.5t66 27.5q47 0 76 -34q10 82 94 82q73 0 91 -70q2 -12 2 -26q0 -102 -109 -271q-203 100 -244 199q-4 12 -4 26zM735 1466q11 48 53 48q10 0 21 -3q39 -10 45 -49q20 25 49 25 q7 0 15 -2q48 -14 47 -54q0 -9 -2 -20q-8 -20 -25 -39q-43 -49 -129 -92q-75 108 -75 174q0 6 1 12z" />
<glyph unicode="[" horiz-adv-x="729" d="M57 1423l602 13l7 -299l-320 -7l31 -1157l295 -8l-8 -299l-562 19z" />
<glyph unicode="\" horiz-adv-x="1011" d="M0 995l250 170q342 -520 762 -1046l-228 -185q-385 475 -784 1061z" />
<glyph unicode="]" horiz-adv-x="729" d="M57 -35l295 8l31 1157l-320 7l7 299l602 -13l-45 -1738l-561 -19z" />
<glyph unicode="^" horiz-adv-x="1089" d="M57 297l488 942l487 -942l-287 -117l-200 473l-201 -473z" />
<glyph unicode="_" horiz-adv-x="1988" d="M57 -18l4 331l1870 -26l-4 -332z" />
<glyph unicode="`" horiz-adv-x="544" d="M57 1612l185 108q118 -196 245 -393l-178 -110q-123 188 -252 395z" />
<glyph unicode="a" horiz-adv-x="1157" d="M-41 61l608 1178l611 -1178l-359 -145l-74 172l-360 -10l-68 -162zM246 1563q0 61 61 61q39 0 55 -37q16 37 56 37q61 0 61 -61q-2 -20 -14 -43q-29 -57 -103 -121q-109 96 -116 164zM477 291l180 4l-90 211z" />
<glyph unicode="b" horiz-adv-x="1343" d="M-16 1112q385 96 723 96q199 0 356 -61q215 -84 215 -250q0 -141 -180 -256q213 -78 213 -268q0 -219 -227 -348q-190 -109 -428 -109l-103 188v-147h-385v801l-135 -29zM480 1458q-2 10 -2 19q0 42 49 51q8 2 15 2q29 0 46 -27q10 39 49 47q9 1 16 1q45 0 56 -50v-6 q0 -67 -84 -176q-125 74 -145 139zM553 221q98 18 181 49q124 50 124 107l-6 14q-20 14 -73 15q-88 0 -226 -33v-152zM553 670q236 35 236 123l-4 8q-27 20 -123 20q-47 0 -109 -4v-147zM961 1767q18 70 90 70q84 0 94 -82q29 35 76 35q39 0 66.5 -27.5t27.5 -66.5 q0 -15 -4 -27q-10 -29 -39 -59q-68 -72 -205 -140q-108 167 -108 270q0 14 2 27z" />
<glyph unicode="c" horiz-adv-x="1171" d="M84 1454q12 4 24 4q33 0 56 -31q10 68 76 68q57 0 73 -57q1 -9 1 -19q0 -81 -87 -217q-198 96 -198 177q0 60 55 75zM37 502q0 297 223 504q216 202 513 202h3q211 0 338 -49l-72 -401q-135 35 -202 35q-166 0 -275 -76q-123 -86 -123 -246q0 -86 56.5 -140.5 t144.5 -54.5q207 0 365 216l147 -345q-199 -231 -516 -231q-260 0 -431 163t-171 423zM485 1632q6 56 57 56h9q41 -4 53 -41q16 31 50 31q5 0 10 -1q54 -5 54 -56q0 -5 -1 -11q-4 -18 -19 -41q-35 -53 -112 -111q-98 106 -101 174z" />
<glyph unicode="d" horiz-adv-x="1308" d="M-16 1108q287 102 580 102q324 0 505 -133q207 -154 207 -465q0 -225 -182 -448q-188 -229 -408 -250l-104 236l10 -175l-381 -10q-27 334 -43 801l-110 -29zM555 836q6 -193 21 -578q119 20 207 150q84 120 84 245q0 92 -82 142q-70 43 -168 43q-25 0 -62 -2z" />
<glyph unicode="e" horiz-adv-x="1085" d="M57 530q0 248 17 609l913 12l4 -356l-551 -19l-4 -59l559 4l9 -285l-564 -16l4 -68l570 25l14 -379q-305 -27 -715 -27h-57l-176 2q-23 311 -23 557zM375 1473q11 48 53 48q10 0 21 -3q39 -8 45 -50q19 25 46 25q8 0 17 -2q48 -11 48 -51q0 -10 -3 -21q-6 -20 -24 -39 q-41 -49 -127 -94q-76 111 -76 177v10z" />
<glyph unicode="f" horiz-adv-x="1032" d="M41 1139l950 12l-4 -356l-549 -19l-2 -80l512 6l8 -286l-522 -17l-2 -426h-358z" />
<glyph unicode="g" horiz-adv-x="1337" d="M37 502q0 297 223 504q216 202 513 202h3q211 0 338 -49l-72 -401q-135 35 -202 35q-164 0 -273 -76q-125 -86 -125 -246q0 -98 65.5 -151.5t166.5 -53.5q125 0 239 109q-90 -2 -286 -17l-19 287l695 57q18 -55 18 -112q0 -283 -199.5 -478.5t-482.5 -195.5 q-260 0 -431 163t-171 423zM172 1470q0 41 27.5 69t66.5 28q45 0 74 -37q12 84 94 84q74 0 92 -70q2 -13 2 -26q0 -105 -108 -271q-203 98 -246 199q-2 12 -2 24zM815 1581q-3 32 -3 59q0 98 34 142q18 18 43 18t43 -18q19 -18 19 -41q0 -12 -5 -25q13 6 26 6q22 0 40 -18 t18 -43t-18 -43q-47 -38 -163 -38q-16 0 -34 1zM1112 1376q0 61 62 62q41 0 55 -37q16 37 57 37q60 -1 60 -62q-2 -20 -15 -43q-29 -57 -102 -121q-109 96 -117 164z" />
<glyph unicode="h" horiz-adv-x="1183" d="M57 1137l404 14l-6 -659l276 2l-8 657l403 -14l-32 -1166l-359 2l-2 232l-282 -10l-2 -222l-359 -2zM324 1642q-3 32 -3 60q0 97 33 141q18 18 43 19q25 0 43 -19q20 -18 19 -41q0 -11 -4 -24q13 6 25 5q22 0 40 -18t19 -43q-1 -25 -19 -43q-47 -38 -162 -38q-16 0 -34 1 zM614 1427q0 45 43 58q11 3 21 3q26 0 45 -22q6 53 59 54q46 0 60 -45q1 -8 1 -16q0 -66 -69 -175q-160 76 -160 143z" />
<glyph unicode="i" horiz-adv-x="512" d="M57 467q0 274 23 690l375 -14q-27 -375 -27 -686q0 -305 8 -480l-364 -12q-14 227 -15 502z" />
<glyph unicode="j" horiz-adv-x="1062" d="M0 252l340 197q27 -139 156 -140q147 0 147 164q0 115 -45 696l383 31q45 -598 45 -727q0 -242 -145.5 -395.5t-384.5 -153.5q-170 0 -301.5 86t-194.5 242zM197 1401q12 45 59 45q51 0 59 -53q19 25 45 25q9 0 19 -3q45 -12 45 -59q0 -9 -2 -17q-8 -18 -25 -36 q-43 -47 -131 -91q-70 105 -70 171q0 10 1 18zM496 1661q0 25 18 43t40 18q12 0 26 -6q-5 13 -5 25q0 23 19 41q18 18 43 18t43 -18q34 -44 34 -142q0 -27 -3 -59q-18 -1 -34 -1q-116 0 -163 38q-18 18 -18 43z" />
<glyph unicode="k" horiz-adv-x="1095" d="M57 1149l404 14l-4 -368l368 372l234 -190l-342 -414l362 -401l-221 -207l-405 387l-4 -356l-359 -2z" />
<glyph unicode="l" horiz-adv-x="999" d="M57 453q0 233 23 702l375 -2q-12 -408 -13 -520v-285l519 4l2 -358q-395 -25 -609 -25q-113 0 -284 4q-12 240 -13 480zM473 1454q0 45 32 76t75 31q51 0 82 -39q6 41 35.5 67.5t70.5 26.5q79 0 102 -76q4 -10 4 -29q0 -119 -118 -307q-229 109 -279 219q-4 14 -4 31z " />
<glyph unicode="m" horiz-adv-x="1445" d="M57 541q0 276 4 596l414 14l248 -514l248 514l413 -14q5 -324 5 -596q0 -279 -23 -535l-354 -18q18 178 26 567l-315 -582l-315 582q4 -188 26 -567l-354 18q-23 256 -23 535zM236 1567q-2 10 -2 19q0 42 47 52q9 2 18 2q27 0 45 -24q6 41 45 49q12 3 21 3q41 0 53 -48 q1 -6 1 -12q0 -66 -75 -174q-129 68 -153 133zM647 1417q14 57 72 58q68 0 76 -68q23 31 56 31q11 0 23 -4q55 -14 56 -74q0 -11 -2 -21q-18 -27 -43 -53q-61 -61 -152 -104q-88 133 -88 214q0 11 2 21z" />
<glyph unicode="n" horiz-adv-x="1300" d="M57 532q0 279 4 601l461 14l338 -621l23 600l360 -12l-22 -1126l-430 6l-345 567q4 -207 9 -293q6 -164 20 -291l-391 19q-27 256 -27 536zM240 1696q0 39 27.5 66.5t66.5 27.5q47 0 76 -35q10 82 94 82q72 0 90 -70q2 -12 2 -26q0 -102 -109 -271q-203 100 -243 199 q-4 12 -4 27zM868 1477q14 43 58 43q55 0 61 -56q19 21 43 21q10 0 21 -4q43 -12 43 -58q0 -10 -4 -18q-16 -23 -37 -41q-53 -49 -125 -80q-62 105 -62 170q0 12 2 23z" />
<glyph unicode="o" d="M20 586q0 264 178.5 456.5t440.5 192.5t440 -192.5t178 -456.5t-176 -455q-180 -197 -442 -197t-442 197q-176 190 -177 455zM393 586q0 -115 66 -205q72 -98 180 -98q111 0 180 98q66 90 66 205q0 113 -66 202q-70 100 -180 101q-109 0 -180 -101q-66 -90 -66 -202z" />
<glyph unicode="p" horiz-adv-x="1335" d="M0 1096q272 125 752 125q225 0 378 -95q185 -112 185 -325q0 -231 -230 -389q-205 -141 -446 -142l-74 166v-487l-368 4l-15 805q-72 -18 -133 -41zM565 551q113 16 195 53q123 55 123 139t-174 84q-70 0 -144 -6v-270zM668 1618q0 45 31.5 75.5t76.5 30.5q49 0 82 -38 q4 41 35 67.5t72 26.5q79 0 102 -76q2 -10 2 -29q0 -119 -117 -307q-231 109 -278 219q-6 16 -6 31z" />
<glyph unicode="q" horiz-adv-x="1290" d="M20 586q0 264 177 452q180 197 442 197t442 -197q176 -188 176 -452q0 -256 -163 -443q53 -88 86 -157l-232 -156q-31 70 -74 154q-113 -49 -235 -50q-262 0 -442 197q-176 190 -177 455zM393 586q0 -115 66 -205q72 -98 180 -98q23 0 43 4q-74 106 -137 190l172 133 q66 -61 145 -151q23 59 23 127q0 113 -66 202q-70 100 -180 101q-109 0 -180 -101q-66 -90 -66 -202z" />
<glyph unicode="r" horiz-adv-x="1298" d="M0 1112q418 98 721 98q209 0 364 -77q197 -99 197 -289q0 -305 -309 -449l227 -327l-352 -191l-303 430v-350h-379v799q-55 -14 -115 -29zM545 565q311 45 311 174q0 47 -80 68q-55 16 -123 16q-49 0 -108 -6v-252z" />
<glyph unicode="s" horiz-adv-x="1099" d="M16 866q0 178 172 293q152 100 338 101q158 0 314 -66q164 -67 260 -184l-219 -273q-156 139 -330 140q-109 0 -109 -46q0 -35 160 -100q215 -90 299 -147q162 -111 162 -248q0 -193 -150 -313q-139 -113 -335 -113q-281 0 -560 301l222 281q72 -80 168 -140 q111 -67 201 -67h3q90 0 90 49q0 41 -178 108q-240 88 -329 148q-178 115 -179 276zM246 1495q-3 11 -3 21q0 41 48 53q9 2 17 2q27 0 46 -25q6 41 45 49q12 3 22 3q41 0 52 -46q1 -6 0 -13q0 -68 -74 -175q-129 68 -153 131zM715 1772q14 40 55 40h2q55 0 59 -57 q19 21 44 21q10 0 22 -4q41 -14 41 -58q0 -10 -4 -20q-16 -20 -39 -41q-55 -47 -125 -76q-58 103 -58 167q0 15 3 28z" />
<glyph unicode="t" horiz-adv-x="1105" d="M37 805l8 340l1012 8l12 -326l-297 -6l-27 -887l-362 3l-10 876zM195 1565q20 69 90 69h2q84 0 94 -84q29 37 74 37q41 0 68.5 -27.5t27.5 -68.5q0 -13 -4 -25q-12 -29 -39 -59q-68 -72 -205 -139q-110 168 -110 272q0 13 2 25zM694 1690q-3 11 -3 21q0 40 48 50 q9 2 18 2q27 0 46 -24q6 41 45 49q12 3 21 3q41 0 53 -48q1 -6 0 -12q0 -66 -76 -175q-127 68 -152 134z" />
<glyph unicode="u" horiz-adv-x="1148" d="M37 469q0 123 45 715l385 -29q-45 -578 -45 -686q0 -180 158 -180q147 0 147 164q0 113 -45 696l383 31q47 -598 47 -727q0 -242 -146.5 -395.5t-385.5 -153.5q-238 0 -390.5 161.5t-152.5 403.5zM213 1747q12 43 57 43q55 0 62 -55q18 22 42 22q10 0 21 -4 q43 -12 43 -57q0 -11 -4 -19q-14 -23 -37 -41q-51 -49 -123 -82q-63 106 -63 171q0 12 2 22zM627 1534q0 39 35 55q14 7 28 7q19 0 37 -15q-2 27 16.5 46.5t44.5 19.5q38 0 54 -33q6 -16 6 -45q0 -63 -35 -156q-139 37 -178 94q-8 12 -8 27z" />
<glyph unicode="v" horiz-adv-x="1157" d="M-41 1067l358 145l250 -589l252 589l359 -145l-611 -1178z" />
<glyph unicode="w" horiz-adv-x="1406" d="M-41 1112l336 113l170 -604l229 473l228 -473l170 604l335 -113l-469 -1237l-264 506l-266 -506zM485 1440q0 59 62 59q39 0 55 -35q16 35 55 35q62 0 62 -59q-2 -20 -14 -43q-29 -57 -103 -121q-109 94 -117 164zM977 1767q18 70 90 70q84 0 94 -82q29 35 76 35 q39 0 66.5 -27.5t27.5 -66.5q0 -15 -4 -27q-10 -29 -39 -59q-68 -72 -205 -140q-108 167 -108 270q0 14 2 27z" />
<glyph unicode="x" horiz-adv-x="1130" d="M16 145q152 186 332 424q-158 221 -328 471l297 203q115 -176 250 -371q137 195 252 371l295 -203q-168 -250 -328 -471q178 -236 326 -417l-272 -218q-131 160 -273 342q-143 -184 -280 -350z" />
<glyph unicode="y" horiz-adv-x="1148" d="M37 809q0 244 10 383l385 -31q-10 -123 -10 -352q0 -188 158 -188q147 0 147 172q0 236 -10 372l383 31q12 -151 12 -403q0 -186 -86 -330q-94 -158 -260 -213q0 -170 2 -270l-365 -7q-4 115 -6 277q-168 57 -268 219q-92 154 -92 340zM236 1690q-2 10 -2 19q0 42 47 52 q9 2 18 2q27 0 45 -24q6 41 45 49q12 3 21 3q42 0 53 -48q1 -6 1 -12q0 -67 -75 -175q-129 68 -153 134zM647 1540q14 57 72 57q68 0 76 -67q23 30 55 30q11 0 24 -4q55 -14 56 -73q0 -11 -2 -21q-18 -27 -43 -53q-61 -61 -152 -104q-88 133 -88 214q0 11 2 21z" />
<glyph unicode="z" horiz-adv-x="1097" d="M16 45l486 786l-443 -16l-4 338l1026 -27l-503 -778l458 -6l-14 -326zM137 1675q0 39 28 66.5t66 27.5q47 0 76 -34q10 82 94 82q73 0 91 -70q2 -12 2 -26q0 -102 -109 -271q-203 100 -244 199q-4 12 -4 26zM735 1466q11 48 53 48q10 0 21 -3q39 -10 45 -49q20 25 49 25 q7 0 15 -2q48 -14 47 -54q0 -9 -2 -20q-8 -20 -25 -39q-43 -49 -129 -92q-75 108 -75 174q0 6 1 12z" />
<glyph unicode="{" horiz-adv-x="892" d="M57 559l234 260q-6 86 -6 166q0 260 107.5 379t369.5 119q37 0 67 -2l-22 -297l-43 2q-131 4 -180 -39q-18 -43 -19 -162q0 -102 23 -268l-137 -152l141 -149q-14 -154 -14 -254q0 -154 22 -209q25 -23 105 -31q63 -8 112 -6l19 -297l-45 -2q-289 -6 -404 139 q-92 117 -92 381q0 70 6 166z" />
<glyph unicode="|" horiz-adv-x="512" d="M57 455q0 276 23 692l375 -14q-27 -377 -27 -687q0 -307 8 -481l-364 -10q-14 225 -15 500z" />
<glyph unicode="}" horiz-adv-x="892" d="M57 -381l17 297q49 -2 114 6q80 8 105 31q23 55 22 209q0 100 -14 254l141 149l-137 152q23 166 23 268q0 119 -19 162q-49 43 -180 39l-43 -2l-23 297q31 2 68 2q262 0 373 -121q104 -117 104 -377q0 -80 -6 -166l234 -260l-244 -256q6 -96 6 -166q0 -264 -94 -381 q-113 -145 -402 -139z" />
<glyph unicode="~" horiz-adv-x="919" d="M57 739q102 37 215 37q78 0 220.5 -41t216.5 -41q12 0 41.5 5.5t42.5 2.5q25 6 65 27q4 -28 4 -59q0 -53 -7 -160t-7 -160q-96 -27 -174 -26q-80 0 -227.5 48t-223.5 48q-102 0 -160 -41q-6 55 -2 180q4 117 -4 180z" />
<glyph unicode="&#xa1;" horiz-adv-x="587" d="M57 1004q0 74 84 118q70 39 152 39t151 -39q86 -44 86 -118q0 -76 -86 -121q-70 -37 -151 -37q-82 0 -152 37q-84 45 -84 121zM72 293q0 186 12 465l377 -8q-20 -258 -21 -787l-364 -6q-4 152 -4 336z" />
<glyph unicode="&#xa2;" horiz-adv-x="897" d="M57 541q0 291 267 430l6 219l319 -19l-4 -137q100 -8 166 -33l-51 -280q-94 25 -139 24q-117 0 -193 -53q-86 -61 -86 -172q0 -61 39 -98t100 -37q145 0 256 150l103 -242q-90 -102 -211 -139l4 -146l-309 -10l-7 160q-121 43 -190.5 148.5t-69.5 234.5z" />
<glyph unicode="&#xa3;" horiz-adv-x="1107" d="M57 444l9 197q76 -4 172 -8q47 209 108 303q96 147 270 147q156 0 264.5 -102t114.5 -256l-264 -47q2 14 2 29q0 117 -94 116q-59 0 -96 -71q-14 -27 -45 -125q162 0 264 4l6 -191q-152 -8 -322 -8l-16 -65q328 -10 612 2l9 -256q-172 -8 -385 -9q-215 0 -535 15 q33 164 66 319z" />
<glyph unicode="&#xa4;" horiz-adv-x="1114" d="M57 557l150 2l2 35h-146l-6 131h179q57 158 209.5 259t322.5 101q162 0 258 -36l-55 -308q-102 29 -154 29q-113 0 -190 -47l188 -2l-37 -133l-254 4l-6 -33l262 -4l-37 -135l-192 4q39 -47 117 -47q158 0 278 162l111 -260q-152 -176 -391 -177q-164 0 -281 84 q-123 86 -164 242h-158z" />
<glyph unicode="&#xa5;" horiz-adv-x="890" d="M57 793q0 180 9 282l276 -22q-8 -90 -8 -260q0 -139 115 -140q106 0 106 127q0 174 -8 277l276 22q11 -113 11 -299q0 -201 -121 -321h69l-8 -117l-190 4v-31l198 -2l-8 -116l-190 4l2 -88l-264 -4l-3 94h-206l-9 112l213 2v31h-204l-9 113h82q-129 129 -129 332z" />
<glyph unicode="&#xa6;" horiz-adv-x="512" d="M57 424l369 8q0 -293 10 -467l-364 -10q-14 215 -15 469zM59 635q6 246 21 512l375 -14q-18 -250 -25 -506z" />
<glyph unicode="&#xa7;" horiz-adv-x="1198" d="M57 -59l219 272q154 -139 328 -139q111 0 111 45q0 35 -162 100q-215 90 -299 148q-160 109 -160 247q0 133 135 205q-172 109 -172 275q0 178 172 292q152 100 338 101q158 0 314 -66q164 -68 260 -184l-219 -272q-156 139 -330 139q-109 0 -109 -45q0 -35 160 -103 q215 -88 299 -145q162 -109 162 -248q0 -133 -135 -207q172 -106 172 -272q0 -178 -172 -293q-152 -102 -338 -102q-160 0 -314 65q-166 70 -260 187zM455 616q0 -43 256 -137q32 31 32 82q0 41 -256 137q-33 -31 -32 -82z" />
<glyph unicode="&#xa8;" horiz-adv-x="757" d="M57 1468q0 45 52 72q41 23 90 23t95 -25t46 -70t-46 -69.5t-95 -24.5t-90 23q-51 27 -52 71zM418 1468q0 45 49 72q43 23 92 23t90 -23q51 -27 51 -72t-51 -71q-41 -23 -90 -23t-92 23q-49 27 -49 71z" />
<glyph unicode="&#xa9;" horiz-adv-x="1071" d="M20 608q0 221 148.5 382t368.5 161q217 0 368 -164q146 -158 146 -379q0 -219 -146 -379q-152 -162 -368 -161q-219 0 -368 160.5t-149 379.5zM197 608q0 -150 94 -264q98 -121 246 -121q147 0 245 121q92 114 92 264q0 152 -92 264q-98 123 -245 123t-246 -123 q-94 -113 -94 -264zM285 582q0 123 90 206.5t215 83.5q86 0 139 -20l-31 -166q-55 16 -82 16q-70 0 -116.5 -33.5t-46.5 -99.5q0 -80 82 -80q86 0 149 89l61 -142q-82 -96 -213 -96q-106 0 -176.5 67.5t-70.5 174.5z" />
<glyph unicode="&#xaa;" horiz-adv-x="704" d="M20 823q0 145 91.5 234.5t236.5 89.5t240.5 -94.5t95.5 -239.5q0 -104 -39 -426l-233 31l6 90l-131 -4l4 -82l-236 -33q-35 326 -35 434zM25 295q127 4 278 4q154 0 385 -12l-8 -193q-213 20 -649 21zM272 793q0 -88 4 -160l152 4q4 63 4 147q0 41 -21.5 74t-60.5 33 q-78 0 -78 -98z" />
<glyph unicode="&#xab;" horiz-adv-x="1110" d="M57 594l504 514l62 -201l-252 -313l252 -326l-62 -190zM487 594l504 514l62 -201l-252 -313l252 -326l-62 -190z" />
<glyph unicode="&#xac;" horiz-adv-x="1429" d="M57 573l6 285l1309 -33l-57 -581l-283 26l27 279z" />
<glyph unicode="&#xad;" horiz-adv-x="915" d="M57 739q152 6 336 6q186 0 465 -14l-8 -375q-258 18 -784 19z" />
<glyph unicode="&#xae;" horiz-adv-x="1071" d="M20 608q0 221 148.5 382t368.5 161q217 0 368 -164q146 -158 146 -379q0 -219 -146 -379q-152 -162 -368 -161q-219 0 -368 160.5t-149 379.5zM197 608q0 -150 94 -264q98 -121 246 -121q147 0 245 121q92 114 92 264q0 152 -92 264q-98 123 -245 123t-246 -123 q-94 -113 -94 -264zM287 823q166 41 288 41q84 0 146 -33q78 -38 78 -114q0 -123 -123 -180l90 -131l-139 -76l-123 172v-140h-152v320l-45 -12zM504 606q125 17 125 70q0 37 -82 33l-43 -2v-101z" />
<glyph unicode="&#xaf;" horiz-adv-x="507" d="M66 1544q74 2 163 2q93 0 230 -6l-6 -184q-125 10 -383 10z" />
<glyph unicode="&#xb0;" horiz-adv-x="587" d="M73 1078q0 80 74 131q68 45 152 45q92 0 166 -51q81 -58 81 -144q0 -82 -73 -133q-66 -43 -152 -43q-90 0 -164 49q-84 57 -84 146zM206 1078q0 -37 38 -59.5t75 -22.5q96 0 96 63q0 35 -37.5 57.5t-76.5 22.5q-94 0 -95 -61z" />
<glyph unicode="&#xb1;" horiz-adv-x="915" d="M74 924q100 4 211 4q2 90 8 209l377 -11q-8 -96 -13 -200q94 -5 217 -11l-8 -374q-102 8 -217 12v-211l-364 -8q-4 106 -4 225h-199zM90 223q152 2 336 2q186 0 465 -8l-8 -242q-258 12 -785 13z" />
<glyph unicode="&#xb2;" horiz-adv-x="569" d="M57 668q90 37 172 88q127 78 127 135q0 27 -45 27q-78 0 -157 -89l-97 121q121 129 244 129q86 0 145 -47q66 -53 66 -135q0 -88 -109 -166q-84 -59 -188 -88q180 -4 268 2l4 -139q-74 -6 -163 -6q-90 0 -263 10z" />
<glyph unicode="&#xb3;" horiz-adv-x="575" d="M57 618l103 115q80 -82 153 -82q25 0 35 11l4 10q0 51 -131 123q131 72 131 123l-4 10q-10 10 -35 10q-74 0 -153 -82l-103 117q125 119 248 119q82 0 144 -41q70 -47 69 -127q0 -70 -76 -129q76 -59 76 -129q0 -78 -69 -127q-61 -41 -144 -41q-123 0 -248 120z" />
<glyph unicode="&#xb4;" horiz-adv-x="544" d="M57 1327q127 197 246 393l184 -108q-129 -207 -251 -395z" />
<glyph unicode="&#xb5;" horiz-adv-x="882" d="M57 178q0 141 17 342q16 168 30 338l269 -20q-31 -403 -31 -482q0 -125 111 -125q102 0 102 115q0 78 -31 488l269 20q32 -420 32 -508q0 -170 -102 -277.5t-270 -107.5q-72 0 -136 23q2 -186 7 -289l-254 -8q-12 188 -13 491z" />
<glyph unicode="&#xb6;" horiz-adv-x="1429" d="M57 809q0 213 185 326q154 94 376 94q480 0 754 -125l-51 -379q-51 18 -102 33l-11 -795l-264 -4v856l-47 6l-12 -858l-264 -4v330q-221 39 -379 166q-184 147 -185 354zM489 752q1 -87 132 -144v226q-131 -12 -132 -82z" />
<glyph unicode="&#xb7;" horiz-adv-x="587" d="M73 557q0 74 84 118q70 37 152 37t151 -37q86 -44 86 -118q0 -76 -86 -121q-70 -37 -151 -37q-82 0 -152 37q-84 45 -84 121z" />
<glyph unicode="&#xb8;" horiz-adv-x="735" d="M57 -438l29 104q176 -57 324 -57q127 0 127 59q0 70 -347 56l144 268l106 -15l-43 -110q281 -27 281 -199q0 -98 -103 -155q-84 -45 -190 -45q-174 0 -328 94z" />
<glyph unicode="&#xb9;" horiz-adv-x="292" d="M57 754q0 125 11 311l168 -6q-20 -283 -9 -524l-164 -7q-6 102 -6 226z" />
<glyph unicode="&#xba;" horiz-adv-x="782" d="M20 754q0 160 108 275.5t263 115.5q158 0 264.5 -115.5t106.5 -275.5q0 -158 -106.5 -273.5t-264.5 -115.5q-156 0 -263.5 115.5t-107.5 273.5zM59 102l4 193q219 -16 652 -8l8 -181q-125 -8 -279 -10t-385 6zM244 754q0 -68 39 -121q43 -61 108 -62q66 0 109 62 q39 53 39 121q0 70 -41 126t-107 56t-106.5 -56.5t-40.5 -125.5z" />
<glyph unicode="&#xbb;" horiz-adv-x="1110" d="M57 268l252 326l-252 313l62 201l504 -514l-504 -516zM487 268l252 326l-252 313l62 201l504 -514l-504 -516z" />
<glyph unicode="&#xbc;" horiz-adv-x="1064" d="M57 123q385 483 707 967l154 -105q-369 -539 -721 -973zM119 754q0 125 10 311l168 -6q-20 -283 -8 -524l-164 -7q-6 102 -6 226zM522 164q90 190 256 452l101 -65l82 -2q-10 -156 -11 -283h54l4 -108h-58q2 -82 4 -127l-153 -4q-2 53 -4 127h-27q-135 -2 -248 10z M719 264h78q0 57 2 139q-47 -78 -80 -139z" />
<glyph unicode="&#xbd;" horiz-adv-x="1150" d="M57 123q385 483 707 967l154 -105q-369 -539 -721 -973zM119 754q0 125 10 311l168 -6q-20 -283 -8 -524l-164 -7q-6 102 -6 226zM639 197q90 37 172 88q125 78 125 135q0 27 -45 26q-78 0 -156 -88l-96 121q121 129 244 129q84 0 145 -47q66 -53 66 -135 q0 -88 -111 -166q-82 -59 -186 -88q180 -4 268 2l4 -139q-74 -6 -164 -6q-92 0 -262 10z" />
<glyph unicode="&#xbe;" horiz-adv-x="1228" d="M57 618l103 115q80 -82 153 -82q25 0 35 11l4 10q0 51 -131 123q131 72 131 123l-4 10q-10 10 -35 10q-74 0 -153 -82l-103 117q125 119 248 119q82 0 144 -41q70 -47 69 -127q0 -70 -76 -129q76 -59 76 -129q0 -78 -69 -127q-61 -41 -144 -41q-123 0 -248 120zM223 121 q385 483 705 966l155 -104q-369 -539 -723 -973zM686 164q90 190 256 452l100 -65l82 -2q-10 -156 -10 -283h53l4 -108h-57q2 -82 4 -127l-153 -4q-2 53 -4 127h-27q-135 -2 -248 10zM883 264h78q0 57 2 139q-47 -78 -80 -139z" />
<glyph unicode="&#xbf;" horiz-adv-x="1124" d="M57 311q0 137 121 201q111 47 221 92q121 63 121 203l377 6q0 -143 -127 -231q-12 -8 -238 -117q-127 -61 -126 -141q0 -55 100 -56q84 0 188 58q90 47 160 116l213 -235q-268 -250 -541 -250q-178 0 -313 86q-156 98 -156 268zM463 1049q0 76 84 120q70 37 151 37 q82 0 152 -37q84 -44 84 -120q0 -74 -84 -119q-70 -37 -152 -37t-151 37q-84 45 -84 119z" />
<glyph unicode="&#xc0;" horiz-adv-x="1179" d="M37 655q0 244 151.5 392.5t395.5 148.5q242 0 400.5 -157.5t158.5 -399.5q0 -176 -64 -711l-389 54l10 149l-221 -6l10 -139l-393 -52q-59 541 -59 721zM303 1673l185 108q118 -196 245 -393l-178 -110q-123 188 -252 395zM457 604q0 -147 8 -264l250 4q8 107 8 246 q0 70 -33 121q-39 59 -104 59q-61 0 -95 -50t-34 -116zM823 1538q12 41 58 41q55 0 59 -55q27 31 66 18q41 -14 41 -57q-1 -11 -3 -21q-16 -20 -38 -41q-53 -47 -123 -77q-74 125 -60 192z" />
<glyph unicode="&#xc1;" horiz-adv-x="1179" d="M37 655q0 244 151.5 392.5t395.5 148.5q242 0 400.5 -157.5t158.5 -399.5q0 -176 -64 -711l-389 54l10 149l-221 -6l10 -139l-393 -52q-59 541 -59 721zM446 1368q127 197 246 393l184 -108q-129 -207 -251 -395zM457 604q0 -147 8 -264l250 4q8 107 8 246q0 70 -33 121 q-39 59 -104 59q-61 0 -95 -50t-34 -116zM823 1538q12 41 58 41q55 0 59 -55q27 31 66 18q41 -14 41 -57q-1 -11 -3 -21q-16 -20 -38 -41q-53 -47 -123 -77q-74 125 -60 192z" />
<glyph unicode="&#xc2;" horiz-adv-x="1179" d="M37 655q0 244 151.5 392.5t395.5 148.5q242 0 400.5 -157.5t158.5 -399.5q0 -176 -64 -711l-389 54l10 149l-221 -6l10 -139l-393 -52q-59 541 -59 721zM325 1376l262 146l246 -148l-73 -121l-175 105l-190 -107zM457 604q0 -147 8 -264l250 4q8 107 8 246q0 70 -33 121 q-39 59 -104 59q-61 0 -95 -50t-34 -116zM823 1538q12 41 58 41q55 0 59 -55q27 31 66 18q41 -14 41 -57q-1 -11 -3 -21q-16 -20 -38 -41q-53 -47 -123 -77q-74 125 -60 192z" />
<glyph unicode="&#xc3;" horiz-adv-x="1179" d="M37 655q0 244 151.5 392.5t395.5 148.5q242 0 400.5 -157.5t158.5 -399.5q0 -176 -64 -711l-389 54l10 149l-221 -6l10 -139l-393 -52q-59 541 -59 721zM385 1470q53 16 115 17q41 0 116.5 -17.5t114.5 -17.5q55 0 80 14l2 -26q2 -25 -3 -73t-5 -71q-51 -10 -96 -10 q-41 0 -118 21.5t-118 21.5q-53 0 -86 -18q4 53 -2 159zM457 604q0 -147 8 -264l250 4q8 107 8 246q0 70 -33 121q-39 59 -104 59q-61 0 -95 -50t-34 -116z" />
<glyph unicode="&#xc4;" horiz-adv-x="1179" d="M37 655q0 244 151.5 392.5t395.5 148.5q242 0 400.5 -157.5t158.5 -399.5q0 -176 -64 -711l-389 54l10 149l-221 -6l10 -139l-393 -52q-59 541 -59 721zM283 1386q0 45 51 72q41 23 90 23t95 -25t46 -70t-46 -69.5t-95 -24.5t-90 23q-51 27 -51 71zM457 604 q0 -147 8 -264l250 4q8 107 8 246q0 70 -33 121q-39 59 -104 59q-61 0 -95 -50t-34 -116zM643 1386q0 45 49 72q43 23 92 23t90 -23q52 -27 52 -72t-52 -71q-41 -23 -90 -23t-92 23q-49 27 -49 71z" />
<glyph unicode="&#xc5;" horiz-adv-x="1179" d="M37 655q0 244 151.5 392.5t395.5 148.5q242 0 400.5 -157.5t158.5 -399.5q0 -176 -64 -711l-389 54l10 149l-221 -6l10 -139l-393 -52q-59 541 -59 721zM344 1479q0 80 74 131q68 45 151 45q92 0 166 -51q82 -58 82 -144q0 -82 -74 -133q-66 -43 -151 -43q-90 0 -164 49 q-84 57 -84 146zM457 604q0 -147 8 -264l250 4q8 107 8 246q0 70 -33 121q-39 59 -104 59q-61 0 -95 -50t-34 -116zM477 1479q0 -37 38 -59.5t75 -22.5q96 0 96 63q0 35 -38 57.5t-77 22.5q-94 0 -94 -61z" />
<glyph unicode="&#xc6;" horiz-adv-x="1851" d="M0 170l840 1024l913 14l4 -358l-551 -16l-4 -62l559 6l6 -284l-563 -19l6 -65l570 22l14 -377q-328 -29 -772 -26h-176l-10 164l-404 -7q-68 -90 -135 -206zM586 399l239 2q-4 152 -2 326z" />
<glyph unicode="&#xc7;" horiz-adv-x="1171" d="M37 502q0 297 223 504q217 203 516 202q211 0 338 -49l-72 -401q-135 35 -202 35q-166 0 -275 -76q-123 -86 -123 -246q0 -86 56.5 -140.5t144.5 -54.5q207 0 365 216l147 -345q-182 -211 -463 -229l-28 -72q281 -27 280 -198q0 -98 -102 -156q-84 -45 -191 -45 q-174 0 -327 94l28 105q176 -57 324 -58q127 0 127 60q0 70 -346 55l114 217q-236 20 -385 180t-149 402z" />
<glyph unicode="&#xc8;" horiz-adv-x="1085" d="M57 530q0 248 17 609l913 12l4 -356l-551 -19l-4 -59l559 4l9 -285l-564 -16l4 -68l570 25l14 -379q-326 -29 -772 -27l-176 2q-23 311 -23 557zM241 1612l185 108q118 -196 245 -393l-178 -110q-123 188 -252 395zM375 1473q14 59 74 45q39 -8 45 -50q25 33 63 23 q59 -13 45 -72q-6 -20 -24 -39q-41 -49 -127 -94q-82 119 -76 187z" />
<glyph unicode="&#xc9;" horiz-adv-x="1085" d="M57 530q0 248 17 609l913 12l4 -356l-551 -19l-4 -59l559 4l9 -285l-564 -16l4 -68l570 25l14 -379q-326 -29 -772 -27l-176 2q-23 311 -23 557zM365 1327q127 197 245 393l185 -108q-129 -207 -252 -395z" />
<glyph unicode="&#xca;" horiz-adv-x="1085" d="M57 530q0 248 17 609l913 12l4 -356l-551 -19l-4 -59l559 4l9 -285l-564 -16l4 -68l570 25l14 -379q-326 -29 -772 -27l-176 2q-23 311 -23 557zM264 1356l262 146l246 -148l-73 -121l-175 105l-190 -107zM375 1473q14 59 74 45q39 -8 45 -50q25 33 63 23q59 -13 45 -72 q-6 -20 -24 -39q-41 -49 -127 -94q-82 119 -76 187z" />
<glyph unicode="&#xcb;" horiz-adv-x="1085" d="M57 530q0 248 17 609l913 12l4 -356l-551 -19l-4 -59l559 4l9 -285l-564 -16l4 -68l570 25l14 -379q-326 -29 -772 -27l-176 2q-23 311 -23 557zM200 1366q0 45 52 72q41 23 90 23t95 -25t46 -70t-46 -69.5t-95 -24.5t-90 23q-51 27 -52 71zM375 1473q14 59 74 45 q39 -8 45 -50q25 33 63 23q59 -13 45 -72q-6 -20 -24 -39q-41 -49 -127 -94q-82 119 -76 187zM561 1366q0 45 49 72q43 23 92 23t90 -23q51 -27 51 -72t-51 -71q-41 -23 -90 -23t-92 23q-49 27 -49 71z" />
<glyph unicode="&#xcc;" horiz-adv-x="512" d="M28 1632l185 108q118 -196 245 -393l-178 -110q-123 188 -252 395zM69 467q0 274 23 690l375 -14q-27 -375 -27 -686q0 -305 8 -480l-364 -12q-14 227 -15 502z" />
<glyph unicode="&#xcd;" horiz-adv-x="512" d="M57 467q0 274 23 690l375 -14q-27 -375 -27 -686q0 -305 8 -480l-364 -12q-14 227 -15 502zM118 1347q127 197 246 393l184 -108q-129 -207 -251 -395z" />
<glyph unicode="&#xce;" horiz-adv-x="512" d="M30 1376l262 146l246 -148l-73 -121l-175 105l-190 -107zM69 467q0 274 23 690l375 -14q-27 -375 -27 -686q0 -305 8 -480l-364 -12q-14 227 -15 502z" />
<glyph unicode="&#xcf;" horiz-adv-x="512" d="M-33 1386q0 45 52 72q41 23 90 23t95 -25t46 -70t-46 -69.5t-95 -24.5t-90 23q-51 27 -52 71zM69 467q0 274 23 690l375 -14q-27 -375 -27 -686q0 -305 8 -480l-364 -12q-14 227 -15 502zM328 1386q0 45 49 72q43 23 92 23t90 -23q51 -27 51 -72t-51 -71q-41 -23 -90 -23 t-92 23q-49 27 -49 71z" />
<glyph unicode="&#xd0;" horiz-adv-x="1325" d="M-51 672q119 2 256 4l-4 90l-111 -29l-74 371q287 102 580 102q324 0 506 -133q207 -154 207 -465q0 -225 -183 -448q-188 -229 -407 -250l-105 236l11 -175l-381 -10q-16 209 -29 451h-258zM588 836l6 -164q70 -2 158 -6l-11 -263q-68 4 -139 7q4 -82 6 -152 q119 20 207 150q84 120 84 245q0 92 -82 142q-70 43 -168 43q-25 0 -61 -2z" />
<glyph unicode="&#xd1;" horiz-adv-x="1300" d="M57 532q0 279 4 601l461 14l338 -621l23 600l360 -12l-22 -1126l-430 6l-345 567q4 -207 9 -293q6 -164 20 -291l-391 19q-27 256 -27 536zM446 1430q53 16 115 16q41 0 117 -17.5t115 -17.5q55 0 79 14l2 -26q2 -25 -3 -73t-5 -71q-51 -10 -96 -10q-41 0 -118 21.5 t-117 21.5q-53 0 -86 -18q4 53 -3 160z" />
<glyph unicode="&#xd2;" d="M20 586q0 264 178.5 456.5t440.5 192.5t440 -192.5t178 -456.5t-176 -455q-180 -197 -442 -197t-442 197q-176 190 -177 455zM393 586q0 -115 66 -205q72 -98 180 -98q111 0 180 98q66 90 66 205q0 113 -66 202q-70 100 -180 101q-109 0 -180 -101q-66 -90 -66 -202z M446 1694l185 108q118 -196 245 -393l-178 -110q-123 188 -252 395z" />
<glyph unicode="&#xd3;" d="M20 586q0 264 178.5 456.5t440.5 192.5t440 -192.5t178 -456.5t-176 -455q-180 -197 -442 -197t-442 197q-176 190 -177 455zM393 586q0 -115 66 -205q72 -98 180 -98q111 0 180 98q66 90 66 205q0 113 -66 202q-70 100 -180 101q-109 0 -180 -101q-66 -90 -66 -202z M569 1409q127 197 246 393l184 -108q-129 -207 -251 -395z" />
<glyph unicode="&#xd4;" d="M20 586q0 264 178.5 456.5t440.5 192.5t440 -192.5t178 -456.5t-176 -455q-180 -197 -442 -197t-442 197q-176 190 -177 455zM393 586q0 -115 66 -205q72 -98 180 -98q111 0 180 98q66 90 66 205q0 113 -66 202q-70 100 -180 101q-109 0 -180 -101q-66 -90 -66 -202z M407 1417l262 146l246 -148l-73 -121l-175 105l-190 -107z" />
<glyph unicode="&#xd5;" horiz-adv-x="1310" d="M36 586q0 264 178.5 456.5t440.5 192.5t440 -192.5t178 -456.5t-176 -455q-180 -197 -442 -197t-442 197q-176 190 -177 455zM409 586q0 -115 66 -205q72 -98 180 -98q111 0 180 98q66 90 66 205q0 113 -66 202q-70 100 -180 101q-109 0 -180 -101q-66 -90 -66 -202z M463 1511q53 16 115 17q41 0 117 -17.5t114 -17.5q55 0 80 14l2 -26q2 -25 -3 -73t-5 -71q-51 -10 -96 -10q-41 0 -118 21.5t-118 21.5q-53 0 -86 -18q4 53 -2 159z" />
<glyph unicode="&#xd6;" d="M20 586q0 264 178.5 456.5t440.5 192.5t440 -192.5t178 -456.5t-176 -455q-180 -197 -442 -197t-442 197q-176 190 -177 455zM344 1407q0 45 52 72q41 23 90 23t95 -25t46 -70t-46 -69.5t-95 -24.5t-90 23q-51 27 -52 71zM393 586q0 -115 66 -205q72 -98 180 -98 q111 0 180 98q66 90 66 205q0 113 -66 202q-70 100 -180 101q-109 0 -180 -101q-66 -90 -66 -202zM705 1407q0 45 49 72q43 23 92 23t90 -23q51 -27 51 -72t-51 -71q-41 -23 -90 -23t-92 23q-49 27 -49 71z" />
<glyph unicode="&#xd7;" horiz-adv-x="999" d="M57 240q104 160 211 311q-106 152 -211 311l295 205q59 -98 140 -217q94 119 176 217l274 -215q-109 -129 -237 -301q128 -172 237 -301l-274 -215q-84 98 -176 217q-80 -121 -140 -217z" />
<glyph unicode="&#xd8;" d="M20 594q0 264 178.5 456.5t440.5 192.5q133 0 254 -57l108 162l236 -160l-123 -178q143 -180 143 -416q0 -264 -178 -456.5t-440 -192.5q-141 0 -266 61l-135 -168l-213 172l135 172q-139 178 -140 412zM393 594q0 -49 13 -92q149 196 284 389q-27 6 -51 6 q-109 0 -180 -100q-66 -90 -66 -203zM598 295q20 -4 41 -4q111 0 180 98q66 90 66 205q0 39 -8 76q-141 -199 -279 -375z" />
<glyph unicode="&#xd9;" horiz-adv-x="1148" d="M37 469q0 123 45 715l385 -29q-45 -578 -45 -686q0 -180 158 -180q147 0 147 164q0 113 -45 696l383 31q47 -598 47 -727q0 -242 -146.5 -395.5t-385.5 -153.5q-238 0 -390.5 161.5t-152.5 403.5zM344 1612l184 108q119 -196 246 -393l-178 -110q-123 188 -252 395z" />
<glyph unicode="&#xda;" horiz-adv-x="1148" d="M37 469q0 123 45 715l385 -29q-45 -578 -45 -686q0 -180 158 -180q147 0 147 164q0 113 -45 696l383 31q47 -598 47 -727q0 -242 -146.5 -395.5t-385.5 -153.5q-238 0 -390.5 161.5t-152.5 403.5zM213 1747q12 43 57 43q55 0 62 -55q25 31 63 18q43 -12 43 -57 q0 -11 -4 -19q-14 -23 -37 -41q-51 -49 -123 -82q-74 125 -61 193zM426 1327q127 197 246 393l184 -108q-129 -207 -252 -395z" />
<glyph unicode="&#xdb;" horiz-adv-x="1148" d="M37 469q0 123 45 715l385 -29q-45 -578 -45 -686q0 -180 158 -180q147 0 147 164q0 113 -45 696l383 31q47 -598 47 -727q0 -242 -146.5 -395.5t-385.5 -153.5q-238 0 -390.5 161.5t-152.5 403.5zM213 1747q12 43 57 43q55 0 62 -55q25 31 63 18q43 -12 43 -57 q0 -11 -4 -19q-14 -23 -37 -41q-51 -49 -123 -82q-74 125 -61 193zM346 1356l262 145l246 -147l-74 -121l-174 104l-190 -106z" />
<glyph unicode="&#xdc;" horiz-adv-x="1169" d="M53 469q0 123 45 715l385 -29q-45 -578 -45 -686q0 -180 158 -180q147 0 147 164q0 113 -45 696l383 31q47 -598 47 -727q0 -242 -146 -395.5t-386 -153.5q-238 0 -390.5 161.5t-152.5 403.5zM229 1747q12 43 58 43q55 0 61 -55q25 31 64 18q43 -12 43 -57q0 -11 -4 -19 q-14 -23 -37 -41q-51 -49 -123 -82q-74 125 -62 193zM279 1386q0 45 51 72q41 23 90 23t95 -25t46 -70t-46 -69.5t-95 -24.5t-90 23q-51 27 -51 71zM639 1386q0 45 49 72q43 23 92 23t90 -23q52 -27 52 -72t-52 -71q-41 -23 -90 -23t-92 23q-49 27 -49 71z" />
<glyph unicode="&#xdd;" horiz-adv-x="1148" d="M37 809q0 244 10 383l385 -31q-10 -123 -10 -352q0 -188 158 -188q147 0 147 172q0 236 -10 372l383 31q12 -151 12 -403q0 -186 -86 -330q-94 -158 -260 -213q0 -170 2 -270l-365 -7q-4 115 -6 277q-168 57 -268 219q-92 154 -92 340zM236 1690q-12 59 45 71 q39 10 63 -22q6 41 45 49q60 14 74 -45q8 -68 -74 -187q-129 68 -153 134zM467 1327q127 197 246 393l184 -108q-129 -207 -252 -395z" />
<glyph unicode="&#xde;" horiz-adv-x="1335" d="M0 893q86 39 211 70l10 184l375 -14l-8 -119q82 4 164 4q225 0 378 -94q185 -113 185 -326q0 -231 -230 -387q-205 -141 -446 -141l-70 153q4 -166 9 -258l-365 -10q-18 295 -14 604q-74 -18 -150 -45zM569 350q111 14 193 53q121 56 121 138q0 84 -174 84q-68 0 -138 -7 q-2 -92 -2 -149v-119z" />
<glyph unicode="&#xdf;" horiz-adv-x="2179" d="M16 866q0 178 172 293q152 100 338 101q158 0 314 -66q164 -67 260 -184l-219 -273q-156 139 -330 140q-109 0 -109 -46q0 -35 160 -100q215 -90 299 -147q162 -111 162 -248q0 -193 -150 -313q-139 -113 -335 -113q-281 0 -560 301l222 281q72 -80 168 -140 q113 -68 204 -67q90 0 90 49q0 41 -178 108q-240 88 -329 148q-178 115 -179 276zM1096 866q0 178 172 293q152 100 338 101q158 0 313 -66q164 -67 260 -184l-219 -273q-156 139 -330 140q-109 0 -108 -46q0 -35 159 -100q215 -90 299 -147q162 -111 162 -248 q0 -193 -149 -313q-139 -113 -336 -113q-281 0 -559 301l221 281q72 -80 168 -140q113 -68 205 -67q90 0 90 49q0 41 -178 108q-240 88 -330 148q-178 115 -178 276z" />
<glyph unicode="&#xe0;" horiz-adv-x="1251" d="M-25 61l609 1178l610 -1178l-358 -145l-74 172l-361 -10l-67 -162zM258 1653l184 108q119 -196 246 -393l-178 -111q-123 188 -252 396zM494 291l180 4l-90 211z" />
<glyph unicode="&#xe1;" horiz-adv-x="1251" d="M-25 61l609 1178l610 -1178l-358 -145l-74 172l-361 -10l-67 -162zM469 1327q127 197 246 393l184 -108q-129 -207 -252 -395zM494 291l180 4l-90 211z" />
<glyph unicode="&#xe2;" horiz-adv-x="1251" d="M-25 61l609 1178l610 -1178l-358 -145l-74 172l-361 -10l-67 -162zM342 1417l262 146l246 -148l-74 -121l-174 105l-190 -107zM494 291l180 4l-90 211z" />
<glyph unicode="&#xe3;" horiz-adv-x="1251" d="M-25 61l609 1178l610 -1178l-358 -145l-74 172l-361 -10l-67 -162zM381 1470q53 16 115 17q41 0 116.5 -17.5t114.5 -17.5q55 0 80 14l2 -26q2 -25 -3 -73t-5 -71q-51 -10 -96 -10q-41 0 -118 21.5t-118 21.5q-53 0 -86 -18q4 53 -2 159zM494 291l180 4l-90 211z" />
<glyph unicode="&#xe4;" horiz-adv-x="1251" d="M-25 61l609 1178l610 -1178l-358 -145l-74 172l-361 -10l-67 -162zM258 1386q0 45 51 72q41 23 90 23t95.5 -25t46.5 -70t-46 -69.5t-96 -24.5q-49 0 -90 23q-51 27 -51 71zM494 291l180 4l-90 211zM618 1386q0 45 50 72q43 23 92 23t90 -23q51 -27 51 -72t-51 -71 q-41 -23 -90 -23t-92 23q-49 27 -50 71z" />
<glyph unicode="&#xe5;" horiz-adv-x="1251" d="M-25 61l609 1178l610 -1178l-358 -145l-74 172l-361 -10l-67 -162zM360 1479q0 80 74 131q68 45 152 45q92 0 166 -51q82 -58 82 -144q0 -82 -74 -133q-66 -43 -152 -43q-90 0 -164 49q-84 57 -84 146zM494 291l180 4l-90 211zM494 1479q0 -37 37.5 -59.5t74.5 -22.5 q96 0 96 63q0 35 -37.5 57.5t-76.5 22.5q-94 0 -94 -61z" />
<glyph unicode="&#xe6;" horiz-adv-x="1851" d="M0 170l840 1024l913 14l4 -358l-551 -16l-4 -62l559 6l6 -284l-563 -19l6 -65l570 22l14 -377q-328 -29 -772 -26h-176l-10 164l-404 -7q-68 -90 -135 -206zM586 399l239 2q-4 152 -2 326z" />
<glyph unicode="&#xe7;" horiz-adv-x="1171" d="M37 502q0 297 223 504q217 203 516 202q211 0 338 -49l-72 -401q-135 35 -202 35q-166 0 -275 -76q-123 -86 -123 -246q0 -86 56.5 -140.5t144.5 -54.5q207 0 365 216l147 -345q-182 -211 -463 -229l-28 -72q281 -27 280 -198q0 -98 -102 -156q-84 -45 -191 -45 q-174 0 -327 94l28 105q176 -57 324 -58q127 0 127 60q0 70 -346 55l114 217q-236 20 -385 180t-149 402z" />
<glyph unicode="&#xe8;" horiz-adv-x="1085" d="M57 530q0 248 17 609l913 12l4 -356l-551 -19l-4 -59l559 4l9 -285l-564 -16l4 -68l570 25l14 -379q-326 -29 -772 -27l-176 2q-23 311 -23 557zM303 1612l184 108q119 -196 246 -393l-178 -110q-123 188 -252 395z" />
<glyph unicode="&#xe9;" horiz-adv-x="1085" d="M57 530q0 248 17 609l913 12l4 -356l-551 -19l-4 -59l559 4l9 -285l-564 -16l4 -68l570 25l14 -379q-326 -29 -772 -27l-176 2q-23 311 -23 557zM365 1327q127 197 245 393l185 -108q-129 -207 -252 -395z" />
<glyph unicode="&#xea;" horiz-adv-x="1085" d="M57 530q0 248 17 609l913 12l4 -356l-551 -19l-4 -59l559 4l9 -285l-564 -16l4 -68l570 25l14 -379q-326 -29 -772 -27l-176 2q-23 311 -23 557zM285 1356l262 145l246 -147l-74 -121l-174 104l-191 -106z" />
<glyph unicode="&#xeb;" horiz-adv-x="1085" d="M57 530q0 248 17 609l913 12l4 -356l-551 -19l-4 -59l559 4l9 -285l-564 -16l4 -68l570 25l14 -379q-326 -29 -772 -27l-176 2q-23 311 -23 557zM221 1366q0 45 51 72q41 23 90 22q49 0 95.5 -24.5t46.5 -69.5t-46 -69.5t-96 -24.5q-49 0 -90 22q-51 27 -51 72zM582 1366 q0 45 49 72q43 23 92 22q49 0 90 -22q51 -27 51 -72t-51 -72q-41 -23 -90 -22q-49 0 -92 22q-49 27 -49 72z" />
<glyph unicode="&#xec;" horiz-adv-x="512" d="M22 1612l185 108q118 -196 245 -393l-178 -110q-123 188 -252 395zM63 467q0 274 23 690l375 -14q-27 -375 -27 -686q0 -305 8 -480l-364 -12q-14 227 -15 502z" />
<glyph unicode="&#xed;" horiz-adv-x="512" d="M57 467q0 274 23 690l375 -14q-27 -375 -27 -686q0 -305 8 -480l-364 -12q-14 227 -15 502zM139 1327q127 197 246 393l184 -108q-129 -207 -251 -395z" />
<glyph unicode="&#xee;" horiz-adv-x="512" d="M32 1417l262 146l246 -148l-73 -121l-175 105l-190 -107zM71 467q0 274 23 690l375 -14q-27 -375 -27 -686q0 -305 8 -480l-364 -12q-14 227 -15 502z" />
<glyph unicode="&#xef;" horiz-adv-x="512" d="M-19 1345q0 45 52 72q41 23 90 23t95 -25t46 -70t-46 -69.5t-95 -24.5t-90 23q-51 27 -52 71zM63 467q0 274 23 690l375 -14q-27 -375 -27 -686q0 -305 8 -480l-364 -12q-14 227 -15 502zM342 1345q0 45 49 72q43 23 92 23t90 -23q51 -27 51 -72t-51 -71q-41 -23 -90 -23 t-92 23q-49 27 -49 71z" />
<glyph unicode="&#xf0;" horiz-adv-x="1064" d="M37 336q0 156 114.5 258t274.5 102q150 0 256 -96q-27 94 -113 158l-297 2l-8 254q41 2 82 2l88 215q219 -43 387 -215q105 -2 244 -8l-8 -263q-35 2 -70 5q29 -88 29 -177q0 -262 -137 -432q-147 -184 -402 -184q-174 0 -303 100q-137 109 -137 279zM360 414 q0 -53 54 -84q45 -25 100 -25q131 0 170 133q-41 84 -176 84q-55 0 -98 -26q-49 -31 -50 -82z" />
<glyph unicode="&#xf1;" horiz-adv-x="1300" d="M57 532q0 279 4 601l461 14l338 -621l23 600l360 -12l-22 -1126l-430 6l-345 567q4 -207 9 -293q6 -164 20 -291l-391 19q-27 256 -27 536zM446 1430q53 16 115 16q41 0 117 -17.5t115 -17.5q55 0 79 14l2 -26q2 -25 -3 -73t-5 -71q-51 -10 -96 -10q-41 0 -118 21.5 t-117 21.5q-53 0 -86 -18q4 53 -3 160zM958 1552q12 43 58 43q55 0 59 -55q27 29 66 16q41 -12 41 -57q0 -10 -2 -18q-16 -23 -39 -41q-51 -49 -123 -80q-74 125 -60 192z" />
<glyph unicode="&#xf2;" d="M20 586q0 264 178.5 456.5t440.5 192.5t440 -192.5t178 -456.5t-176 -455q-180 -197 -442 -197t-442 197q-176 190 -177 455zM393 586q0 -115 66 -205q72 -98 180 -98q111 0 180 98q66 90 66 205q0 113 -66 202q-70 100 -180 101q-109 0 -180 -101q-66 -90 -66 -202z M426 1714l185 108q118 -196 245 -393l-178 -110q-123 188 -252 395z" />
<glyph unicode="&#xf3;" d="M20 586q0 264 178.5 456.5t440.5 192.5t440 -192.5t178 -456.5t-176 -455q-180 -197 -442 -197t-442 197q-176 190 -177 455zM393 586q0 -115 66 -205q72 -98 180 -98q111 0 180 98q66 90 66 205q0 113 -66 202q-70 100 -180 101q-109 0 -180 -101q-66 -90 -66 -202z M508 1409q127 197 246 393l184 -108q-129 -207 -251 -395z" />
<glyph unicode="&#xf4;" d="M20 586q0 264 178.5 456.5t440.5 192.5t440 -192.5t178 -456.5t-176 -455q-180 -197 -442 -197t-442 197q-176 190 -177 455zM393 586q0 -115 66 -205q72 -98 180 -98q111 0 180 98q66 90 66 205q0 113 -66 202q-70 100 -180 101q-109 0 -180 -101q-66 -90 -66 -202z M407 1417l262 146l246 -148l-73 -121l-175 105l-190 -107z" />
<glyph unicode="&#xf5;" d="M20 586q0 264 178.5 456.5t440.5 192.5t440 -192.5t178 -456.5t-176 -455q-180 -197 -442 -197t-442 197q-176 190 -177 455zM393 586q0 -115 66 -205q72 -98 180 -98q111 0 180 98q66 90 66 205q0 113 -66 202q-70 100 -180 101q-109 0 -180 -101q-66 -90 -66 -202z M446 1532q53 16 115 17q41 0 117 -17.5t114 -17.5q55 0 80 14l2 -26q2 -25 -3 -73t-5 -71q-51 -10 -96 -10q-41 0 -118 21.5t-118 21.5q-53 0 -86 -18q4 53 -2 159z" />
<glyph unicode="&#xf6;" d="M20 586q0 264 178.5 456.5t440.5 192.5t440 -192.5t178 -456.5t-176 -455q-180 -197 -442 -197t-442 197q-176 190 -177 455zM323 1407q0 45 52 72q41 23 90 23t95 -25t46 -70t-46 -69.5t-95 -24.5t-90 23q-51 27 -52 71zM393 586q0 -115 66 -205q72 -98 180 -98 q111 0 180 98q66 90 66 205q0 113 -66 202q-70 100 -180 101q-109 0 -180 -101q-66 -90 -66 -202zM684 1407q0 45 49 72q43 23 92 23t90 -23q51 -27 51 -72t-51 -71q-41 -23 -90 -23t-92 23q-49 27 -49 71z" />
<glyph unicode="&#xf7;" horiz-adv-x="915" d="M90 643q152 2 336 2q186 0 465 -8l-8 -264q-258 14 -785 14zM272 190q0 61 68 97q55 31 121 30q66 0 121 -30q67 -36 67 -97q0 -59 -67 -96q-55 -29 -121 -28q-66 0 -121 28q-68 37 -68 96zM272 846q0 61 68 96q55 31 121 31t121 -31q67 -35 67 -96q0 -59 -67 -96 q-55 -29 -121 -29t-121 29q-68 37 -68 96z" />
<glyph unicode="&#xf8;" d="M20 594q0 264 178.5 456.5t440.5 192.5q133 0 254 -57l108 162l236 -160l-123 -178q143 -180 143 -416q0 -264 -178 -456.5t-440 -192.5q-141 0 -266 61l-135 -168l-213 172l135 172q-139 178 -140 412zM393 594q0 -49 13 -92q149 196 284 389q-27 6 -51 6 q-109 0 -180 -100q-66 -90 -66 -203zM598 295q20 -4 41 -4q111 0 180 98q66 90 66 205q0 39 -8 76q-141 -199 -279 -375z" />
<glyph unicode="&#xf9;" horiz-adv-x="1148" d="M37 469q0 123 45 715l385 -29q-45 -578 -45 -686q0 -180 158 -180q147 0 147 164q0 113 -45 696l383 31q47 -598 47 -727q0 -242 -146.5 -395.5t-385.5 -153.5q-238 0 -390.5 161.5t-152.5 403.5zM324 1612l184 108q119 -196 246 -393l-179 -110q-123 188 -251 395z M737 1606q0 29 6 43q16 35 54 34q27 0 45 -19t16 -46q31 25 66 8q35 -18 34 -55q0 -15 -8 -27q-10 -18 -32 -33q-51 -37 -146 -61q-35 92 -35 156z" />
<glyph unicode="&#xfa;" horiz-adv-x="1148" d="M37 469q0 123 45 715l385 -29q-45 -578 -45 -686q0 -180 158 -180q147 0 147 164q0 113 -45 696l383 31q47 -598 47 -727q0 -242 -146.5 -395.5t-385.5 -153.5q-238 0 -390.5 161.5t-152.5 403.5zM213 1747q12 43 57 43q55 0 62 -55q25 31 63 18q43 -12 43 -57 q0 -11 -4 -19q-14 -23 -37 -41q-51 -49 -123 -82q-74 125 -61 193zM446 1327q127 197 246 393l185 -108q-129 -207 -252 -395z" />
<glyph unicode="&#xfb;" horiz-adv-x="1148" d="M37 469q0 123 45 715l385 -29q-45 -578 -45 -686q0 -180 158 -180q147 0 147 164q0 113 -45 696l383 31q47 -598 47 -727q0 -242 -146.5 -395.5t-385.5 -153.5q-238 0 -390.5 161.5t-152.5 403.5zM213 1747q12 43 57 43q55 0 62 -55q25 31 63 18q43 -12 43 -57 q0 -11 -4 -19q-14 -23 -37 -41q-51 -49 -123 -82q-74 125 -61 193zM346 1376l262 146l246 -148l-74 -121l-174 105l-190 -107z" />
<glyph unicode="&#xfc;" horiz-adv-x="1148" d="M37 469q0 123 45 715l385 -29q-45 -578 -45 -686q0 -180 158 -180q147 0 147 164q0 113 -45 696l383 31q47 -598 47 -727q0 -242 -146.5 -395.5t-385.5 -153.5q-238 0 -390.5 161.5t-152.5 403.5zM213 1747q12 43 57 43q55 0 62 -55q25 31 63 18q43 -12 43 -57 q0 -11 -4 -19q-14 -23 -37 -41q-51 -49 -123 -82q-74 125 -61 193zM262 1386q0 45 51 72q41 23 90 23t95.5 -25t46.5 -70t-46 -69.5t-96 -24.5q-49 0 -90 23q-51 27 -51 71zM623 1386q0 45 49 72q43 23 92 23t90 -23q51 -27 51 -72t-51 -71q-41 -23 -90 -23t-92 23 q-49 27 -49 71z" />
<glyph unicode="&#xfd;" horiz-adv-x="1148" d="M37 809q0 244 10 383l385 -31q-10 -123 -10 -352q0 -188 158 -188q147 0 147 172q0 236 -10 372l383 31q12 -151 12 -403q0 -186 -86 -330q-94 -158 -260 -213q0 -170 2 -270l-365 -7q-4 115 -6 277q-168 57 -268 219q-92 154 -92 340zM236 1690q-12 59 45 71 q39 10 63 -22q6 41 45 49q60 14 74 -45q8 -68 -74 -187q-129 68 -153 134zM467 1327q127 197 246 393l184 -108q-129 -207 -252 -395z" />
<glyph unicode="&#xfe;" horiz-adv-x="1335" d="M0 893q86 39 211 70l10 184l375 -14l-8 -119q82 4 164 4q225 0 378 -94q185 -113 185 -326q0 -231 -230 -387q-205 -141 -446 -141l-70 153q4 -166 9 -258l-365 -10q-18 295 -14 604q-74 -18 -150 -45zM569 350q111 14 193 53q121 56 121 138q0 84 -174 84q-68 0 -138 -7 q-2 -92 -2 -149v-119z" />
<glyph unicode="&#xff;" horiz-adv-x="1148" d="M37 809q0 244 10 383l385 -31q-10 -123 -10 -352q0 -188 158 -188q147 0 147 172q0 236 -10 372l383 31q12 -151 12 -403q0 -186 -86 -330q-94 -158 -260 -213q0 -170 2 -270l-365 -7q-4 115 -6 277q-168 57 -268 219q-92 154 -92 340zM262 1386q0 45 51 72q41 23 90 23 t95.5 -25t46.5 -70t-46 -69.5t-96 -24.5q-49 0 -90 23q-51 27 -51 71zM623 1386q0 45 49 72q43 23 92 23t90 -23q51 -27 51 -72t-51 -71q-41 -23 -90 -23t-92 23q-49 27 -49 71z" />
<glyph unicode="&#x152;" horiz-adv-x="2043" d="M20 594q0 264 178.5 456.5t440.5 192.5q219 0 387 -143l4 104l914 -20l6 -359l-553 -16l-2 -61l557 6l8 -285l-563 -18l4 -66l569 23l17 -377l-949 -70l-8 129q-170 -145 -391 -145q-262 0 -440.5 192.5t-178.5 456.5zM393 594q0 -115 66 -203q72 -100 180 -100 q111 0 180 100q66 88 66 203q0 113 -66 203q-70 100 -180 100q-109 0 -180 -100q-66 -90 -66 -203z" />
<glyph unicode="&#x153;" horiz-adv-x="2043" d="M20 594q0 264 178.5 456.5t440.5 192.5q219 0 387 -143l4 104l914 -20l6 -359l-553 -16l-2 -61l557 6l8 -285l-563 -18l4 -66l569 23l17 -377l-949 -70l-8 129q-170 -145 -391 -145q-262 0 -440.5 192.5t-178.5 456.5zM393 594q0 -115 66 -203q72 -100 180 -100 q111 0 180 100q66 88 66 203q0 113 -66 203q-70 100 -180 100q-109 0 -180 -100q-66 -90 -66 -203z" />
<glyph unicode="&#x178;" horiz-adv-x="1148" d="M37 809q0 244 10 383l385 -31q-10 -123 -10 -352q0 -188 158 -188q147 0 147 172q0 236 -10 372l383 31q12 -151 12 -403q0 -186 -86 -330q-94 -158 -260 -213q0 -170 2 -270l-365 -7q-4 115 -6 277q-168 57 -268 219q-92 154 -92 340zM262 1386q0 45 51 72q41 23 90 23 t95.5 -25t46.5 -70t-46 -69.5t-96 -24.5q-49 0 -90 23q-51 27 -51 71zM623 1386q0 45 49 72q43 23 92 23t90 -23q51 -27 51 -72t-51 -71q-41 -23 -90 -23t-92 23q-49 27 -49 71z" />
<glyph unicode="&#x2c6;" horiz-adv-x="622" d="M57 1458l262 146l246 -148l-73 -121l-175 105l-190 -107z" />
<glyph unicode="&#x2dc;" horiz-adv-x="542" d="M57 1552q53 16 115 17q41 0 117 -17.5t114 -17.5q55 0 80 14l2 -26q2 -25 -3 -73t-5 -71q-51 -10 -96 -10q-41 0 -118 21.5t-118 21.5q-53 0 -86 -18q4 53 -2 159z" />
<glyph unicode="&#x2000;" horiz-adv-x="931" />
<glyph unicode="&#x2001;" horiz-adv-x="1862" />
<glyph unicode="&#x2002;" horiz-adv-x="931" />
<glyph unicode="&#x2003;" horiz-adv-x="1862" />
<glyph unicode="&#x2004;" horiz-adv-x="620" />
<glyph unicode="&#x2005;" horiz-adv-x="465" />
<glyph unicode="&#x2006;" horiz-adv-x="310" />
<glyph unicode="&#x2007;" horiz-adv-x="310" />
<glyph unicode="&#x2008;" horiz-adv-x="232" />
<glyph unicode="&#x2009;" horiz-adv-x="372" />
<glyph unicode="&#x200a;" horiz-adv-x="103" />
<glyph unicode="&#x2010;" horiz-adv-x="915" d="M73 739q152 6 336 6q186 0 465 -14l-8 -375q-258 18 -784 19z" />
<glyph unicode="&#x2011;" horiz-adv-x="915" d="M73 739q152 6 336 6q186 0 465 -14l-8 -375q-258 18 -784 19z" />
<glyph unicode="&#x2012;" horiz-adv-x="915" d="M73 739q152 6 336 6q186 0 465 -14l-8 -375q-258 18 -784 19z" />
<glyph unicode="&#x2013;" horiz-adv-x="915" d="M73 739q152 6 336 6q186 0 465 -14l-8 -375q-258 18 -784 19z" />
<glyph unicode="&#x2014;" horiz-adv-x="1236" d="M80 739q213 6 471 6q260 0 651 -14l-12 -375q-360 18 -1100 19z" />
<glyph unicode="&#x2018;" horiz-adv-x="407" d="M66 961q0 74 59 134t131 54h18q-59 -25 -94 -76l23 2q53 4 96 -29.5t43 -84.5q0 -53 -43 -85t-96 -32q-51 0 -94 32.5t-43 84.5z" />
<glyph unicode="&#x2019;" horiz-adv-x="407" d="M66 1034q0 51 43 84t94 33q53 0 96 -33t43 -84q0 -76 -59.5 -135t-130.5 -55h-19q57 27 94 76l-24 -2q-51 -4 -94 29.5t-43 86.5z" />
<glyph unicode="&#x201a;" horiz-adv-x="391" d="M82 112q0 51 43 84t94 33q53 0 96 -33t43 -84q0 -76 -59.5 -135t-130.5 -55h-19q57 27 94 76l-24 -2q-51 -4 -94 29.5t-43 86.5z" />
<glyph unicode="&#x201c;" horiz-adv-x="710" d="M66 961q0 74 59 134t131 54h18q-59 -25 -94 -76l23 2q53 4 96 -29.5t43 -84.5q0 -53 -43 -85t-96 -32q-51 0 -94 32.5t-43 84.5zM369 961q0 74 58 134t132 54h19q-59 -25 -95 -76l23 2q51 4 95 -29.5t44 -84.5q0 -53 -43 -85t-96 -32q-51 0 -94 32.5t-43 84.5z" />
<glyph unicode="&#x201d;" horiz-adv-x="710" d="M66 1034q0 51 43 84t94 33q53 0 96 -33t43 -84q0 -76 -59.5 -135t-130.5 -55h-19q57 27 94 76l-24 -2q-51 -4 -94 29.5t-43 86.5zM369 1034q0 51 45 84q39 33 92 33t96 -33t43 -84q0 -76 -59.5 -135t-132.5 -55h-17q57 27 94 76l-24 -2q-51 -4 -94 29.5t-43 86.5z" />
<glyph unicode="&#x201e;" horiz-adv-x="694" d="M82 112q0 51 43 84t94 33q53 0 96 -33t43 -84q0 -76 -59.5 -135t-130.5 -55h-19q57 27 94 76l-24 -2q-51 -4 -94 29.5t-43 86.5zM385 112q0 51 45 84q39 33 92 33t96 -33t43 -84q0 -76 -59.5 -135t-132.5 -55h-17q57 27 94 76l-24 -2q-51 -4 -94 29.5t-43 86.5z" />
<glyph unicode="&#x2022;" horiz-adv-x="794" d="M82 555q0 121 121 193q100 59 219 59q117 0 217 -59q123 -72 123 -193q0 -119 -123 -193q-100 -59 -217 -59q-119 0 -219 59q-121 74 -121 193z" />
<glyph unicode="&#x2026;" horiz-adv-x="1734" d="M73 115q0 74 84 118q70 37 152 37t151 -37q86 -44 86 -118q0 -76 -86 -121q-70 -37 -151 -37q-82 0 -152 37q-84 45 -84 121zM647 115q0 74 84 118q70 37 152 37t151 -37q86 -44 86 -118q0 -76 -86 -121q-70 -37 -151 -37q-82 0 -152 37q-84 45 -84 121zM1220 115 q0 74 84 118q70 37 152 37t151 -37q86 -44 86 -118q0 -76 -86 -121q-70 -37 -151 -37q-82 0 -152 37q-84 45 -84 121z" />
<glyph unicode="&#x202f;" horiz-adv-x="372" />
<glyph unicode="&#x2039;" horiz-adv-x="679" d="M57 791l504 514l62 -201q-68 -90 -252 -313q92 -115 252 -326l-62 -191z" />
<glyph unicode="&#x203a;" horiz-adv-x="679" d="M57 465q63 90 252 326q-88 109 -252 313l62 201l504 -514l-504 -517z" />
<glyph unicode="&#x205f;" horiz-adv-x="465" />
<glyph unicode="&#x2122;" horiz-adv-x="1155" d="M57 1022l4 125l422 4l6 -121l-127 -2l-10 -385h-149l-4 381zM539 887l2 250l174 6l104 -215l103 215l174 -6l2 -250q0 -106 -11 -223l-147 -9q8 76 10 238l-131 -244l-133 244q2 -80 10 -238l-147 9q-10 115 -10 223z" />
<glyph unicode="&#x25fc;" horiz-adv-x="1239" d="M0 0v1239h1239v-1239h-1239z" />
</font>
</defs>
</svg>
