<svg xmlns="http://www.w3.org/2000/svg">
<defs>
<font id="BradyBunchRemasteredRegular" horiz-adv-x="369" >
  <font-face 
    font-family="BradyBunchRemasteredRegular"
    font-weight="400"
    font-stretch="normal"
    units-per-em="2048"
    panose-1="2 11 6 0 2 2 2 2 2 4"
    ascent="1638"
    descent="-410"
    x-height="1031"
    cap-height="1169"
    bbox="-286 -469 2236.12 1680"
    underline-thickness="150"
    underline-position="-142"
    unicode-range="U+0020-2122"
  />
<missing-glyph horiz-adv-x="1900" 
d="M573 1036q8 -8 8 -12t-7 -4h-3q-3 0 -9 1zM164 1004v-78q0 -11 -4 -35.5t-4 -37.5q0 -27 5 -51q5 4 6 10q20 120 50 174q-16 14 -56 35zM573 979q13 -6 13 -8q-2 -3 -8 -3h-8zM1385 950q10 -1 10 -10q-15 -3 -20 -3h-3q-3 0 -3 2q0 3 16 11zM1178 630q5 1 10 4q-2 2 -6 4
zM1174 602q15 8 15 14t-11 11zM1196 602q2 -14 5 -14q4 0 9 14h-14zM1701 478q-24 -16 -48 -16q-13 0 -26 5q-3 -6 -8 -8q15 -7 31 -7q26 0 55 18q0 4 -4 8zM794 335q30 -4 30 -30q0 -4 -1 -9q-30 3 -30 28q0 5 1 11zM1559 271h4q-6 -19 -18 -60q-4 -30 -29 -89l-35 -47
q-7 -22 -18 -53q-8 -13 -19 -41h356l1 -353l-1700 1v351l1214 1q18 6 18 16q0 5 -6 11q17 0 18 18q4 -4 13 -7v2q1 6 -5 16q15 4 21 21l7 -1q19 0 29 25q23 9 28 36q10 7 25 14l-4 29l25 3v9q-1 14 8 38q9 -1 19 -1q9 0 19 1l-6 6zM364 222q-7 -14 -7 -23q0 -18 25 -17h6
q12 14 12 29q-1 3 -1 6q-19 6 -31 5h-4zM100 1644l24 1v24h8l14 -3l-11 -10v0v-8q8 -7 16 -13.5t2 -18.5q12 -3 12 -6q-3 -2 -12 -4l11 -18q-5 -45 21 -61v-7l-6 4q-7 -18 -26 -11l3 -10q22 0 18 -18l8 -11v-11h10q1 -7 -3 -21q6 -9 7 -25q11 -4 9 -10l-9 -19l8 2q8 0 7 -13
l10 -3v0l-7 -14q9 -13 3 -22q19 -5 4 -11v-10h11l-4 -14l7 -3l7 -22l-4 -4v-10l4 -4l4 -21l-8 -4v-17q8 -7 0 -18q9 -9 5 -30q-6 -29 -5 -34l8 -4q-6 -17 7 -25v-7l-7 -14l4 -10l-8 -15q3 -2 0 -11v0v-7l11 -17l-7 -8q-1 -10 1 -25q3 -18 3 -25v-32v0h6q7 0 0 8v0v6l8 8
q1 12 7 36q-4 11 -4 21q0 39 15 74v0l-5 4q28 140 26 160l3 3q2 12 3 36q6 13 12 27q10 19 21 16q15 31 38 85l8 7v4q0 19 11 32q3 13 4 40h6q-2 14 8 17l-2 17q0 27 23 40v0v7l-21 -7l3 11l18 13q2 26 18 37q4 19 21 24l3 18h-380v-36zM153 1548q-12 -10 -29 -7

<glyph glyph-name=".notdef" horiz-adv-x="1900" 
d="M573 1036q8 -8 8 -12t-7 -4h-3q-3 0 -9 1zM164 1004v-78q0 -11 -4 -35.5t-4 -37.5q0 -27 5 -51q5 4 6 10q20 120 50 174q-16 14 -56 35zM573 979q13 -6 13 -8q-2 -3 -8 -3h-8zM1385 950q10 -1 10 -10q-15 -3 -20 -3h-3q-3 0 -3 2q0 3 16 11zM1178 630q5 1 10 4q-2 2 -6 4
zM1174 602q15 8 15 14t-11 11zM1196 602q2 -14 5 -14q4 0 9 14h-14zM1701 478q-24 -16 -48 -16q-13 0 -26 5q-3 -6 -8 -8q15 -7 31 -7q26 0 55 18q0 4 -4 8zM794 335q30 -4 30 -30q0 -4 -1 -9q-30 3 -30 28q0 5 1 11zM1559 271h4q-6 -19 -18 -60q-4 -30 -29 -89l-35 -47
q-7 -22 -18 -53q-8 -13 -19 -41h356l1 -353l-1700 1v351l1214 1q18 6 18 16q0 5 -6 11q17 0 18 18q4 -4 13 -7v2q1 6 -5 16q15 4 21 21l7 -1q19 0 29 25q23 9 28 36q10 7 25 14l-4 29l25 3v9q-1 14 8 38q9 -1 19 -1q9 0 19 1l-6 6zM364 222q-7 -14 -7 -23q0 -18 25 -17h6
q12 14 12 29q-1 3 -1 6q-19 6 -31 5h-4zM100 1644l24 1v24h8l14 -3l-11 -10v0v-8q8 -7 16 -13.5t2 -18.5q12 -3 12 -6q-3 -2 -12 -4l11 -18q-5 -45 21 -61v-7l-6 4q-7 -18 -26 -11l3 -10q22 0 18 -18l8 -11v-11h10q1 -7 -3 -21q6 -9 7 -25q11 -4 9 -10l-9 -19l8 2q8 0 7 -13
l10 -3v0l-7 -14q9 -13 3 -22q19 -5 4 -11v-10h11l-4 -14l7 -3l7 -22l-4 -4v-10l4 -4l4 -21l-8 -4v-17q8 -7 0 -18q9 -9 5 -30q-6 -29 -5 -34l8 -4q-6 -17 7 -25v-7l-7 -14l4 -10l-8 -15q3 -2 0 -11v0v-7l11 -17l-7 -8q-1 -10 1 -25q3 -18 3 -25v-32v0h6q7 0 0 8v0v6l8 8
q1 12 7 36q-4 11 -4 21q0 39 15 74v0l-5 4q28 140 26 160l3 3q2 12 3 36q6 13 12 27q10 19 21 16q15 31 38 85l8 7v4q0 19 11 32q3 13 4 40h6q-2 14 8 17l-2 17q0 27 23 40v0v7l-21 -7l3 11l18 13q2 26 18 37q4 19 21 24l3 18h-380v-36zM153 1548q-12 -10 -29 -7
q13 -6 20 -6q9 0 9 8v2v3zM153 1488h1h3q7 0 7 6v1v0h-8zM485 1256q-2 -7 -11 -14q-5 0 -17 -2t-19 -1q-8 -5 -25 -10l-10 -11l3 -8q7 3 13 3q11 0 16 -13h2q5 0 8 -8h-7q-12 -7 -21 -3q-7 -6 -18 -7v0v-8v0h7l18 5l14 -5l14 5q3 7 9 6h2l7 -11q14 0 25 8q29 -11 46 -21h7
q23 1 35 -14h8v-11q9 -1 25 -7q5 5 9 5q5 0 8 -10h11q-24 -8 -42 -3l-4 -3l1 1l-1 -1h-57q-3 0 -10.5 -3t-13.5 -1l-5 -11q-14 -3 -24 -6q-8 -12 -21 -15v0v-6q-7 -9 -19 -15q-2 -7 -10 -14v0v-8h4q10 1 10 -10q5 3 11 3l11 -3l3 3q13 0 46 4q10 -5 22 -7q2 17 17 21l11 11
q1 -1 1 -2q6 -10 6 -23q9 -7 11 -21q5 -4 11 -15q7 -5 14 -3h-7q5 1 18 -1t17 -2q8 -5 21 -4l4 4l19 3q8 0 17 -11l14 4q-6 -18 -36 -11l5 -8q-7 1 -15 5q-12 -7 -25 -7l-15 2l8 15v0h-8l-10 -10q5 -8 4 -18q-48 0 -57 -4h78q7 0 25.5 4t27.5 3q7 6 18 7q11 10 22 8
q9 18 56 18q9 17 0 32l7 -11q20 3 29 24q8 -3 18 -3l-1 9q0 7 8 13q0 15 -11 42q-19 7 -17 24q-17 16 -17 35l2 12h8q-4 7 -5 18q-7 4 -10 14q-7 0 -14 4v7q-7 3 -11 15l-10 -5q-44 30 -58 26v0l15 -15h-11q-4 0 -14.5 2t-16.5 2l-8 7q-15 0 -50 10v0q-7 1 -25 -3l7 -3
q-6 0 -17.5 1.5t-17.5 1.5q-8 -13 -31 -13q0 3 20 10v0v6q-11 -6 -21.5 -6t-23 -6t-19.5 -5l-4 -7l-21 -3v0v-8q-4 2 -8 2q-8 0 -13 -9h-11q-17 0 -19 2q7 3 22 5v0v8q8 4 15 3q8 7 22 7l3 11h10zM1207 1221q-7 -5 -15 -14h-7v7l-17 4q-4 -8 -15 -11q-7 -21 -25 -46v0v-8
q7 -5 8 -17q-9 -9 -11 -22h-7q-13 -21 -29 -25v0v-7l-7 -6v0q2 -15 -3 -29q6 -7 10 -21l11 -8v0h7q7 12 18 14v-6q0 -7 3 -18q7 -3 14 0v-37l26 8l6 -8v0l4 5q13 -1 36 -11h14v-7q-7 5 -14 3h7q-5 -1 -16 2t-16 2q6 -12 18 -21h-11v-15v0q12 -1 22 -11h10q11 -7 22 -6h3
l-3 3l1 -1l-1 1q-9 2 -22 18h7q15 0 28 -15v0q15 -4 40 -6l3 6h33v0v8h-6q-34 -1 -62 18l7 3v11h-10q-5 -15 -9 -15q-3 0 -6 7l-18 4l15 7v-1v1v-3v0q6 -2 21 7l3 -4q11 -2 32 -3v0q8 5 21 3q3 5 18 10l8 -3l7 11l3 -18h-21l-1 -1l1 1q-6 -9 -21 -14l14 -3q4 4 31 6
q9 11 22 8l4 7q30 -1 68 5q54 9 54 27q0 10 -12 18v14h11q2 -8 8 -16q4 4 6 13q-8 0 -14 10q-7 5 -18 3l-7 8l-7 -1q-6 0 -11 8h-4q-6 0 -10 7q-7 7 -29 4v11v0q-6 0 -35 -5q-4 3 -33.5 6.5t-37.5 1.5q-10 8 -26 3q-7 5 -10 18q11 0 31.5 2t30.5 2q11 0 19 -7v0q13 4 44 3
l3 3l-1 -1l1 1q8 -2 21 4q3 7 9 7h2l8 -11h6q15 2 15 -14h10q6 0 21 2t22 2q12 12 25 10q-6 7 -18 11v7q9 -2 25 0l7 -3l3 6q-11 0 -17 5l-11 -1q-11 0 -14 11q7 2 12 2q12 0 20 -9v0h7v0v7l-10 8h-15v6q-12 3 -25 11q7 -7 11 -17h-11l-7 10q-17 6 -32 4l-7 7q10 11 18 0
q7 3 21 3l-3 14l-8 7q-18 1 -24 11h-15q-5 6 -25 7q6 -6 6 -10q0 -3 -6 -4l-3 4q-15 3 -18 14v0h-25l-3 -4l-8 4q-32 -8 -56 7h-50l-3 8l-12 -5v0h-6l-8 5q-11 -4 -32 0zM1395 1207q3 1 5 1l2 -1q12 0 14 -11q-16 3 -21 11zM403 1192q8 1 24 6q1 0 2 1q-3 1 -9 1h-11z
M1448 1196h4h5q12 0 20 -4q-2 -11 -5 -11q-3 2 -6 8q-5 -3 -9 -3q-6 0 -9 10zM470 1185q3 -1 6 -3q-2 -2 -6 -3v6zM1563 1150q-10 16 -25 21q5 -8 25 -21zM1136 1161q8 -3 8 -6q0 -2 -8 -5v11zM1463 1121q3 -2 6 -7q0 -1 -2 -1h-2q-2 0 -6 1zM598 1107q1 -1 2 -4
q-1 -2 -6 -3zM580 1097q-24 -10 -34 -10q-8 0 -8 6q7 -2 24 7zM1534 1097q-4 -9 -14 -8q2 -8 8 -8q3 0 6 1q1 8 7 11zM1445 1086q10 -7 18 -7v-8v0h7l7 -10l18 -3l-3 -11h5q9 -1 16 3v0v8v0h-7q-15 17 -40 18l4 10v0h-25zM1292 1054q5 -1 9 -4q-2 -2 -9 -3v7zM723 1029
q7 0 7 -7q0 -15 -10 -15h-3q-2 1 -5 1q2 1 11 21zM841 1029q-1 -7 -1 -10v-3l2 -6q4 5 9 19h-10zM100 979v-274l18 4v0q0 4 -2.5 12.5t-2.5 13.5l1 9h10v-42l8 -4v0l-3 11v0v6q0 3 2 9.5t2.5 11.5t5.5 8v0v15l-4 6l1 9q1 25 -12 38q8 22 8 85q0 12 7.5 38t6.5 41q-7 0 -14 3
q-4 -1 -11 -3h-7q-6 1 -14 3zM730 968h-7q0 -3 -8 -7l4 4l-4 -4q-8 -2 -27 -7l-15 -7l3 -14v0q12 4 18 3q6 5 15 4l2 2q5 3 12 2q8 13 21 10q4 8 10 7q-6 11 -16 11q-3 -1 -5 -1zM1306 950q-11 -4 -14 -4h-5q-2 0 -5 1v0l3 -3h18q12 -1 9 -1q3 0 5 1l-4 6v0h-7zM1210 944
l8 -4h-11zM256 802v-5q0 -13 -14 -10v-4q0 -13 18 -24l4 6v0v8q-3 2 -3 5q1 3 3 5q-5 7 -5 14q0 3 1 5v0h-4zM256 747q-1 -1 -2 -3v-1h1h1q1 0 4 1v0zM749 338v-3q0 -6 -2 -12q-3 2 -5 9h-14q7 4 11 6h10zM731 328q10 -4 10 -7t-10 -4v11zM940 321l6 -3h42q2 -8 2 -13
q0 -21 -26 -21q-32 0 -32 13q0 1 -1 4.5t-1 5.5q0 7 5 14h5zM1025 317q12 0 19 -3q-8 -18 -15 -18t-13 13zM823 398q-13 -8 -29 -3l-3 -5q-6 0 -19.5 -1.5t-20.5 -1.5q-1 -2 -17 -6.5t-19 -3.5q-24 -24 -48 -22h-5v7l-7 11q-17 4 -22 17q-9 -11 -24 -10q-4 -2 -7 -11l-8 -3
q1 -9 -6 -18l1 -7q0 -12 -12 -18q-6 -6 -7 -22q1 -7 13 -14q9 4 16 4q12 0 21 -11h18l13 11q6 -6 26 -3q30 4 29 4q24 0 45 -12v0q5 0 13.5 -1.5t13.5 -1.5q13 0 18.5 -3t15.5 -8v0h29q3 0 15 -5q8 -4 16 -2q9 -5 18 -18q18 7 28 -4q8 4 16 4l13 -4q9 19 21 4h11l10 7
l11 -11l4 4v0l14 4q24 7 27 6l20 -3q16 8 35 3l7 5q5 0 15 -2.5t14 -2.5v0h29l24 -3l18 -3l7 3q19 -4 43 0l-4 29l7 3v0l-3 4q-2 18 -15 25l8 7v0v18l-4 3l-10 -3l-18 6l-8 -3l-7 3l-14 -3q-4 -6 -14 -18h-7q-3 0 -10 2t-11 2l-5 7q-16 -2 -24 15q-17 3 -25 14q-20 9 -60 14
l-8 7q-36 -3 -78 10l-3 -3q-11 2 -32 -7q-14 10 -29 10l-7 5v0q-39 0 -53 3zM841 334q76 0 76 -28q0 -9 -9 -22q1 -1 1 -2q-2 -2 -6 -2q-5 0 -14 2t-13 2h-11q-7 -3 -11 -3q-8 0 -13 6v47zM688 671q-3 -27 -22 -28v0q2 -12 11 -32q-3 -3 -8 -10q10 -9 11 -21v0h8q1 9 10 13
l7 14q-6 8 -4 15q-11 13 -11 26v5q1 3 1 4q0 10 -3 14zM768 615l-4 -4q-18 0 -28 -4v-14v0h8l3 -6q16 -4 17 -18q17 -3 25 -14q22 -4 31 0l4 -3l-4 3l4 -3q-5 8 -4 15v2h18q7 -5 4 -14q5 -7 3 -18l4 -3h6q8 0 14 -3l-1 -7l1 -7l6 -1q5 0 9 4l-7 3v5q-1 6 4 6h3q4 -6 14 -17
l-4 -15q7 -5 18 -3q9 7 27 7q10 0 25.5 9t24.5 8q5 6 7 11l3 -3v0q-8 0 64 -8q4 3 9 3q1 0 8 -3q9 11 18 11v0q-1 12 10 18l4 11q-4 7 0 17q-10 3 -18 10h-5q-41 -2 -55 8l4 9l-7 4q-26 -7 -28 -7q-2 -6 0 -14h-14q-3 -6 -4 -14q-37 -7 -46 -13l1 4q0 5 -7 5q-10 -7 -29 -3
q-8 -9 -17 -9t-18 9q-22 6 -31 24q-14 5 -21 14q-17 0 -49 8zM1402 1673h5q19 1 26 -17q12 -6 29 -29h15q2 -9 22.5 -44t26.5 -41v0h7q-2 -11 4 -29q11 -9 10 -28v0h8v-28l7 -4q7 -49 8.5 -51.5t2.5 -12.5l24 -114l18 -42q11 -7 18 -25q1 0 14 -39q7 -53 26 -159l-5 -14
q0 -64 5 -71l-5 -22q11 -14 0 -35q8 -9 5 -25l-5 -7l5 -22l-5 -6v-64l22 -18l14 3v18l7 11l-3 11l3 3v0v7l-3 8v6l-4 15l-7 3v18q4 7 32.5 24t39.5 17l24 -6v-10q7 0 7 49v22l-1 -1l1 1l-7 -8h-7l-69 -44q-6 0 -13 6q0 4 -2 13t-2 11l4 4l4 21l-4 7q4 11 11 35l6 5v0l8 10v0
l3 11v0l4 11v0v6l3 15l4 17q2 11 7 32l-3 11l3 7l4 15v0v27l7 4q-1 2 -3 4v0l7 13q-4 24 11 37l-5 6q0 5 5 13t6 12l-3 14q6 0 11 20.5t10 25.5v394h-402zM978 161h-73q-5 2 -12 4h-9q-11 0 -28.5 2t-26.5 2q-13 0 -21 5v-13q12 -8 38 -26v0q13 -6 21 -4h-8q67 0 106 -13
q1 12 20.5 12t26.5 18q-11 8 -13 17zM164 -74q4 -59 4 -118q0 -60 -4 -120l54 -8l8 250zM232 -102l8 -203l50 -1v108q23 37 39 37q24 0 24 -64q0 -31 -7 -75l56 2q2 36 2 66q0 144 -53 144q-25 0 -65 -28l-3 22zM407 -291q61 -22 98 -22q30 0 52 21t22 51q0 34 -47.5 54
t-47.5 31q0 17 27 17q18 0 48 -13l17 52q-39 8 -68 8q-85 0 -85 -57q0 -45 53.5 -68.5t53.5 -29.5q0 -20 -27 -20q-26 0 -72 30zM574 -166l52 -8q17 33 35 33q24 0 30 -16q1 -5 1 -37q-20 8 -40 8q-60 0 -60 -52q0 -55 105 -59l1 -9l52 3q2 75 2 81q0 134 -90 134
q-63 0 -88 -78zM694 -225l1 -36q-48 11 -48 26q0 12 22 12q10 0 25 -2zM762 -102l8 -203l50 -1v108q23 37 38 37q25 0 25 -64q0 -31 -7 -75l56 2q2 36 2 66q0 144 -53 144q-25 0 -65 -28l-4 22zM950 -167q5 -42 5 -83q0 -33 -3 -65l52 5q5 75 8 151zM947 -106q0 -32 33 -32
q34 0 34 34q0 32 -33 32q-34 0 -34 -34zM1054 -188q0 -63 6 -83q11 -47 53 -47q64 0 70 70l-36 5q-8 -31 -26 -31q-22 0 -22 90l53 5l-3 51l-48 -4l5 83l-50 -4l-2 -83l-34 -3l2 -51zM1245 -97l-56 -13l53 -151q-15 -24 -39 -24q-10 0 -22 4v-60q9 -1 17 -1q69 0 108 86
q13 27 44 146l-51 8q-12 -59 -25 -97zM1357 -75l3 -240l54 4l-6 93q90 21 90 71q0 78 -93 78q-22 0 -48 -6zM1406 -166l-3 48q40 -10 40 -21q0 -12 -37 -27zM1674 -185q-11 105 -87 105q-38 0 -61 -33.5t-23 -72.5q0 -119 91 -119q65 0 87 90l-58 -8q-8 -29 -37 -29
q-30 0 -39 32zM1593 -133q20 0 34 -24l-77 -22q1 19 12.5 32.5t30.5 13.5zM1729 -226l30 168l-67 14q2 -40 2 -65v-24q0 -45 -5 -85zM1708 -311q30 0 30 30t-30 30t-30 -29q0 -31 30 -31z" />
    <glyph glyph-name=".null" horiz-adv-x="0" 
 />
    <glyph glyph-name="nonmarkingreturn" horiz-adv-x="569" 
 />
    <glyph glyph-name="space" unicode=" " horiz-adv-x="569" 
 />
    <glyph glyph-name="exclam" unicode="!" horiz-adv-x="401" 
d="M64 447q22 199 22 481q0 169 -8 368l329 -68q-91 -493 -147 -820zM35 61q-28 46 -28 87q0 35 20 67q43 68 114 74t124 -58q37 -44 37 -92q0 -22 -7 -42q-24 -69 -101 -95q-18 -6 -36 -6q-60 0 -123 65z" />
    <glyph glyph-name="quotedbl" unicode="&#x22;" horiz-adv-x="575" 
d="M56 816l-40 444l210 31l-53 -472zM320 832l27 464l197 -56l-96 -424z" />
    <glyph glyph-name="numbersign" unicode="#" horiz-adv-x="1007" 
d="M601 640h-168l-3 -179l168 -4zM611 1090l222 -31l-6 -233l222 -17l7 -171l-233 1l-5 -187l221 -5l-28 -213h-198l-7 -270h-219l6 270h-167l-4 -273h-194l1 273h-244l13 237l231 -5l1 175l-204 1v246l204 -16l1 259l209 -20l-4 -255l170 -13z" />
    <glyph glyph-name="dollar" unicode="$" horiz-adv-x="854" 
d="M527 414l-39 -236q163 8 163 125q0 62 -124 111zM370 676l36 230q-154 -37 -154 -112q1 -81 118 -118zM231 -214l32 205q-170 30 -287 106l118 276q96 -113 204 -160l39 250q-251 24 -278 242q-5 40 -5 75q0 163 102 249q124 105 285 102l37 240l205 -18l-38 -235
l158 -55l-85 -265q-51 59 -113 84l-40 -238q107 -28 190 -88q69 -50 69 -226q0 -40 -3 -81q-18 -246 -367 -278l-32 -191z" />
    <glyph glyph-name="percent" unicode="%" horiz-adv-x="1614" 
d="M1534 339q-5 -155 -74 -270q-84 -140 -227 -140q-153 0 -215 79q-49 62 -71 230q-8 61 -8 106q0 330 296 321q309 -9 299 -326zM1165 126q40 -38 76 -38q47 0 82 60q32 53 32 103q0 47 -30 96q-33 56 -77 56q-51 0 -92 -56q-39 -51 -39 -104q0 -56 48 -117zM646 891
q-5 -155 -74 -270q-84 -140 -227 -140q-148 0 -215 78q-52 61 -83 224q-13 68 -13 119q0 120 58 202q84 118 255 113q309 -9 299 -326zM269 710q40 -38 76 -38q47 0 82 60q32 53 32 103q0 47 -30 96q-33 56 -77 56q-51 0 -92 -56q-39 -51 -39 -104q0 -56 48 -117zM392 -73
q291 635 504 1337l192 -68q-216 -720 -520 -1347z" />
    <glyph glyph-name="ampersand" unicode="&#x26;" horiz-adv-x="806" 
d="M172 586q-181 -103 -170 -275t105 -265q75 -74 229 -74q44 0 89 5q223 25 357 182l-174 194q-147 -156 -234 -156q-58 0 -89 72q-14 33 -14 58q0 123 294 135v172q-342 61 -342 165q0 103 164 106q163 3 279 -113l95 247q-259 93 -422 93q-235 0 -272 -193
q-17 -89 -17 -155q0 -179 122 -198zM328 1392v-184l200 -24l40 168zM192 -88l-8 -168l248 -24v176z" />
    <glyph glyph-name="quotesingle" unicode="'" horiz-adv-x="287" 
d="M48 894l25 370l183 -44l-90 -338z" />
    <glyph glyph-name="parenleft" unicode="(" horiz-adv-x="482" 
d="M184 1425l264 -68q-208 -417 -208 -843q0 -409 192 -826l-240 -80q-202 466 -202 925q0 450 194 892z" />
    <glyph glyph-name="parenright" unicode=")" horiz-adv-x="482" 
d="M240 1425l-264 -68q208 -417 208 -843q0 -409 -192 -826l240 -80q202 466 202 925q0 450 -194 892z" />
    <glyph glyph-name="asterisk" unicode="*" horiz-adv-x="549" 
d="M16 975l34 107l175 -74l-15 187h110l-18 -186l179 73l36 -107l-189 -44l130 -142l-91 -65l-104 162l-99 -162l-89 65l126 142z" />
    <glyph glyph-name="plus" unicode="+" horiz-adv-x="748" 
d="M29 689q128 -1 254 5q2 149 10 301l193 7q-12 -148 -13 -294q124 12 247 32l-3 -209q-118 -18 -240 -30q7 -128 22 -254l-202 -35q-9 136 -12 274q-129 -7 -261 -8z" />
    <glyph glyph-name="comma" unicode="," horiz-adv-x="321" 
d="M56 40q-25 52 -25 95q0 40 20 72q42 68 114 74q71 6 124 -58q28 -34 28 -90q0 -48 -22 -113l-103 -188l-112 56l80 112z" />
    <glyph glyph-name="hyphen" unicode="-" horiz-adv-x="923" 
d="M34 695l-10 -220q262 40 554 40q153 0 315 -11l11 208q-349 -22 -626 -22q-130 0 -244 5z" />
    <glyph glyph-name="hyphen" unicode="&#x2010;" horiz-adv-x="923" 
d="M34 695l-10 -220q262 40 554 40q153 0 315 -11l11 208q-349 -22 -626 -22q-130 0 -244 5z" />
    <glyph glyph-name="period" unicode="." horiz-adv-x="321" 
d="M59 53q-28 46 -28 87q0 35 20 67q43 68 114 74t124 -58q37 -44 37 -92q0 -22 -7 -42q-24 -69 -101 -95q-18 -6 -36 -6q-60 0 -123 65z" />
    <glyph glyph-name="slash" unicode="/" horiz-adv-x="569" 
d="M32 104q240 560 392 1152l200 -64q-144 -624 -407 -1176z" />
    <glyph glyph-name="zero" unicode="0" horiz-adv-x="1052" 
d="M1036 607q-8 -254 -124 -443q-139 -227 -375 -227q-248 0 -358 125q-88 100 -140 368q-21 108 -21 196q0 197 96 330q140 194 425 185q265 -8 385.5 -138t111.5 -396zM387 332q76 -75 143 -75q82 0 150 113q61 101 61 197q0 88 -55 182q-63 108 -145 108q-88 0 -169 -110
q-76 -103 -76 -193q0 -108 91 -222z" />
    <glyph glyph-name="one" unicode="1" horiz-adv-x="603" 
d="M272 57q20 284 20 502t-20 369l-80 -128l-208 184l264 280l288 -24l40 -1200z" />
    <glyph glyph-name="two" unicode="2" horiz-adv-x="830" 
d="M360 280l392 40l24 -272l-720 -40l-8 280q488 328 468 492t-162 181q-17 2 -33 2q-125 0 -236 -115l-101 276q256 95 428 95q288 0 345 -263q14 -65 14 -128q0 -332 -411 -548z" />
    <glyph glyph-name="three" unicode="3" horiz-adv-x="854" 
d="M664 639q200 -113 188 -301t-116 -291q-83 -82 -254 -82q-41 0 -96 6q-246 27 -394 200l192 212q162 -171 257 -171q65 0 99 80q15 35 15 63q0 135 -323 148v189q376 67 376 181t-180 117t-308 -125l-104 271q285 102 465 102q259 0 299 -211q18 -95 18 -170
q0 -197 -134 -218z" />
    <glyph glyph-name="four" unicode="4" horiz-adv-x="835" 
d="M432 928l-208 -336l192 24zM428 1249l252 -83l-16 -537l159 8l9 -231l-176 -14l-24 -392l-240 -8l17 399l-369 -55l-56 285z" />
    <glyph glyph-name="five" unicode="5" horiz-adv-x="910" 
d="M-56 118l133 298q212 -139 338 -139q94 0 141 78q18 30 18 57q0 124 -430 124l-56 712l770 -90l-90 -246l-440 56l8 -192q44 5 84 5q177 0 298 -84q149 -103 158 -291q9 -189 -174 -341q-78 -65 -228 -65q-201 0 -530 118z" />
    <glyph glyph-name="six" unicode="6" horiz-adv-x="870" 
d="M846 447q-8 -196 -112 -323q-115 -139 -305 -139q-187 0 -281 79q-90 76 -134 261q-19 81 -19 159q0 148 65 297q99 227 468 476l232 -194q-256 -90 -432 -339q95 61 186 61q85 0 165 -53q174 -115 167 -285zM347 285q50 -40 94 -40q56 0 98 54q40 50 40 107
q0 56 -38 103t-93 47q-58 0 -109 -49t-51 -107q0 -56 59 -115z" />
    <glyph glyph-name="seven" unicode="7" horiz-adv-x="721" 
d="M184 -16q232 553 224 872l-416 16l8 264l688 -24q-24 -633 -232 -1184z" />
    <glyph glyph-name="eight" unicode="8" horiz-adv-x="838" 
d="M800 320q-17 188 -184 288q88 30 112 211q4 30 4 60q0 148 -91 234.5t-239 86.5q-53 0 -110 -10q-264 -46 -264 -322q0 -178 179 -258q-175 -50 -207 -226q-7 -38 -7 -74q0 -126 90 -214q115 -113 325 -108q394 8 394 297q0 13 -2 35zM314 958q45 33 85 33q50 0 89.5 -44
t39.5 -95q0 -48 -37 -88.5t-85 -40.5q-50 0 -98.5 42.5t-48.5 92.5q0 49 55 100zM322 424q45 39 85 39q50 0 91 -58q38 -53 38 -105q0 -51 -35 -99q-37 -53 -86 -53q-55 0 -101.5 51.5t-46.5 107.5q0 57 55 117z" />
    <glyph glyph-name="nine" unicode="9" horiz-adv-x="870" 
d="M-16 787q8 194 113 322q115 140 304 140t282 -78q90 -76 134 -262q18 -77 18 -159q0 -148 -65 -296q-100 -228 -468 -477l-232 194q256 90 432 339q-95 -61 -186 -61q-84 0 -165 54q-174 115 -167 284zM483 949q-50 40 -94 40q-55 0 -98 -54q-40 -50 -40 -107
q0 -51 40 -99q41 -51 91 -51q58 0 109 49t51 107q0 56 -59 115z" />
    <glyph glyph-name="colon" unicode=":" 
d="M43 653q-28 46 -28 87q0 35 20 67q43 68 114 74t124 -58q37 -44 37 -92q0 -22 -7 -42q-24 -69 -101 -95q-18 -6 -36 -6q-60 0 -123 65zM61 77q-29 49 -29 93q0 38 21 72q45 73 119 80q73 6 129 -63q39 -48 39 -99q0 -21 -8 -45q-25 -74 -105 -102q-20 -7 -38 -7
q-62 0 -128 71z" />
    <glyph glyph-name="semicolon" unicode=";" horiz-adv-x="361" 
d="M56 40q-25 52 -25 95q0 40 20 72q42 68 114 74q71 6 124 -58q28 -34 28 -90q0 -48 -22 -113l-103 -188l-112 56l80 112zM43 653q-28 46 -28 87q0 35 20 67q43 68 114 74t124 -58q37 -44 37 -92q0 -22 -7 -42q-24 -69 -101 -95q-18 -6 -36 -6q-60 0 -123 65z" />
    <glyph glyph-name="less" unicode="&#x3c;" horiz-adv-x="924" 
d="M-6 520l-2 280l860 272l12 -256l-580 -160l596 -240l-64 -256z" />
    <glyph glyph-name="equal" unicode="=" horiz-adv-x="828" 
d="M791 656l9 196q-228 -36 -482 -36q-134 0 -276 10l-10 -186q309 20 553 20q109 0 206 -4zM32 567l-8 -220q228 40 484 40q134 0 275 -11l8 208q-304 -22 -546 -22q-113 0 -213 5z" />
    <glyph glyph-name="greater" unicode="&#x3e;" horiz-adv-x="924" 
d="M865 520l15 280l-860 272l-12 -256l580 -160l-596 -240l64 -256z" />
    <glyph glyph-name="question" unicode="?" horiz-adv-x="707" 
d="M445 397l-261 -12q-4 39 -4 74q0 164 92 233q112 84 116 184t-112 108t-244 -120l-112 302q236 58 396 58q285 0 325 -185q19 -88 19 -158q0 -161 -100 -230q-120 -82 -120 -204q0 -24 5 -50zM179 53q-28 46 -28 87q0 35 20 67q43 68 114 74t124 -58q37 -44 37 -92
q0 -22 -7 -42q-24 -69 -101 -95q-18 -6 -36 -6q-60 0 -123 65z" />
    <glyph glyph-name="at" unicode="@" horiz-adv-x="1438" 
d="M208 712l256 -40q88 168 184 160q113 -9 133 -78q3 -10 4 -182q-100 39 -196 39q-72 0 -145 -23q-146 -46 -146 -223q0 -278 291 -278q204 0 451 116q277 130 356 388q29 95 29 189q0 158 -83 308q-133 240 -430 332q-123 38 -240 38q-161 0 -308 -74
q-252 -127 -384 -400q-82 -169 -82 -370q0 -122 30 -254q80 -352 436 -512q140 -63 319 -63q279 0 653 151l-56 136q-308 -108 -543 -108q-98 0 -178 17q-289 61 -408 273q-91 162 -91 352q0 296 197 496q165 168 379 178q231 11 390 -103q165 -117 212 -341q9 -43 9 -87
q0 -212 -236 -355q37 154 37 273q0 74 -13 132q-36 159 -203 236q-102 47 -208 47q-65 0 -128 -18q-168 -48 -288 -352zM736 437v-152q-85 -26 -138 -26q-95 0 -87 85q10 101 141 101q37 0 84 -8z" />
    <glyph glyph-name="A" unicode="A" horiz-adv-x="878" 
d="M465 583l-57 241l-57 -246zM308 392l-91 -392l-257 40l322 1144h254l342 -1088l-282 -72l-86 368h-202z" />
    <glyph glyph-name="B" unicode="B" horiz-adv-x="854" 
d="M67 -72l-56 1278q209 42 355 42q252 0 317 -124q31 -59 31 -122q0 -144 -167 -304q272 -106 284 -315t-764 -455zM235 980l8 -172q200 91 192 154q-4 36 -73 36q-48 0 -127 -18zM283 480l24 -208q216 80 212 144t-236 64z" />
    <glyph glyph-name="C" unicode="C" horiz-adv-x="935" 
d="M895 682q-66 437 -336 474q-44 6 -91 6q-221 0 -344 -152q-114 -141 -114 -367q0 -44 6 -100q21 -195 54 -286q56 -155 182 -215q69 -33 298 -41t354 388l-280 20q-63 -128 -146 -128q-39 0 -84 30q-124 82 -124 253q0 17 2 42q16 204 176 216t184 -167z" />
    <glyph glyph-name="D" unicode="D" horiz-adv-x="742" 
d="M-24 -64l173 1336q467 -136 527 -336q21 -70 21 -144q0 -132 -69 -268q-108 -212 -652 -588zM345 896l-49 -368q185 104 188 200t-139 168z" />
    <glyph glyph-name="E" unicode="E" horiz-adv-x="766" 
d="M18 1195l-26 -1201l690 -10l7 312h-421v160l383 -8l8 256h-391v168l460 -8l-1 322z" />
    <glyph glyph-name="F" unicode="F" horiz-adv-x="766" 
d="M8 1168l32 -1176l264 8l-8 432l355 16l8 256l-371 -24l-8 192l448 -8l8 328z" />
    <glyph glyph-name="G" unicode="G" horiz-adv-x="999" 
d="M907 832q-29 296 -318 333q-47 6 -95 6q-250 0 -381 -172q-118 -154 -118 -411q0 -42 2 -74q21 -332 248 -435q156 -71 315 -71q72 0 142 14q231 46 265 538l-436 42l-51 -182l205 -24q-56 -149 -166 -149q-41 0 -90 21q-164 71 -164 294q0 28 1 43q17 259 176 304
q28 8 54 8q115 0 163 -167z" />
    <glyph glyph-name="H" unicode="H" horiz-adv-x="862" 
d="M24 1169l32 -1177h273l5 452h192l-10 -452h280l35 1101l-279 26l-10 -417h-208l-2 450z" />
    <glyph glyph-name="I" unicode="I" horiz-adv-x="346" 
d="M19 1151q20 -287 20 -578t-20 -585l264 -36l40 1217z" />
    <glyph glyph-name="J" unicode="J" horiz-adv-x="816" 
d="M336 1096q150 -394 150 -592q0 -24 -2 -44q-20 -196 -132 -242q-22 -9 -44 -9q-93 0 -196 152l-176 -243q225 -191 411 -191q55 0 101 14q223 68 304 274q27 69 27 199q0 263 -107 779z" />
    <glyph glyph-name="K" unicode="K" horiz-adv-x="848" 
d="M0 1200q-8 -616 72 -1232l272 32q-48 232 -56 490l296 -466l280 168l-392 392l336 552l-288 41l-240 -481q-3 80 -3 161q0 162 11 328z" />
    <glyph glyph-name="L" unicode="L" horiz-adv-x="721" 
d="M296 1135q-20 -284 -20 -514q0 -229 20 -405l384 48l-8 -296l-640 -16l-40 1200z" />
    <glyph glyph-name="M" unicode="M" horiz-adv-x="999" 
d="M26 1064l-50 -1050l268 -17l26 607l75 -391h252l93 356v-599l286 -18q-9 556 -68 1112l-294 -9l-134 -451l-135 477z" />
    <glyph glyph-name="N" unicode="N" horiz-adv-x="831" 
d="M-7 1072q-2 -144 -2 -288q0 -385 17 -775h264q-34 251 -34 463q0 41 1 81l273 -569l264 9q-41 365 -41 699q0 208 16 404l-272 9q-2 -78 -2 -149q0 -259 26 -411l-214 519z" />
    <glyph glyph-name="O" unicode="O" horiz-adv-x="1037" 
d="M20 479q8 256 124 444q139 226 376 226q247 0 357 -125q89 -102 141 -368q20 -103 20 -196q0 -197 -96 -330q-140 -194 -425 -185t-391 145q-114 145 -106 389zM671 751q-78 74 -147 74q-84 0 -155 -112q-64 -101 -64 -197q0 -91 58 -185q65 -106 150 -106q89 0 173 108
q79 102 79 195q0 109 -94 223z" />
    <glyph glyph-name="P" unicode="P" horiz-adv-x="750" 
d="M8 1141l-24 -1165l256 -8l16 471q456 130 456 364q0 57 -28 122q-105 243 -434 243q-109 0 -242 -27zM272 704l8 224q168 -38 172 -96t-180 -128z" />
    <glyph glyph-name="Q" unicode="Q" horiz-adv-x="1038" 
d="M-16 479q8 256 124 444q139 226 376 226q236 0 363 -149q106 -125 148 -374q12 -71 12 -130q0 -211 -135 -344q88 -88 248 -160l-160 -184q-176 72 -268 208q-154 -77 -277 -77q-140 0 -241 100q-198 195 -190 440zM632 745q-78 71 -147 71q-85 0 -155 -107
q-64 -97 -64 -190q0 -86 59 -176q66 -100 148 -100q95 0 176 99q77 94 77 191q0 103 -94 212z" />
    <glyph glyph-name="R" unicode="R" horiz-adv-x="822" 
d="M1 1240l-17 -1264l296 -19v315l268 -320l360 -4l-428 508q245 213 245 390q0 95 -71 179q-183 217 -570 217q-41 0 -83 -2zM280 651v320q185 -28 185 -140q0 -91 -185 -180z" />
    <glyph glyph-name="S" unicode="S" horiz-adv-x="918" 
d="M-24 110l133 298q249 -164 386 -164q50 0 94 29q50 32 50 79q0 71 -185 118q-270 69 -364 283q-31 70 -31 132q0 160 162 242q127 64 303 64q156 0 366 -41l-95 -284q-158 71 -258 71q-45 0 -90 -22q-54 -26 -54 -69q0 -41 71 -86q50 -32 190 -87q121 -48 172 -93
q77 -68 82 -182q9 -189 -174 -341q-78 -65 -228 -65q-201 0 -530 118z" />
    <glyph glyph-name="T" unicode="T" horiz-adv-x="977" 
d="M363 860l16 -885l263 -31l-16 932l342 15l7 262q-465 -31 -1015 -85l16 -269z" />
    <glyph glyph-name="U" unicode="U" horiz-adv-x="807" 
d="M19 512l-35 568l280 16l-13 -648q96 -144 157 -144q110 0 110 508q0 134 -8 309l270 -9q10 -764 -94 -986q-76 -163 -234 -163q-57 0 -124 21q-282 88 -309 528z" />
    <glyph glyph-name="V" unicode="V" horiz-adv-x="942" 
d="M-24 1076l254 -1058q61 8 120 8q105 0 203 -25l351 1143l-272 16l-194 -647l-150 647z" />
    <glyph glyph-name="W" unicode="W" horiz-adv-x="1302" 
d="M-24 1076l238 -1058q51 5 101 5q87 0 173 -15l120 408l114 -408h211l325 1128h-295l-135 -656l-76 336l-241 32l-121 -360l-121 672z" />
    <glyph glyph-name="X" unicode="X" horiz-adv-x="1078" 
d="M-18 166q175 153 348 325q-170 207 -358 423l258 167q155 -212 295 -388q165 177 328 371l198 -234q-177 -182 -341 -360q160 -187 297 -317l-238 -222q-120 161 -252 328q-142 -159 -274 -314z" />
    <glyph glyph-name="Y" unicode="Y" horiz-adv-x="902" 
d="M8 1079l305 -631l-70 -424l271 -32l30 448l319 640l-270 40l-158 -392l-131 416z" />
    <glyph glyph-name="Z" unicode="Z" horiz-adv-x="864" 
d="M-32 1146l56 -312l424 16l-440 -624l40 -258l808 79l-48 304l-488 -101l432 545l-16 374z" />
    <glyph glyph-name="bracketleft" unicode="[" horiz-adv-x="481" 
d="M38 -431q14 266 14 528q0 548 -60 1077l411 27l13 -241h-192q26 -442 26 -893q0 -113 -2 -227l128 24l72 -240z" />
    <glyph glyph-name="backslash" unicode="\" horiz-adv-x="649" 
d="M632 104q-240 560 -392 1152l-200 -64q144 -624 407 -1176z" />
    <glyph glyph-name="bracketright" unicode="]" horiz-adv-x="505" 
d="M402 1209q-14 -266 -14 -528q0 -548 60 -1077l-411 -27l-13 241h192q-26 442 -26 893q0 113 2 227l-128 -24l-72 240z" />
    <glyph glyph-name="asciicircum" unicode="^" horiz-adv-x="710" 
d="M-8 621l192 532q47 -4 93 -4q79 0 152 12l235 -569l-216 -8l-98 317l-122 -321z" />
    <glyph glyph-name="underscore" unicode="_" horiz-adv-x="1067" 
d="M1256 -328v168h-1304v-168h1304z" />
    <glyph glyph-name="grave" unicode="`" horiz-adv-x="450" 
d="M369 906l-129 -26l-216 296l210 10z" />
    <glyph glyph-name="a" unicode="a" horiz-adv-x="894" 
d="M-8 704l256 -40q88 168 184 160q113 -9 133 -78q3 -10 4 -182q-100 39 -196 39q-72 0 -145 -23q-146 -46 -146 -228q0 -15 3 -47q21 -223 509 -240l2 -47l259 16l8 343q5 217 -41 384q-89 322 -399 322q-64 0 -131 -15q-196 -44 -300 -364zM577 413l7 -173
q-244 50 -236 130q5 55 110 55q49 0 119 -12z" />
    <glyph glyph-name="b" unicode="b" horiz-adv-x="814" 
d="M0 -48v1254q214 43 358 43q237 0 282 -117q17 -44 17 -91q0 -148 -177 -313q285 -203 285 -364q0 -263 -765 -412zM232 980l7 -172q167 115 167 158q0 26 -61 26q-42 0 -113 -12zM232 480v-216q222 81 222 142q0 74 -222 74z" />
    <glyph glyph-name="c" unicode="c" horiz-adv-x="927" 
d="M624 523q-24 -179 -184 -167t-176 217q-2 26 -2 41q0 172 124 254q44 29 84 29q83 0 146 -128l280 20q-125 396 -354 388q-183 -6 -243 -23q-107 -30 -191 -136q-68 -86 -100 -383q-6 -56 -6 -100q0 -226 114 -367q123 -152 344 -152q47 0 91 6q270 37 336 474z" />
    <glyph glyph-name="d" unicode="d" horiz-adv-x="710" 
d="M27 24l-43 1248q620 -168 670 -440q18 -98 18 -188q0 -145 -52 -244q-84 -160 -593 -376zM248 872l9 -384q160 48 171 176t-180 208z" />
    <glyph glyph-name="e" unicode="e" horiz-adv-x="926" 
d="M277 439q45 -151 191 -158q136 -7 184 143l280 40q-107 -439 -425 -439q-98 0 -219 45q-224 128 -224 492q0 31 2 69q22 421 410 489q368 8 424 -512zM293 637l375 107q-65 117 -162 117t-152.5 -65.5t-60.5 -158.5z" />
    <glyph glyph-name="f" unicode="f" horiz-adv-x="734" 
d="M-88 630l229 49q-17 294 17 373q75 174 228 174q152 0 320 -151l-176 -141q-67 58 -112 58q-97 0 -92 -274l220 47l48 -191l-228 -59l124 -540l-264 -95l-68 581l-198 -51z" />
    <glyph glyph-name="g" unicode="g" horiz-adv-x="898" 
d="M642 744q-5 72 -47 93q-28 14 -120 16q-160 3 -163 -90q-3 -94 167 -110q21 -2 41 -2q129 0 122 93zM697 112q-15 58 -88 58q-34 0 -131 -15q-200 -31 -197 -88q2 -46 144 -46q26 0 75 3q198 12 198 76q0 6 -1 12zM863 233q47 -103 47 -162q0 -63 -88 -143
q-127 -116 -425 -106q-297 9 -341 146q-14 43 -14 79q0 83 70 140q-31 74 -31 160q0 85 106 153q-129 101 -129 237q0 39 12 84q50 190 257 245q86 23 160 23q107 0 191 -46q33 69 97 111l185 -162q-108 -22 -131 -96q63 -66 55 -214q-8 -149 -127 -226q-86 -56 -243 -56
q-61 0 -133 8q-89 -26 -89 -71q0 -15 10 -32q177 45 309 44q200 -1 252 -116z" />
    <glyph glyph-name="h" unicode="h" horiz-adv-x="799" 
d="M-8 1207l305 -25q-22 -174 -32 -359q159 104 269 107q135 3 194 -211q36 -131 36 -317q0 -245 -11 -410h-240q11 131 11 229q0 291 -78 291t-190 -148q4 -178 16 -365l-241 -15z" />
    <glyph glyph-name="i" unicode="i" horiz-adv-x="367" 
d="M31 699q22 -206 22 -406q0 -161 -14 -317l256 24q24 365 40 736zM49 1091q-32 -51 -32 -97q0 -36 22 -71q48 -76 125 -83t136 65q41 50 41 101q0 23 -8 46q-26 76 -110 104q-18 6 -40 6q-66 0 -134 -71z" />
    <glyph glyph-name="j" unicode="j" horiz-adv-x="405" 
d="M50 845q27 -251 27 -419q0 -83 -7 -148q-21 -196 -64 -354q-31 -114 -163 -114q-56 0 -129 20l24 -278q118 -21 210 -21q260 0 322 166q84 226 76 518q-3 109 -3 204q0 213 11 463zM52 1211q-32 -51 -32 -97q0 -38 21 -71q48 -76 126 -83q77 -7 136 65q41 50 41 101
q0 23 -8 46q-26 76 -110 104q-18 6 -40 6q-66 0 -134 -71z" />
    <glyph glyph-name="k" unicode="k" horiz-adv-x="848" 
d="M0 1256q-8 -672 72 -1288l272 32q-48 232 -56 490l304 -450l216 160l-336 384l264 336l-304 128l-152 -352q-2 60 -2 123q0 189 18 405z" />
    <glyph glyph-name="l" unicode="l" horiz-adv-x="334" 
d="M-16 1280l48 -1247l272 32l-88 1215h-232z" />
    <glyph glyph-name="m" unicode="m" horiz-adv-x="1239" 
d="M0 976l37 -991l223 -7v529q104 183 173 183q39 0 67 -58q52 -109 52 -358q0 -118 -12 -266h226q-17 183 -17 316q0 354 115 354q116 0 116 -537q0 -55 -1 -117l197 8q23 225 23 395q0 454 -166 521q-67 27 -125 27q-139 0 -222 -159q-82 221 -213 221q-102 0 -233 -133
l-14 112z" />
    <glyph glyph-name="n" unicode="n" horiz-adv-x="879" 
d="M0 1016l41 -991l244 -7v529q111 181 188 181q40 0 71 -52q48 -81 48 -263q0 -149 -32 -365l270 9q11 176 11 322q0 407 -85 585q-56 117 -172 117q-125 0 -320 -137l-16 112z" />
    <glyph glyph-name="o" unicode="o" horiz-adv-x="936" 
d="M18 443q7 228 113 392q126 196 337 196q223 0 322 -110q81 -90 127 -322q18 -91 18 -172q0 -174 -86 -290q-126 -170 -383 -162q-236 7 -346 120t-102 348zM606 683q-70 66 -132 66q-76 0 -140 -100q-57 -89 -57 -173q0 -79 52 -162q58 -93 134 -93q87 0 159 91
q69 86 69 175q0 96 -85 196z" />
    <glyph glyph-name="p" unicode="p" horiz-adv-x="750" 
d="M8 1149l16 -1173l264 16l-32 455q440 104 440 347q0 58 -24 122q-97 259 -431 259q-105 0 -233 -26zM248 704l-16 232q192 -46 196 -104t-180 -128z" />
    <glyph glyph-name="q" unicode="q" horiz-adv-x="984" 
d="M34 520q2 324 167 446q84 62 192 62q94 0 205 -48l1 42l304 5q-45 -673 -41 -873q3 -162 75 -162q11 0 23 3l-1 -279q-58 -13 -107 -13q-280 0 -277 409q-88 -36 -168 -36q-107 0 -202 65q-172 118 -171 379zM595 717q-93 74 -156 74q-42 0 -71 -36q-54 -67 -54 -183
q0 -34 5 -74q21 -169 118 -172q96 -2 153 91z" />
    <glyph glyph-name="r" unicode="r" horiz-adv-x="746" 
d="M39 0q3 609 -31 973l280 23l-9 -91q206 128 420 121l27 -242q-246 0 -346 -102q-69 -71 -69 -361q0 -132 14 -311z" />
    <glyph glyph-name="s" unicode="s" horiz-adv-x="854" 
d="M-24 90l118 268q226 -147 350 -147q44 0 85 26q46 29 46 71q0 63 -168 106q-243 62 -327 255q-28 64 -28 118q0 115 118 201q101 74 301 74q141 0 332 -37l-85 -256q-145 64 -235 64q-44 0 -83 -19q-48 -23 -48 -62q0 -36 64 -77q44 -28 172 -78q108 -42 156 -84
q70 -61 74 -164q7 -169 -158 -307q-70 -59 -205 -59q-181 0 -479 107z" />
    <glyph glyph-name="t" unicode="t" horiz-adv-x="782" 
d="M-40 583l-8 249l168 15l8 409l246 16l-24 -405l231 21l16 -249l-258 -23q-1 -42 -1 -80q0 -349 91 -361q100 -13 145 153l176 -24q-18 -240 -139 -302q-86 -44 -204 -44q-49 0 -100 7q-183 25 -190 632z" />
    <glyph glyph-name="u" unicode="u" horiz-adv-x="741" 
d="M682 48l32 1046h-232v-646q-87 -144 -142 -144q-97 0 -97 500q0 137 7 317l-240 -9q-8 -764 84 -980q46 -108 149 -108q105 0 268 110l11 -98z" />
    <glyph glyph-name="v" unicode="v" horiz-adv-x="958" 
d="M0 904l264 128l232 -824l160 888l272 -80l-272 -1064l-312 8z" />
    <glyph glyph-name="w" unicode="w" horiz-adv-x="1422" 
d="M400 368l160 616l304 -8l144 -736l112 856l272 -80l-168 -1024l-416 -32l-128 552l-192 -536l-320 16l-144 1056l296 16z" />
    <glyph glyph-name="x" unicode="x" horiz-adv-x="1078" 
d="M18 863l235 215l261 -320q139 158 266 314l264 -223q-171 -158 -339 -326l346 -424l-258 -168q-139 201 -287 387q-170 -178 -335 -367l-199 239q180 177 345 353q-145 167 -299 320z" />
    <glyph glyph-name="y" unicode="y" horiz-adv-x="830" 
d="M406 541q63 188 122 475l248 -40q-110 -422 -141 -516q-97 -291 -200 -422q-153 -194 -401 -194q-40 0 -82 4v294q58 -21 108 -21q117 0 191 117l-260 738l273 63z" />
    <glyph glyph-name="z" unicode="z" horiz-adv-x="864" 
d="M-32 1029l56 -281l424 14l-440 -561l40 -233l808 72l-48 273l-488 -91l432 491l-16 337z" />
    <glyph glyph-name="braceleft" unicode="{" horiz-adv-x="604" 
d="M33 546q163 51 163 205q0 34 -12.5 100t-12.5 100q0 143 99 231q136 122 294 112l-4 -182q-208 -34 -208 -163q0 -23 8 -53q27 -100 27 -178q0 -176 -147 -262q137 -59 137 -220q0 -102 -53 -244q-13 -35 -13 -61q0 -76 108 -76q51 0 125 17l20 -213q-63 -12 -119 -12
q-137 0 -223 69q-94 75 -94 209q0 67 25 155q29 102 29 171q0 92 -54 116q-95 41 -95 179z" />
    <glyph glyph-name="bar" unicode="|" horiz-adv-x="321" 
d="M270 1307q-16 -358 -16 -719t16 -726l-215 -46l-32 1513z" />
    <glyph glyph-name="braceright" unicode="}" horiz-adv-x="636" 
d="M579 554q-163 51 -163 205q0 34 12.5 100t12.5 100q0 143 -99 231q-136 122 -294 112l4 -182q208 -34 208 -163q0 -23 -8 -53q-27 -100 -27 -178q0 -176 147 -262q-137 -59 -137 -220q0 -102 53 -244q13 -35 13 -61q0 -76 -108 -76q-51 0 -125 17l-20 -213
q63 -12 119 -12q137 0 223 69q94 75 94 209q0 71 -24 155q-30 106 -30 171q0 92 55 116q94 41 94 179z" />
    <glyph glyph-name="asciitilde" unicode="~" horiz-adv-x="860" 
d="M-16 1048l88 -160q128 123 229 123q28 0 116.5 -48t124.5 -48q114 0 274 117l-64 200q-121 -111 -229 -111q-70 0 -135 47q-55 40 -118 40q-126 0 -286 -160z" />
    <glyph glyph-name="exclamdown" unicode="&#xa1;" horiz-adv-x="401" 
d="M64 617q22 -199 22 -481q0 -169 -8 -368l329 68q-91 493 -147 820zM51 987q-28 -46 -28 -87q0 -34 20 -66q43 -69 114 -75q70 -6 124 59q37 44 37 91q0 22 -7 42q-24 69 -101 95q-18 6 -36 6q-60 0 -123 -65z" />
    <glyph glyph-name="cent" unicode="&#xa2;" horiz-adv-x="927" 
d="M783 427q-58 -392 -370 -388l-14 -223h-143l7 245q-292 138 -292 383q0 38 6 75q39 237 79 321q70 146 243 198l5 187l180 8l-10 -191q206 5 318 -351l-250 -18q-43 128 -79 128l-31 -521q95 11 117 172zM290 793q-78 -96 -97 -241q-3 -23 -3 -44q0 -118 87 -212z" />
    <glyph glyph-name="sterling" unicode="&#xa3;" horiz-adv-x="979" 
d="M55 764q94 -31 188 -47q-21 199 -25 308q-4 118 121 187q106 58 231 57q145 -2 239 -88q60 -55 60 -179q0 -68 -19 -158l-193 17q-30 144 -91 144q-49 0 -118 -93q2 -157 -1 -216q105 -2 210 13l15 -261l-239 34q-11 -108 -29 -217q48 -20 142 -20q138 0 374 43l-25 -288
q-243 28 -439 28q-171 0 -306 -21l-35 156q103 98 131 345l-184 26z" />
    <glyph glyph-name="currency" unicode="&#xa4;" horiz-adv-x="915" 
d="M169 867l-119 114l134 120l79 -137q99 68 196 68t191 -68l125 143l83 -125l-113 -115q68 -80 68 -179t-68 -216l113 -114l-118 -110l-90 128q-111 -46 -207 -46q-97 0 -180 46l-114 -118l-108 138l128 76q-55 93 -55 192t55 203zM278 678q0 -79 51 -136q53 -60 131 -60
t131 60q51 57 51 136q0 83 -50 139.5t-132 56.5q-81 0 -131.5 -57t-50.5 -139z" />
    <glyph glyph-name="yen" unicode="&#xa5;" horiz-adv-x="899" 
d="M16 356q139 -23 279 -37l13 108q-140 12 -281 30l14 108q138 -16 280 -26l1 5l-296 543l296 65l131 -416l158 392l270 -40l-352 -560q142 -6 288 -6l-20 -119q-138 1 -276 9q-2 -55 -3 -110q119 -7 235 -7l-15 -111q-109 1 -218 5q3 -91 12 -189l-271 32l20 169
q-127 9 -254 21z" />
    <glyph glyph-name="brokenbar" unicode="&#xa6;" horiz-adv-x="532" 
d="M88 434l-16 635l172 21q-21 -154 -21 -303q0 -162 25 -317zM80 323q12 -163 12 -322q0 -130 -8 -257l148 20q14 293 23 589z" />
    <glyph glyph-name="section" unicode="&#xa7;" horiz-adv-x="854" 
d="M-24 -246l114 245q221 -134 341 -134q43 0 82 23q46 26 46 66q0 58 -163 97q-239 57 -319 232q-18 39 -18 80q0 135 213 269q-204 100 -204 237q0 164 243 247q82 28 174 28q157 0 340 -83l-86 -197q-206 65 -298 65q-74 0 -72 -43q4 -95 250 -139q203 -36 203 -198
q0 -32 -9 -72q-51 -227 -269 -264q246 -68 252 -222q7 -156 -154 -281q-68 -53 -200 -53q-176 0 -466 97zM480 560q-170 -113 -170 -190q0 -54 82 -90q193 124 193 198q0 55 -105 82z" />
    <glyph glyph-name="dieresis" unicode="&#xa8;" horiz-adv-x="689" 
d="M426 1253q-27 44 -27 84q0 33 20 65q43 68 113 73t124 -58q36 -42 36 -89q0 -21 -7 -41q-24 -67 -100 -92q-18 -6 -36 -6q-60 0 -123 64zM62 1245q-25 44 -25 84q0 33 19 65q40 68 104 73q65 5 115 -58q34 -43 34 -89q0 -23 -6 -41q-22 -67 -93 -92q-17 -6 -34 -6
q-55 0 -114 64z" />
    <glyph glyph-name="copyright" unicode="&#xa9;" horiz-adv-x="1117" 
d="M541 1066q105 0 198 -53t143 -144q52 -95 52 -198q0 -105 -53.5 -198t-144.5 -144q-94 -53 -195 -53q-107 0 -199 54t-142.5 147.5t-50.5 193.5q0 108 53.5 202t147 143.5t191.5 49.5zM538 1199q-140 0 -261 -71.5t-187 -194.5q-69 -129 -69 -268q0 -142 69.5 -267
t190.5 -195q125 -72 257 -72q141 0 262.5 73.5t188.5 198t67 262.5q0 144 -70 269q-72 130 -195 197.5t-253 67.5zM793 632q-37 -203 -195 -220q-28 -3 -52 -3q-115 0 -189 64q-78 67 -78 180q0 22 3 45q12 94 34 140q32 68 103 94q41 15 173 18q134 3 207 -180l-163 -9
q-36 59 -84 59q-24 0 -50 -14q-80 -43 -78 -147t95 -127q16 -4 25 -4q72 0 96 118z" />
    <glyph glyph-name="ordfeminine" unicode="&#xaa;" horiz-adv-x="670" 
d="M0 1015q75 208 217 237q49 10 95 10q84 0 153 -34q169 -84 162 -419l-5 -229l-199 -11v31q-342 11 -357 156q-2 19 -2 31q0 118 106 148q53 15 105 15q69 0 141 -25q-1 112 -5 123q-14 40 -94 46q-69 6 -133 -105zM424 811q-91 7 -121 7q-67 0 -70 -36q-5 -52 193 -86z
" />
    <glyph glyph-name="guillemotleft" unicode="&#xab;" horiz-adv-x="995" 
d="M508 579l-12 -181l419 -285l21 181l-296 194l296 146l-21 166zM46 389l-7 201l402 195l6 -184l-272 -116l280 -171l-30 -185z" />
    <glyph glyph-name="logicalnot" unicode="&#xac;" horiz-adv-x="908" 
d="M887 414l-171 -22q20 96 20 194t-20 197l-671 -19l-13 164q171 -10 369 -10q199 0 425 10z" />
    <glyph glyph-name="registered" unicode="&#xae;" horiz-adv-x="1117" 
d="M541 1066q105 0 198 -53t143 -144q52 -95 52 -198q0 -105 -53.5 -198t-144.5 -144q-94 -53 -195 -53q-107 0 -199 54t-142.5 147.5t-50.5 193.5q0 108 53.5 202t147 143.5t191.5 49.5zM538 1199q-140 0 -261 -71.5t-187 -194.5q-69 -129 -69 -268q0 -142 69.5 -267
t190.5 -195q125 -72 257 -72q141 0 262.5 73.5t188.5 198t67 262.5q0 144 -70 269q-72 130 -195 197.5t-253 67.5zM360 959l-8 -545l120 -3v149l216 -168l48 80l-151 149q116 92 116 168q0 41 -33 77q-95 103 -308 93zM456 840q96 -24 96 -58t-96 -78v136z" />
    <glyph glyph-name="overscore" unicode="&#xaf;" horiz-adv-x="1107" 
d="M1216 1232v168h-1304v-168h1304z" />
    <glyph glyph-name="overscore" unicode="&#x2c9;" horiz-adv-x="1107" 
d="M1216 1232v168h-1304v-168h1304z" />
    <glyph glyph-name="degree" unicode="&#xb0;" horiz-adv-x="667" 
d="M60 1014q0 121 78 199t199 78q122 0 200 -77.5t78 -199.5t-78 -200t-200 -78t-199.5 78t-77.5 200zM233 965q54 -54 105 -54q16 0 31 5q92 30 92 112q0 38 -32 75q-46 53 -106 49q-59 -4 -96 -61q-17 -26 -17 -55q0 -34 23 -71z" />
    <glyph glyph-name="plusminus" unicode="&#xb1;" horiz-adv-x="748" 
d="M682 52l-627 -27l-1 140q108 -6 214 -6q223 0 435 26zM32 719l-8 -220l256 8l16 -266l200 31l-24 251l248 31v212l-240 -24l8 282l-192 -7l-8 -298h-256z" />
    <glyph glyph-name="twosuperior" unicode="&#xb2;" horiz-adv-x="558" 
d="M255 766l219 20l13 -139l-400 -21l-5 144q272 168 261 253q-12 85 -91 94q-79 8 -149 -59l-56 141q142 48 237 48q160 0 192 -134q8 -34 8 -66q0 -171 -229 -281z" />
    <glyph glyph-name="threesuperior" unicode="&#xb3;" horiz-adv-x="486" 
d="M348 933q106 -55 100 -147q-12 -183 -194 -183q-25 0 -53 3q-131 14 -209 98l101 104q86 -84 137 -84q35 0 53 39q7 15 7 30q0 66 -171 73v93q200 33 200 89q0 55 -96 57t-164 -62l-55 133q151 49 247 49q138 0 159 -103q10 -49 10 -82q0 -97 -72 -107z" />
    <glyph glyph-name="acute" unicode="&#xb4;" horiz-adv-x="450" 
d="M64 1218l98 302l230 -56l-230 -272z" />
    <glyph glyph-name="mu" unicode="&#xb5;" horiz-adv-x="751" 
d="M664 48l32 1046h-232v-646q-87 -143 -141 -144q-98 -1 -98 500q0 137 7 317l-240 -9q-8 -764 -16 -1440l200 -8l-32 504q86 -125 181 -125q81 0 168 91l11 -98z" />
    <glyph glyph-name="mu" unicode="&#x3bc;" horiz-adv-x="751" 
d="M664 48l32 1046h-232v-646q-87 -143 -141 -144q-98 -1 -98 500q0 137 7 317l-240 -9q-8 -764 -16 -1440l200 -8l-32 504q86 -125 181 -125q81 0 168 91l11 -98z" />
    <glyph glyph-name="paragraph" unicode="&#xb6;" horiz-adv-x="836" 
d="M292 -391l26 874q-137 6 -221 87q-87 83 -87 219q33 124 104 183q94 78 261 111l399 79l17 -203l-106 13l28 -1317l-134 -46l-2 1370l-188 -20l25 -1350h-122z" />
    <glyph glyph-name="bullet" unicode="&#xb7;" horiz-adv-x="517" 
d="M60 474q-41 69 -41 130q0 52 30 100q64 102 170 112q105 9 186 -88q55 -66 55 -137q0 -31 -11 -63q-36 -104 -151 -144q-26 -9 -55 -9q-89 0 -183 99z" />
    <glyph glyph-name="bullet" unicode="&#x2219;" horiz-adv-x="517" 
d="M60 474q-41 69 -41 130q0 52 30 100q64 102 170 112q105 9 186 -88q55 -66 55 -137q0 -31 -11 -63q-36 -104 -151 -144q-26 -9 -55 -9q-89 0 -183 99z" />
    <glyph glyph-name="bullet" unicode="&#x2022;" horiz-adv-x="517" 
d="M60 474q-41 69 -41 130q0 52 30 100q64 102 170 112q105 9 186 -88q55 -66 55 -137q0 -31 -11 -63q-36 -104 -151 -144q-26 -9 -55 -9q-89 0 -183 99z" />
    <glyph glyph-name="cedilla" unicode="&#xb8;" horiz-adv-x="466" 
d="M154 -143q102 -2 126 -34q10 -13 10 -22v-22q0 -14 -12 -23l-29 -22q-16 -12 -58 -12h-54q-13 0 -69 4l-9 -111q33 -1 63 -1q134 0 203 21q102 31 102 149q0 92 -140 139l48 117h-154z" />
    <glyph glyph-name="onesuperior" unicode="&#xb9;" horiz-adv-x="411" 
d="M163 594q12 152 12 269q0 116 -12 198l-50 -68l-129 98l164 149l179 -12q15 -361 24 -644z" />
    <glyph glyph-name="ordmasculine" unicode="&#xba;" horiz-adv-x="646" 
d="M-16 914q6 151 81 261q86 126 230 126q151 0 218 -68q59 -60 92 -216q13 -62 13 -113q0 -113 -60 -191q-87 -112 -264 -107q-321 10 -310 308zM390 1068q-47 40 -88 40q-52 0 -92 -59q-37 -53 -37 -108q0 -53 34 -102q37 -55 88 -55q56 0 103.5 53.5t47.5 110.5
q0 59 -56 120z" />
    <glyph glyph-name="guillemotright" unicode="&#xbb;" horiz-adv-x="995" 
d="M466 579l12 -181l-419 -285l-21 181l296 194l-296 146l21 166zM928 389l7 201l-402 195l-6 -184l272 -116l-280 -171l30 -185z" />
    <glyph glyph-name="onequarter" unicode="&#xbc;" horiz-adv-x="1236" 
d="M163 594q12 152 12 269q0 116 -12 198l-50 -68l-129 98l164 149l179 -12q15 -361 24 -644zM224 88q240 560 392 1152l200 -64q-144 -624 -407 -1176zM935 713l-279 -352l25 -144l246 16l-14 -225l151 6l16 219l110 8l-5 129l-101 -4l10 301zM864 392l96 136l-12 -143z
" />
    <glyph glyph-name="onehalf" unicode="&#xbd;" horiz-adv-x="1244" 
d="M163 594q12 152 12 269q0 116 -12 198l-50 -68l-129 98l164 149l179 -12q15 -361 24 -644zM224 88q240 560 392 1152l200 -64q-144 -624 -407 -1176zM949 151l231 22l15 -142l-426 -22l-5 147q288 170 277 256q-13 96 -117 96q-73 0 -138 -61l-58 144q151 49 252 49
q171 0 204 -136q8 -33 8 -67q0 -173 -243 -286z" />
    <glyph glyph-name="threequarters" unicode="&#xbe;" horiz-adv-x="1236" 
d="M280 88q240 560 392 1152l200 -64q-144 -624 -407 -1176zM959 713l-279 -352l25 -144l246 16l-14 -225l151 6l16 219l110 8l-5 129l-101 -4l10 301zM872 392l96 136l-12 -143zM350 894q122 -57 114 -151q-15 -188 -219 -188q-166 0 -294 105l114 106q96 -86 152 -86
q40 0 60 41q8 16 8 32q0 67 -192 73v94q225 34 225 91q0 56 -108 58t-184 -62l-61 136q170 51 277 51q154 0 178 -105q11 -48 11 -85q0 -98 -81 -110z" />
    <glyph glyph-name="questiondown" unicode="&#xbf;" horiz-adv-x="707" 
d="M179 707l261 12q4 -39 4 -74q0 -164 -92 -233q-112 -84 -116 -184t112 -108t244 120l112 -302q-236 -58 -396 -58q-285 0 -325 185q-19 88 -19 158q0 161 100 230q120 82 120 204q0 24 -5 50zM413 1083q28 -46 28 -87q0 -34 -20 -66q-44 -69 -113 -75q-70 -6 -124 59
q-38 46 -38 91q0 19 8 42q24 69 100 95q18 6 36 6q60 0 123 -65z" />
    <glyph glyph-name="Agrave" unicode="&#xc0;" horiz-adv-x="886" 
d="M465 583l-57 241l-57 -246zM308 392l-91 -392l-257 40l322 1144h254l342 -1088l-282 -72l-86 368h-202zM536 1284l-129 -26l-216 296l210 10z" />
    <glyph glyph-name="Aacute" unicode="&#xc1;" horiz-adv-x="886" 
d="M465 583l-57 241l-57 -246zM308 392l-91 -392l-257 40l322 1144h254l342 -1088l-282 -72l-86 368h-202zM327 1316l98 302l230 -56l-230 -272z" />
    <glyph glyph-name="Acircumflex" unicode="&#xc2;" horiz-adv-x="886" 
d="M465 583l-57 241l-57 -246zM308 392l-91 -392l-257 40l322 1144h254l342 -1088l-282 -72l-86 368h-202zM319 1263l-142 47l192 276h142l179 -256l-172 -32l-67 152z" />
    <glyph glyph-name="Atilde" unicode="&#xc3;" horiz-adv-x="886" 
d="M465 583l-57 241l-57 -246zM308 392l-91 -392l-257 40l322 1144h254l342 -1088l-282 -72l-86 368h-202zM118 1392l70 -134q102 104 183 104q21 0 92 -40.5t100 -40.5q91 0 219 98l-52 167q-96 -93 -182 -93q-55 0 -108 40q-43 33 -94 33q-101 0 -228 -134z" />
    <glyph glyph-name="Adieresis" unicode="&#xc4;" horiz-adv-x="902" 
d="M465 583l-57 241l-57 -246zM308 392l-91 -392l-257 40l322 1144h254l342 -1088l-282 -72l-86 368h-202zM533 1331q-27 44 -27 84q0 33 20 65q43 68 113 73t124 -58q36 -42 36 -89q0 -21 -7 -41q-24 -67 -100 -92q-18 -6 -36 -6q-60 0 -123 64zM169 1323q-25 44 -25 84
q0 33 19 65q40 68 104 73q65 5 115 -58q34 -43 34 -89q0 -23 -6 -41q-22 -67 -93 -92q-17 -6 -34 -6q-55 0 -114 64z" />
    <glyph glyph-name="Aring" unicode="&#xc5;" horiz-adv-x="902" 
d="M465 583l-57 241l-57 -246zM308 392l-91 -392l-257 40l322 1144h254l342 -1088l-282 -72l-86 368h-202zM309 1371q-4 73 19 140q30 88 95 90q33 1 71 1q53 0 94 -49t41 -103q0 -66 -58.5 -118.5t-124.5 -50.5q-59 1 -137 90zM384 1389q43 -44 84 -44q13 0 25 4
q73 24 73 91q0 29 -26 60q-37 43 -84 40t-77 -49q-13 -20 -13 -45q0 -27 18 -57z" />
    <glyph glyph-name="AE" unicode="&#xc6;" horiz-adv-x="1230" 
d="M404 760l-72 -240l123 8zM772 451q0 -81 -4 -171l408 32l-16 -320l-580 16l-76 328l-201 -16l-92 -336l-251 40l314 1144l310 -16l576 40v-280l-408 8q9 -114 14 -224l400 24l-31 -279z" />
    <glyph glyph-name="Ccedilla" unicode="&#xc7;" horiz-adv-x="919" 
d="M895 682q-66 437 -336 474q-44 6 -91 6q-221 0 -344 -152q-114 -141 -114 -367q0 -44 6 -100q21 -195 54 -286q56 -155 182 -215q69 -33 298 -41t354 388l-280 20q-63 -128 -146 -128q-39 0 -84 30q-124 82 -124 253q0 17 2 42q16 204 176 216t184 -167zM366 -127
q102 -2 126 -34q10 -13 10 -22v-22q0 -14 -12 -23l-29 -22q-16 -12 -58 -12h-54q-13 0 -69 4l-9 -111q33 -1 63 -1q134 0 203 21q102 31 102 149q0 92 -140 139l48 117h-154z" />
    <glyph glyph-name="Egrave" unicode="&#xc8;" horiz-adv-x="766" 
d="M18 1195l-26 -1201l690 -10l7 312h-421v160l383 -8l8 256h-391v168l460 -8l-1 322zM562 1260l-129 -26l-216 296l210 10z" />
    <glyph glyph-name="Eacute" unicode="&#xc9;" horiz-adv-x="766" 
d="M18 1195l-26 -1201l690 -10l7 312h-421v160l383 -8l8 256h-391v168l460 -8l-1 322zM244 1324l98 302l230 -56l-230 -272z" />
    <glyph glyph-name="Ecircumflex" unicode="&#xca;" horiz-adv-x="766" 
d="M18 1195l-26 -1201l690 -10l7 312h-421v160l383 -8l8 256h-391v168l460 -8l-1 322zM290 1287l-142 47l192 276h142l179 -256l-172 -32l-67 152z" />
    <glyph glyph-name="Edieresis" unicode="&#xcb;" horiz-adv-x="766" 
d="M18 1195l-26 -1201l690 -10l7 312h-421v160l383 -8l8 256h-391v168l460 -8l-1 322zM467 1331q-27 44 -27 84q0 33 20 65q43 68 113 73t124 -58q36 -42 36 -89q0 -21 -7 -41q-24 -67 -100 -92q-18 -6 -36 -6q-60 0 -123 64zM103 1323q-25 44 -25 84q0 33 19 65
q40 68 104 73q65 5 115 -58q34 -43 34 -89q0 -23 -6 -41q-22 -67 -93 -92q-17 -6 -34 -6q-55 0 -114 64z" />
    <glyph glyph-name="Igrave" unicode="&#xcc;" horiz-adv-x="345" 
d="M20 1151q20 -287 20 -578t-20 -585l264 -36l40 1217zM246 1252l-129 -26l-216 296l210 10z" />
    <glyph glyph-name="Iacute" unicode="&#xcd;" horiz-adv-x="345" 
d="M20 1151q20 -287 20 -578t-20 -585l264 -36l40 1217zM55 1308l98 302l230 -56l-230 -272z" />
    <glyph glyph-name="Icircumflex" unicode="&#xce;" horiz-adv-x="345" 
d="M20 1151q20 -287 20 -578t-20 -585l264 -36l40 1217zM46 1215l-142 47l192 276h142l179 -256l-172 -32l-67 152z" />
    <glyph glyph-name="Idieresis" unicode="&#xcf;" horiz-adv-x="345" 
d="M20 1151q20 -287 20 -578t-20 -585l264 -36l40 1217zM246 1331q-27 44 -27 84q0 33 20 65q43 68 113 73t124 -58q36 -42 36 -89q0 -21 -7 -41q-24 -67 -100 -92q-18 -6 -36 -6q-60 0 -123 64zM-118 1323q-25 44 -25 84q0 33 19 65q40 68 104 73q65 5 115 -58
q34 -43 34 -89q0 -23 -6 -41q-22 -67 -93 -92q-17 -6 -34 -6q-55 0 -114 64z" />
    <glyph glyph-name="Eth" unicode="&#xd0;" horiz-adv-x="710" 
d="M9 547l-105 -19l-32 136l132 29l-20 579q708 -183 694 -622t-651 -626zM312 760l32 -152l-128 -23l5 -177q232 66 249 242t-263 286l5 -198z" />
    <glyph glyph-name="Ntilde" unicode="&#xd1;" horiz-adv-x="815" 
d="M-7 1072q-2 -144 -2 -288q0 -385 17 -775h264q-34 251 -34 463q0 41 1 81l273 -569l264 9q-41 365 -41 699q0 208 16 404l-272 9q-2 -78 -2 -149q0 -259 26 -411l-214 519zM63 1296l70 -134q102 104 183 104q21 0 92 -40.5t100 -40.5q91 0 219 98l-52 167
q-96 -93 -182 -93q-55 0 -108 40q-43 33 -94 33q-101 0 -228 -134z" />
    <glyph glyph-name="Ograve" unicode="&#xd2;" horiz-adv-x="1025" 
d="M-8 479q8 256 124 444q139 226 376 226q247 0 357 -125q89 -102 141 -368q20 -103 20 -196q0 -197 -96 -330q-140 -194 -425 -185t-391 145q-114 145 -106 389zM643 751q-78 74 -147 74q-84 0 -155 -112q-64 -101 -64 -197q0 -91 58 -185q65 -106 150 -106q89 0 173 108
q79 102 79 195q0 109 -94 223zM620 1276l-129 -26l-216 296l210 10z" />
    <glyph glyph-name="Oacute" unicode="&#xd3;" horiz-adv-x="1025" 
d="M-8 479q8 256 124 444q139 226 376 226q247 0 357 -125q89 -102 141 -368q20 -103 20 -196q0 -197 -96 -330q-140 -194 -425 -185t-391 145q-114 145 -106 389zM643 751q-78 74 -147 74q-84 0 -155 -112q-64 -101 -64 -197q0 -91 58 -185q65 -106 150 -106q89 0 173 108
q79 102 79 195q0 109 -94 223zM447 1252l98 302l230 -56l-230 -272z" />
    <glyph glyph-name="Ocircumflex" unicode="&#xd4;" horiz-adv-x="1025" 
d="M-8 479q8 256 124 444q139 226 376 226q247 0 357 -125q89 -102 141 -368q20 -103 20 -196q0 -197 -96 -330q-140 -194 -425 -185t-391 145q-114 145 -106 389zM643 751q-78 74 -147 74q-84 0 -155 -112q-64 -101 -64 -197q0 -91 58 -185q65 -106 150 -106q89 0 173 108
q79 102 79 195q0 109 -94 223zM389 1215l-142 47l192 276h142l179 -256l-172 -32l-67 152z" />
    <glyph glyph-name="Otilde" unicode="&#xd5;" horiz-adv-x="1033" 
d="M-8 479q8 256 124 444q139 226 376 226q247 0 357 -125q89 -102 141 -368q20 -103 20 -196q0 -197 -96 -330q-140 -194 -425 -185t-391 145q-114 145 -106 389zM643 751q-78 74 -147 74q-84 0 -155 -112q-64 -101 -64 -197q0 -91 58 -185q65 -106 150 -106q89 0 173 108
q79 102 79 195q0 109 -94 223zM195 1320l70 -134q102 104 183 104q21 0 92 -40.5t100 -40.5q91 0 219 98l-52 167q-96 -93 -182 -93q-55 0 -108 40q-43 33 -94 33q-101 0 -228 -134z" />
    <glyph glyph-name="Odieresis" unicode="&#xd6;" horiz-adv-x="1041" 
d="M-8 479q8 256 124 444q139 226 376 226q247 0 357 -125q89 -102 141 -368q20 -103 20 -196q0 -197 -96 -330q-140 -194 -425 -185t-391 145q-114 145 -106 389zM643 751q-78 74 -147 74q-84 0 -155 -112q-64 -101 -64 -197q0 -91 58 -185q65 -106 150 -106q89 0 173 108
q79 102 79 195q0 109 -94 223zM590 1275q-27 44 -27 84q0 33 20 65q43 68 113 73t124 -58q36 -42 36 -89q0 -21 -7 -41q-24 -67 -100 -92q-18 -6 -36 -6q-60 0 -123 64zM226 1267q-25 44 -25 84q0 33 19 65q40 68 104 73q65 5 115 -58q34 -43 34 -89q0 -23 -6 -41
q-22 -67 -93 -92q-17 -6 -34 -6q-55 0 -114 64z" />
    <glyph glyph-name="multiply" unicode="&#xd7;" horiz-adv-x="806" 
d="M-28 421l148 -177l239 277l227 -288l194 123l-262 312l255 241l-197 166l-205 -230l-211 243l-184 -160l252 -237z" />
    <glyph glyph-name="Oslash" unicode="&#xd8;" horiz-adv-x="1040" 
d="M301 445q131 155 263 320q-44 14 -81 14q-88 0 -144 -80q-51 -71 -51 -163q0 -44 13 -91zM669 666q-148 -173 -291 -359q49 -53 119 -53q79 0 152 91q68 87 68 169q0 78 -48 152zM1032 1064q-65 -67 -130 -137q100 -219 100 -518q0 -206 -137 -339t-343 -127
q-240 8 -357 79q-59 -82 -117 -166l-120 168q60 65 120 131q-70 133 -63 356q7 232 125 419q138 219 353 219t333 -80l3 -3l137 182z" />
    <glyph glyph-name="Ugrave" unicode="&#xd9;" horiz-adv-x="815" 
d="M19 512l-35 568l280 16l-13 -648q96 -144 157 -144q110 0 110 508q0 134 -8 309l270 -9q10 -764 -94 -986q-76 -163 -234 -163q-57 0 -124 21q-282 88 -309 528zM510 1212l-129 -26l-216 296l210 10z" />
    <glyph glyph-name="Uacute" unicode="&#xda;" horiz-adv-x="815" 
d="M19 512l-35 568l280 16l-13 -648q96 -144 157 -144q110 0 110 508q0 134 -8 309l270 -9q10 -764 -94 -986q-76 -163 -234 -163q-57 0 -124 21q-282 88 -309 528zM296 1252l98 302l230 -56l-230 -272z" />
    <glyph glyph-name="Ucircumflex" unicode="&#xdb;" horiz-adv-x="815" 
d="M19 512l-35 568l280 16l-13 -648q96 -144 157 -144q110 0 110 508q0 134 -8 309l270 -9q10 -764 -94 -986q-76 -163 -234 -163q-57 0 -124 21q-282 88 -309 528zM311 1215l-142 47l192 276h142l179 -256l-172 -32l-67 152z" />
    <glyph glyph-name="Udieresis" unicode="&#xdc;" horiz-adv-x="831" 
d="M19 512l-35 568l280 16l-13 -648q96 -144 157 -144q110 0 110 508q0 134 -8 309l270 -9q10 -764 -94 -986q-76 -163 -234 -163q-57 0 -124 21q-282 88 -309 528zM496 1267q-27 44 -27 84q0 33 20 65q43 68 113 73t124 -58q36 -42 36 -89q0 -21 -7 -41q-24 -67 -100 -92
q-18 -6 -36 -6q-60 0 -123 64zM132 1259q-25 44 -25 84q0 33 19 65q40 68 104 73q65 5 115 -58q34 -43 34 -89q0 -23 -6 -41q-22 -67 -93 -92q-17 -6 -34 -6q-55 0 -114 64z" />
    <glyph glyph-name="Yacute" unicode="&#xdd;" horiz-adv-x="894" 
d="M8 1079l305 -631l-70 -424l271 -32l30 448l319 640l-270 40l-158 -392l-131 416zM365 1252l98 302l230 -56l-230 -272z" />
    <glyph glyph-name="Thorn" unicode="&#xde;" horiz-adv-x="1366" 
d="M72 24q23 334 23 633q0 257 -17 489l181 6l-20 -198q281 -6 513 -72q179 -51 179 -235q0 -55 -15 -119q-68 -288 -671 -273l14 -205zM309 424l228 12q106 6 154 34q66 39 66 134q0 125 -107 155q-25 7 -122 24l-224 17z" />
    <glyph glyph-name="germandbls" unicode="&#xdf;" horiz-adv-x="1043" 
d="M13 16l29 993q-12 59 -12 109q0 168 128 256q111 77 286 77q145 0 216 -39q85 -47 124 -176q11 -37 11 -74q0 -98 -75 -202q-50 -69 -50 -124q0 -59 58 -100q288 -206 288 -448q0 -152 -172 -252q-69 -40 -166 -40q-149 0 -366 92l64 256q128 -96 252 -120q21 -4 41 -4
q91 0 131 92q11 25 11 51q0 81 -121 144q-228 120 -228 270q0 66 42 139q72 124 68 228q-3 79 -114 79q-35 0 -81 -8q-191 -33 -241 -519l99 -634z" />
    <glyph glyph-name="agrave" unicode="&#xe0;" horiz-adv-x="899" 
d="M-8 704l256 -40q88 168 184 160q113 -9 133 -78q3 -10 4 -182q-100 39 -196 39q-72 0 -145 -23q-146 -46 -146 -228q0 -15 3 -47q21 -223 509 -240l2 -47l259 16l8 343q5 217 -41 384q-89 322 -399 322q-64 0 -131 -15q-196 -44 -300 -364zM577 413l7 -173
q-244 50 -236 130q5 55 110 55q49 0 119 -12zM587 1170l-129 -26l-216 296l210 10z" />
    <glyph glyph-name="aacute" unicode="&#xe1;" horiz-adv-x="899" 
d="M-8 704l256 -40q88 168 184 160q113 -9 133 -78q3 -10 4 -182q-100 39 -196 39q-72 0 -145 -23q-146 -46 -146 -228q0 -15 3 -47q21 -223 509 -240l2 -47l259 16l8 343q5 217 -41 384q-89 322 -399 322q-64 0 -131 -15q-196 -44 -300 -364zM577 413l7 -173
q-244 50 -236 130q5 55 110 55q49 0 119 -12zM305 1218l98 302l230 -56l-230 -272z" />
    <glyph glyph-name="acircumflex" unicode="&#xe2;" horiz-adv-x="899" 
d="M-8 704l256 -40q88 168 184 160q113 -9 133 -78q3 -10 4 -182q-100 39 -196 39q-72 0 -145 -23q-146 -46 -146 -228q0 -15 3 -47q21 -223 509 -240l2 -47l259 16l8 343q5 217 -41 384q-89 322 -399 322q-64 0 -131 -15q-196 -44 -300 -364zM577 413l7 -173
q-244 50 -236 130q5 55 110 55q49 0 119 -12zM325 1109l-142 47l192 276h142l179 -256l-172 -32l-67 152z" />
    <glyph glyph-name="atilde" unicode="&#xe3;" horiz-adv-x="899" 
d="M-8 704l256 -40q88 168 184 160q113 -9 133 -78q3 -10 4 -182q-100 39 -196 39q-72 0 -145 -23q-146 -46 -146 -228q0 -15 3 -47q21 -223 509 -240l2 -47l259 16l8 343q5 217 -41 384q-89 322 -399 322q-64 0 -131 -15q-196 -44 -300 -364zM577 413l7 -173
q-244 50 -236 130q5 55 110 55q49 0 119 -12zM126 1247l70 -134q102 104 183 104q21 0 92 -40.5t100 -40.5q91 0 219 98l-52 167q-96 -93 -182 -93q-55 0 -108 40q-43 33 -94 33q-101 0 -228 -134z" />
    <glyph glyph-name="adieresis" unicode="&#xe4;" horiz-adv-x="899" 
d="M-8 704l256 -40q88 168 184 160q113 -9 133 -78q3 -10 4 -182q-100 39 -196 39q-72 0 -145 -23q-146 -46 -146 -228q0 -15 3 -47q21 -223 509 -240l2 -47l259 16l8 343q5 217 -41 384q-89 322 -399 322q-64 0 -131 -15q-196 -44 -300 -364zM577 413l7 -173
q-244 50 -236 130q5 55 110 55q49 0 119 -12zM525 1197q-27 44 -27 84q0 33 20 65q43 68 113 73t124 -58q36 -42 36 -89q0 -21 -7 -41q-24 -67 -100 -92q-18 -6 -36 -6q-60 0 -123 64zM161 1189q-25 44 -25 84q0 33 19 65q40 68 104 73q65 5 115 -58q34 -43 34 -89
q0 -23 -6 -41q-22 -67 -93 -92q-17 -6 -34 -6q-55 0 -114 64z" />
    <glyph glyph-name="aring" unicode="&#xe5;" horiz-adv-x="899" 
d="M-8 704l256 -40q88 168 184 160q113 -9 133 -78q3 -10 4 -182q-100 39 -196 39q-72 0 -145 -23q-146 -46 -146 -228q0 -15 3 -47q21 -223 509 -240l2 -47l259 16l8 343q5 217 -41 384q-89 322 -399 322q-64 0 -131 -15q-196 -44 -300 -364zM577 413l7 -173
q-244 50 -236 130q5 55 110 55q49 0 119 -12zM291 1212q-4 73 19 140q30 88 95 90q33 1 71 1q53 0 94 -49t41 -103q0 -66 -58.5 -118.5t-124.5 -50.5q-59 1 -137 90zM366 1230q43 -44 84 -44q13 0 25 4q73 24 73 91q0 29 -26 60q-37 43 -84 40t-77 -49q-13 -20 -13 -45
q0 -27 18 -57z" />
    <glyph glyph-name="ae" unicode="&#xe6;" horiz-adv-x="1630" 
d="M510 387q-81 10 -136 10t-60 -57t196 -100v147zM1458 584l-529 -114q13 -186 129 -196q115 -10 136 156l286 46q-59 -250 -155 -326q-88 -70 -344 -88q-192 -13 -456 -46l1 44q-424 15 -435 217q-10 201 163 226q90 13 161 13q60 0 102 -10q3 30 3 56q0 158 -98 169
q-114 12 -193 -137l-229 36q121 288 306 313q59 8 105 8q261 0 326 -224q88 255 328 255q30 0 42 -1q273 -23 351 -397zM944 640l280 56q-81 96 -153 96q-73 0 -127 -152z" />
    <glyph glyph-name="ccedilla" unicode="&#xe7;" horiz-adv-x="952" 
d="M650 523q-24 -179 -184 -167t-176 217q-2 26 -2 41q0 172 124 254q44 29 84 29q83 0 146 -128l280 20q-125 396 -354 388q-183 -6 -243 -23q-107 -30 -191 -136q-68 -86 -100 -383q-6 -56 -6 -100q0 -226 114 -367q123 -152 344 -152q47 0 91 6q270 37 336 474zM349 -115
q102 -2 126 -34q10 -13 10 -22v-22q0 -14 -12 -23l-29 -22q-16 -12 -58 -12h-54q-13 0 -69 4l-9 -111q33 -1 63 -1q134 0 203 21q102 31 102 149q0 92 -140 139l48 117h-154z" />
    <glyph glyph-name="egrave" unicode="&#xe8;" horiz-adv-x="939" 
d="M277 439q45 -151 191 -158q136 -7 184 143l280 40q-107 -439 -425 -439q-98 0 -219 45q-224 128 -224 492q0 31 2 69q22 421 410 489q368 8 424 -512zM293 637l375 107q-65 117 -162 117t-152.5 -65.5t-60.5 -158.5zM494 1194l-129 -26l-216 296l210 10z" />
    <glyph glyph-name="eacute" unicode="&#xe9;" horiz-adv-x="939" 
d="M277 439q45 -151 191 -158q136 -7 184 143l280 40q-107 -439 -425 -439q-98 0 -219 45q-224 128 -224 492q0 31 2 69q22 421 410 489q368 8 424 -512zM293 637l375 107q-65 117 -162 117t-152.5 -65.5t-60.5 -158.5zM299 1202l98 302l230 -56l-230 -272z" />
    <glyph glyph-name="ecircumflex" unicode="&#xea;" horiz-adv-x="939" 
d="M277 439q45 -151 191 -158q136 -7 184 143l280 40q-107 -439 -425 -439q-98 0 -219 45q-224 128 -224 492q0 31 2 69q22 421 410 489q368 8 424 -512zM293 637l375 107q-65 117 -162 117t-152.5 -65.5t-60.5 -158.5zM302 1109l-142 47l192 276h142l179 -256l-172 -32
l-67 152z" />
    <glyph glyph-name="edieresis" unicode="&#xeb;" horiz-adv-x="939" 
d="M277 439q45 -151 191 -158q136 -7 184 143l280 40q-107 -439 -425 -439q-98 0 -219 45q-224 128 -224 492q0 31 2 69q22 421 410 489q368 8 424 -512zM293 637l375 107q-65 117 -162 117t-152.5 -65.5t-60.5 -158.5zM534 1213q-27 44 -27 84q0 33 20 65q43 68 113 73
t124 -58q36 -42 36 -89q0 -21 -7 -41q-24 -67 -100 -92q-18 -6 -36 -6q-60 0 -123 64zM170 1205q-25 44 -25 84q0 33 19 65q40 68 104 73q65 5 115 -58q34 -43 34 -89q0 -23 -6 -41q-22 -67 -93 -92q-17 -6 -34 -6q-55 0 -114 64z" />
    <glyph glyph-name="igrave" unicode="&#xec;" 
d="M30 699q22 -206 22 -406q0 -161 -14 -317l256 24q24 365 40 736zM315 906l-129 -26l-216 296l210 10z" />
    <glyph glyph-name="iacute" unicode="&#xed;" 
d="M30 699q22 -206 22 -406q0 -161 -14 -317l256 24q24 365 40 736zM55 914l98 302l230 -56l-230 -272z" />
    <glyph glyph-name="icircumflex" unicode="&#xee;" 
d="M30 699q22 -206 22 -406q0 -161 -14 -317l256 24q24 365 40 736zM61 789l-142 47l192 276h142l179 -256l-172 -32l-67 152z" />
    <glyph glyph-name="idieresis" unicode="&#xef;" 
d="M30 699q22 -206 22 -406q0 -161 -14 -317l256 24q24 365 40 736zM273 845q-27 44 -27 84q0 33 20 65q43 68 113 73t124 -58q36 -42 36 -89q0 -21 -7 -41q-24 -67 -100 -92q-18 -6 -36 -6q-60 0 -123 64zM-91 837q-25 44 -25 84q0 33 19 65q40 68 104 73q65 5 115 -58
q34 -43 34 -89q0 -23 -6 -41q-22 -67 -93 -92q-17 -6 -34 -6q-55 0 -114 64z" />
    <glyph glyph-name="eth" unicode="&#xf0;" horiz-adv-x="1201" 
d="M40 462q0 188 102 314q109 137 293 137q19 0 32 -1l139 -11q-58 73 -135 138l-129 -79l-77 72l109 71l-84 47l65 84l103 -78l103 84l128 -84l-122 -66q91 -80 158 -182q45 -68 118 -208q52 -99 46 -223q12 -278 -205 -391q-100 -52 -217 -52q-267 0 -376 215
q-51 101 -51 213zM355 309q70 -52 133 -52q77 0 143 81q58 72 58 140q0 77 -55.5 140.5t-131.5 63.5q-80 0 -155 -68t-75 -147q0 -77 83 -158z" />
    <glyph glyph-name="ntilde" unicode="&#xf1;" horiz-adv-x="891" 
d="M0 1016l41 -991l244 -7v529q111 181 188 181q40 0 71 -52q48 -81 48 -263q0 -149 -32 -365l270 9q11 176 11 322q0 407 -85 585q-56 117 -172 117q-125 0 -320 -137l-16 112zM87 1247l70 -134q102 104 183 104q21 0 92 -40.5t100 -40.5q91 0 219 98l-52 167
q-96 -93 -182 -93q-55 0 -108 40q-43 33 -94 33q-101 0 -228 -134z" />
    <glyph glyph-name="ograve" unicode="&#xf2;" horiz-adv-x="1043" 
d="M-1 443q7 228 113 392q126 196 337 196q223 0 322 -110q81 -90 127 -322q18 -91 18 -172q0 -174 -86 -290q-126 -170 -383 -162q-236 7 -346 120t-102 348zM587 683q-70 66 -132 66q-76 0 -140 -100q-57 -89 -57 -173q0 -79 52 -162q58 -93 134 -93q87 0 159 91
q69 86 69 175q0 96 -85 196zM583 1226l-129 -26l-216 296l210 10z" />
    <glyph glyph-name="oacute" unicode="&#xf3;" horiz-adv-x="1043" 
d="M-1 443q7 228 113 392q126 196 337 196q223 0 322 -110q81 -90 127 -322q18 -91 18 -172q0 -174 -86 -290q-126 -170 -383 -162q-236 7 -346 120t-102 348zM587 683q-70 66 -132 66q-76 0 -140 -100q-57 -89 -57 -173q0 -79 52 -162q58 -93 134 -93q87 0 159 91
q69 86 69 175q0 96 -85 196zM412 1234l98 302l230 -56l-230 -272z" />
    <glyph glyph-name="ocircumflex" unicode="&#xf4;" horiz-adv-x="1043" 
d="M-1 443q7 228 113 392q126 196 337 196q223 0 322 -110q81 -90 127 -322q18 -91 18 -172q0 -174 -86 -290q-126 -170 -383 -162q-236 7 -346 120t-102 348zM587 683q-70 66 -132 66q-76 0 -140 -100q-57 -89 -57 -173q0 -79 52 -162q58 -93 134 -93q87 0 159 91
q69 86 69 175q0 96 -85 196zM367 1205l-142 47l192 276h142l179 -256l-172 -32l-67 152z" />
    <glyph glyph-name="otilde" unicode="&#xf5;" horiz-adv-x="1043" 
d="M-1 443q7 228 113 392q126 196 337 196q223 0 322 -110q81 -90 127 -322q18 -91 18 -172q0 -174 -86 -290q-126 -170 -383 -162q-236 7 -346 120t-102 348zM587 683q-70 66 -132 66q-76 0 -140 -100q-57 -89 -57 -173q0 -79 52 -162q58 -93 134 -93q87 0 159 91
q69 86 69 175q0 96 -85 196zM168 1311l70 -134q102 104 183 104q21 0 92 -40.5t100 -40.5q91 0 219 98l-52 167q-96 -93 -182 -93q-55 0 -108 40q-43 33 -94 33q-101 0 -228 -134z" />
    <glyph glyph-name="odieresis" unicode="&#xf6;" horiz-adv-x="1043" 
d="M-1 443q7 228 113 392q126 196 337 196q223 0 322 -110q81 -90 127 -322q18 -91 18 -172q0 -174 -86 -290q-126 -170 -383 -162q-236 7 -346 120t-102 348zM587 683q-70 66 -132 66q-76 0 -140 -100q-57 -89 -57 -173q0 -79 52 -162q58 -93 134 -93q87 0 159 91
q69 86 69 175q0 96 -85 196zM559 1253q-27 44 -27 84q0 33 20 65q43 68 113 73t124 -58q36 -42 36 -89q0 -21 -7 -41q-24 -67 -100 -92q-18 -6 -36 -6q-60 0 -123 64zM195 1245q-25 44 -25 84q0 33 19 65q40 68 104 73q65 5 115 -58q34 -43 34 -89q0 -23 -6 -41
q-22 -67 -93 -92q-17 -6 -34 -6q-55 0 -114 64z" />
    <glyph glyph-name="divide" unicode="&#xf7;" horiz-adv-x="924" 
d="M877 634l-807 -18l-6 132q144 -7 297 -7q247 0 516 18v-125zM413 998q24 67 88 60t65 -87q1 -79 -81 -81q-73 -1 -73 85q0 11 1 23zM365 1010q-2 -20 -2 -38q0 -150 121 -148q135 2 134 142q-2 140 -106 151q-105 11 -147 -107zM349 458q-2 -21 -2 -39q0 -147 121 -146
q135 2 134 141q-1 140 -107 151q-105 11 -146 -107zM406 445q23 67 85 61q61 -6 62 -87q1 -82 -77 -83q-71 -1 -71 86q0 11 1 23z" />
    <glyph glyph-name="oslash" unicode="&#xf8;" horiz-adv-x="958" 
d="M248 432q147 165 289 341q-58 46 -122 46q-68 0 -131 -100q-58 -92 -58 -163t22 -124zM616 671q-146 -169 -291 -355q40 -38 107 -39q72 -1 146 95q70 91 70 166q0 72 -32 133zM920 1004q-66 -68 -132 -140q90 -178 90 -420q0 -166 -120.5 -271.5t-287.5 -100.5
q-199 7 -295 46q-64 -85 -127 -174l-120 144q63 65 125 131q-75 111 -68 303q7 196 114 345q122 170 307 170q184 0 290 -64q72 92 142 187z" />
    <glyph glyph-name="ugrave" unicode="&#xf9;" horiz-adv-x="739" 
d="M697 48l32 1046h-232v-646q-87 -144 -142 -144q-97 0 -97 500q0 137 7 317l-240 -9q-8 -764 84 -980q46 -108 149 -108q105 0 268 110l11 -98zM448 1178l-129 -26l-216 296l210 10z" />
    <glyph glyph-name="uacute" unicode="&#xfa;" horiz-adv-x="739" 
d="M697 48l32 1046h-232v-646q-87 -144 -142 -144q-97 0 -97 500q0 137 7 317l-240 -9q-8 -764 84 -980q46 -108 149 -108q105 0 268 110l11 -98zM295 1218l98 302l230 -56l-230 -272z" />
    <glyph glyph-name="ucircumflex" unicode="&#xfb;" horiz-adv-x="739" 
d="M697 48l32 1046h-232v-646q-87 -144 -142 -144q-97 0 -97 500q0 137 7 317l-240 -9q-8 -764 84 -980q46 -108 149 -108q105 0 268 110l11 -98zM259 1141l-142 47l192 276h142l179 -256l-172 -32l-67 152z" />
    <glyph glyph-name="udieresis" unicode="&#xfc;" horiz-adv-x="739" 
d="M697 48l32 1046h-232v-646q-87 -144 -142 -144q-97 0 -97 500q0 137 7 317l-240 -9q-8 -764 84 -980q46 -108 149 -108q105 0 268 110l11 -98zM443 1245q-27 44 -27 84q0 33 20 65q43 68 113 73t124 -58q36 -42 36 -89q0 -21 -7 -41q-24 -67 -100 -92q-18 -6 -36 -6
q-60 0 -123 64zM79 1237q-25 44 -25 84q0 33 19 65q40 68 104 73q65 5 115 -58q34 -43 34 -89q0 -23 -6 -41q-22 -67 -93 -92q-17 -6 -34 -6q-55 0 -114 64z" />
    <glyph glyph-name="yacute" unicode="&#xfd;" horiz-adv-x="808" 
d="M406 541q63 188 122 475l248 -40q-110 -422 -141 -516q-97 -291 -200 -422q-153 -194 -401 -194q-40 0 -82 4v294q58 -21 108 -21q117 0 191 117l-260 738l273 63zM262 1218l98 302l230 -56l-230 -272z" />
    <glyph glyph-name="thorn" unicode="&#xfe;" horiz-adv-x="1465" 
d="M272 1288l-6 -491q99 191 329 188q229 -2 325 -219q47 -106 47 -207q0 -103 -50 -200q-99 -191 -329 -191t-327 199l-5 -463l-168 40q29 438 29 898q0 197 -5 398zM606 419q59 0 104 58q41 54 41 115t-41 109q-43 52 -102 52q-64 0 -118 -53.5t-54 -117.5q0 -59 58 -111
t112 -52z" />
    <glyph glyph-name="ydieresis" unicode="&#xff;" horiz-adv-x="816" 
d="M406 541q63 188 122 475l248 -40q-110 -422 -141 -516q-97 -291 -200 -422q-153 -194 -401 -194q-40 0 -82 4v294q58 -21 108 -21q117 0 191 117l-260 738l273 63zM485 1181q-27 44 -27 84q0 33 20 65q43 68 113 73t124 -58q36 -42 36 -89q0 -21 -7 -41q-24 -67 -100 -92
q-18 -6 -36 -6q-60 0 -123 64zM121 1173q-25 44 -25 84q0 33 19 65q40 68 104 73q65 5 115 -58q34 -43 34 -89q0 -23 -6 -41q-22 -67 -93 -92q-17 -6 -34 -6q-55 0 -114 64z" />
    <glyph glyph-name="dotlessi" unicode="&#x131;" horiz-adv-x="367" 
d="M17 699q22 -206 22 -406q0 -161 -14 -317l256 24q24 365 40 736z" />
    <glyph glyph-name="OE" unicode="&#x152;" horiz-adv-x="1622" 
d="M638 701q-54 57 -88 73q-21 10 -63 10q-75 0 -138 -100q-57 -91 -57 -171q0 -84 54 -167q60 -92 140 -92q90 0 163 93q68 87 68 180q0 91 -79 174zM1566 1152v-280l-437 8l-8 -216l454 16l-34 -280l-412 16l17 -176l437 32l-17 -320l-702 8v120q-138 -143 -403 -135
q-267 9 -382 160q-103 137 -94 410q8 238 131 422q142 212 368 212q282 0 380 -152v139z" />
    <glyph glyph-name="oe" unicode="&#x153;" horiz-adv-x="1643" 
d="M443 679q-63 0 -114 -83q-47 -76 -47 -141q0 -71 44 -139q50 -77 117 -77q74 0 135 78q56 72 56 149q0 74 -66 143.5t-125 69.5zM1021 395q15 -199 140 -210q124 -11 146 167l308 49q-50 -212 -123 -313q-103 -143 -287 -143q-284 0 -389 182q-119 -201 -370 -192
q-236 8 -346 112q-116 110 -109 344q7 243 115 399q126 183 357 171q241 -12 353 -238q103 232 336 232q41 0 81 -6q297 -45 359 -432zM1024 560l336 80q-107 111 -196 111q-90 0 -140 -191z" />
    <glyph glyph-name="Scaron" unicode="&#x160;" horiz-adv-x="934" 
d="M-24 110l133 298q249 -164 386 -164q50 0 94 29q50 32 50 79q0 71 -185 118q-270 69 -364 283q-31 70 -31 132q0 160 162 242q127 64 303 64q156 0 366 -41l-95 -284q-158 71 -258 71q-45 0 -90 -22q-54 -26 -54 -69q0 -41 71 -86q50 -32 190 -87q121 -48 172 -93
q77 -68 82 -182q9 -189 -174 -341q-78 -65 -228 -65q-201 0 -530 118zM416 1639l-131 -55l199 -320l89 -5l214 264l-168 70l-89 -236z" />
    <glyph glyph-name="scaron" unicode="&#x161;" horiz-adv-x="840" 
d="M-24 90l118 268q226 -147 350 -147q44 0 85 26q46 29 46 71q0 63 -168 106q-243 62 -327 255q-28 64 -28 118q0 115 118 201q101 74 301 74q141 0 332 -37l-85 -256q-145 64 -235 64q-44 0 -83 -19q-48 -23 -48 -62q0 -36 64 -77q44 -28 172 -78q108 -42 156 -84
q70 -61 74 -164q7 -169 -158 -307q-70 -59 -205 -59q-181 0 -479 107zM332 1507l-131 -55l199 -320l89 -5l214 264l-168 70l-89 -236z" />
    <glyph glyph-name="Ydieresis" unicode="&#x178;" horiz-adv-x="902" 
d="M8 1079l305 -631l-70 -424l271 -32l30 448l319 640l-270 40l-158 -392l-131 416zM559 1275q-27 44 -27 84q0 33 20 65q43 68 113 73t124 -58q36 -42 36 -89q0 -21 -7 -41q-24 -67 -100 -92q-18 -6 -36 -6q-60 0 -123 64zM195 1267q-25 44 -25 84q0 33 19 65q40 68 104 73
q65 5 115 -58q34 -43 34 -89q0 -23 -6 -41q-22 -67 -93 -92q-17 -6 -34 -6q-55 0 -114 64z" />
    <glyph glyph-name="florin" unicode="&#x192;" horiz-adv-x="703" 
d="M144 747q112 -10 228 -17q-6 302 140 393q53 33 122 33q114 0 269 -96l-111 -172q-45 44 -113 44q-24 0 -45 -4q-100 -19 -113 -207q89 -4 179 -7l-5 -160q-84 9 -173 15q19 -895 -384 -895q-32 0 -66 6l-16 136q30 -7 58 -7q257 0 257 621q0 69 -3 146q-108 3 -224 1
v170z" />
    <glyph glyph-name="circumflex" unicode="&#x2c6;" horiz-adv-x="537" 
d="M151 997l-142 47l192 276h142l179 -256l-172 -32l-67 152z" />
    <glyph glyph-name="caron" unicode="&#x2c7;" horiz-adv-x="577" 
d="M176 1387l-131 -55l199 -320l89 -5l214 264l-168 70l-89 -236z" />
    <glyph glyph-name="ring" unicode="&#x2da;" horiz-adv-x="435" 
d="M70 1148q-4 73 19 140q30 88 95 90q33 1 71 1q53 0 94 -49t41 -103q0 -66 -58.5 -118.5t-124.5 -50.5q-59 1 -137 90zM145 1166q43 -44 84 -44q13 0 25 4q73 24 73 91q0 29 -26 60q-37 43 -84 40t-77 -49q-13 -20 -13 -45q0 -27 18 -57z" />
    <glyph glyph-name="tilde" unicode="&#x2dc;" horiz-adv-x="692" 
d="M8 1151l70 -134q102 104 183 104q21 0 92 -40.5t100 -40.5q91 0 219 98l-52 167q-96 -93 -182 -93q-55 0 -108 40q-43 33 -94 33q-101 0 -228 -134z" />
    <glyph glyph-name="emdash" unicode="&#x2014;" horiz-adv-x="1696" 
d="M34 687l-18 -220q487 40 1032 40q286 0 587 -11l20 208q-650 -22 -1166 -22q-242 0 -455 5z" />
    <glyph glyph-name="quoteleft" unicode="&#x2018;" 
d="M302 1080q25 -52 25 -95q0 -39 -20 -71q-43 -69 -113 -75t-124 59q-29 35 -29 89q0 48 22 113l103 188l112 -56l-80 -112z" />
    <glyph glyph-name="quoteright" unicode="&#x2019;" 
d="M64 1042q-25 52 -25 95q0 40 20 72q42 68 114 74q71 6 124 -58q28 -34 28 -90q0 -48 -22 -113l-103 -188l-112 56l80 112z" />
    <glyph glyph-name="quotesinglbase" unicode="&#x201a;" 
d="M64 50q-25 52 -25 95q0 40 20 72q42 68 114 74q71 6 124 -58q28 -34 28 -90q0 -48 -22 -113l-103 -188l-112 56l80 112z" />
    <glyph glyph-name="quotedblleft" unicode="&#x201c;" horiz-adv-x="705" 
d="M302 1080q25 -52 25 -95q0 -39 -20 -71q-43 -69 -113 -75t-124 59q-29 35 -29 89q0 48 22 113l103 188l112 -56l-80 -112zM670 1072q25 -52 25 -95q0 -39 -20 -71q-43 -69 -113 -75t-124 59q-29 35 -29 89q0 48 22 113l103 188l112 -56l-80 -112z" />
    <glyph glyph-name="quotedblright" unicode="&#x201d;" horiz-adv-x="705" 
d="M416 1034q-25 52 -25 95q0 40 20 72q42 68 114 74q71 6 124 -58q28 -34 28 -90q0 -48 -22 -113l-103 -188l-112 56l80 112zM48 1034q-25 52 -25 95q0 40 20 72q42 68 114 74q71 6 124 -58q28 -34 28 -90q0 -48 -22 -113l-103 -188l-112 56l80 112z" />
    <glyph glyph-name="quotedblbase" unicode="&#x201e;" horiz-adv-x="665" 
d="M480 -16q-111 49 -111 117q0 20 10 42q43 94 114 100t124 -58q28 -34 28 -90q0 -48 -22 -113l-103 -188l-112 56zM136 -8q-111 49 -111 117q0 20 10 42q43 94 114 100t124 -58q28 -34 28 -90q0 -48 -22 -113l-103 -188l-112 56z" />
    <glyph glyph-name="dagger" unicode="&#x2020;" horiz-adv-x="699" 
d="M232 608v-872l192 -32l16 920l208 16l-16 248l-208 -8v392l-256 -16l24 -408l-192 -16l8 -248z" />
    <glyph glyph-name="daggerdbl" unicode="&#x2021;" horiz-adv-x="699" 
d="M166 1258l259 13q6 -206 9 -405q99 10 198 22l21 -238l-217 -22q0 -218 -3 -385l231 -27l-24 -208l-212 17q-5 -155 -12 -305h-191q1 158 -1 322l-240 22l16 240l220 -37q-5 165 -13 336l-199 -19l-8 248q97 6 195 13q-12 203 -29 413z" />
    <glyph glyph-name="ellipsis" unicode="&#x2026;" horiz-adv-x="1385" 
d="M534 46q-24 62 -24 109q0 42 20 72q42 64 117 70q76 7 134 -64q39 -48 39 -101q0 -111 -115 -151q-20 -7 -40 -7q-64 0 -131 72zM1037 58q-29 49 -29 92q0 37 21 70q45 71 119 78q73 7 129 -61q39 -47 39 -97q0 -22 -7 -43q-25 -73 -105 -101q-20 -7 -39 -7
q-62 0 -128 69zM59 53q-28 46 -28 87q0 35 20 67q43 68 114 74t124 -58q37 -44 37 -92q0 -22 -7 -42q-24 -69 -101 -95q-18 -6 -36 -6q-60 0 -123 65z" />
    <glyph glyph-name="perthousand" unicode="&#x2030;" horiz-adv-x="2290" 
d="M2236 341q-4 -204 -46 -274q-28 -47 -124 -86q-62 -25 -126 -25q-96 0 -192 64q-124 83 -124 277q0 45 8 104q35 257 284 257q26 0 40 -1q286 -21 280 -316zM1945 140q43 0 78 61q30 53 30 101q0 50 -29 98q-32 55 -79 55q-50 0 -91 -58q-39 -53 -39 -105
q0 -53 44 -102.5t86 -49.5zM620 944q7 -68 7 -125q0 -107 -62 -210q-77 -128 -222 -128q-132 0 -199 63q-63 60 -88 192q-5 26 -5 61q0 100 50 236q57 154 222 154q272 0 297 -243zM351 672q43 0 78 61q30 53 30 101q0 50 -29 98q-32 55 -79 55q-50 0 -91 -58
q-39 -53 -39 -105q0 -53 44 -102.5t86 -49.5zM1231 152q43 0 78 61q30 53 30 101q0 50 -29 98q-32 55 -79 55q-50 0 -91 -58q-39 -53 -39 -105q0 -53 44 -102.5t86 -49.5zM1504 481q41 -129 41 -204q0 -77 -72 -184q-83 -124 -232 -124q-36 0 -82 9q-209 41 -235 340
q-3 35 -3 50q0 253 243 297q44 8 85 8q194 0 255 -192zM392 -73q291 635 504 1337l192 -68q-216 -720 -520 -1347z" />
    <glyph glyph-name="guilsinglleft" unicode="&#x2039;" horiz-adv-x="499" 
d="M46 389l-7 201l402 195l6 -184l-272 -116l280 -171l-30 -185z" />
    <glyph glyph-name="guilsinglright" unicode="&#x203a;" horiz-adv-x="483" 
d="M440 373l7 201l-402 195l-6 -184l272 -116l-280 -171l30 -185z" />
    <glyph glyph-name="trademark" unicode="&#x2122;" horiz-adv-x="1094" 
d="M208 1077l8 -399l126 -13l-8 420l165 6l3 118q-223 -13 -486 -38l7 -121zM540 1201l-26 -514l141 -8l14 297l39 -192h133l49 175v-294l152 -9q-5 273 -36 545l-156 -4l-70 -221l-72 233z" />
  </font>
</defs>
</svg>
