<?xml version="1.0" standalone="no"?>
<!DOCTYPE svg PUBLIC "-//W3C//DTD SVG 1.1//EN" "http://www.w3.org/Graphics/SVG/1.1/DTD/svg11.dtd" >
<svg xmlns="http://www.w3.org/2000/svg">
<metadata></metadata>
<defs>
<font id="spahrty_girlregular" horiz-adv-x="1593" >
<font-face units-per-em="2048" ascent="1638" descent="-410" />
<missing-glyph horiz-adv-x="622" />
<glyph horiz-adv-x="2048" />
<glyph horiz-adv-x="2048" />
<glyph unicode="&#xd;" horiz-adv-x="622" />
<glyph unicode=" "  horiz-adv-x="622" />
<glyph unicode="&#x09;" horiz-adv-x="622" />
<glyph unicode="&#xa0;" horiz-adv-x="622" />
<glyph unicode="!" horiz-adv-x="415" d="M18 1612l5 26q23 0 68.5 6.5t68.5 6.5q35 0 90 -6l90 -11v-22q-61 -66 -78 -185q-8 -59 -4 -206q0 -4 -2 -117q-2 -104 -2 -193q0 -524 86 -671l-18 -23q-10 4 -111 6q-86 2 -105 17l-6 20q94 51 95 246v336q0 281 -7 366q-18 246 -84 344q-14 20 -86 60zM100 53 q0 39 34 78t73 39q18 0 53 -4t53 -4q8 0 24.5 4t24.5 4q9 0 17 -12q-2 -129 -19 -183q-33 -102 -133 -102q-61 0 -96 61q-31 53 -31 119zM133 47q0 -49 21 -90q27 -49 69 -49q37 0 72 22q12 6 27.5 39t15.5 47v43q-4 -4 -16 -2v-16q0 -39 -30 -66.5t-69 -27.5q-72 0 -71 80 q0 94 71 94q49 0 49 -64q0 -43 -43 -43q-14 0 -14 17q0 10 23 22v15q0 12 -17 12q-39 0 -39 -51q0 -41 43 -41q63 0 64 78q0 8 -21 45q-10 2 -23.5 11t-31.5 9q-31 0 -55.5 -26.5t-24.5 -57.5z" />
<glyph unicode="&#x22;" horiz-adv-x="2048" d="M33 1243q39 49 49 117q4 66 8 131q12 166 12 211q0 63 -28 94l8 8q12 0 36.5 3t37.5 3h39l6 -4l-4 -6q-23 -27 -27 -43q-4 -25 -8 -47q-41 -170 -41 -358q0 -41 10 -64q6 -8 39 -49q-25 -8 -25 -10q-18 4 -61 0q-14 6 -25 6q-6 0 -10 -2zM201 1235q39 49 49 117 q4 66 8 131q12 166 12 211q0 63 -28 94l8 8q12 0 36.5 3t37.5 3h38l7 -4l-4 -6q-23 -27 -27 -43q-4 -25 -8 -47q-41 -170 -41 -359q0 -41 10 -63q6 -8 39 -49q-25 -8 -25 -10q-18 4 -61 0q-14 6 -25 6q-6 0 -10 -2z" />
<glyph unicode="#" horiz-adv-x="1236" d="M53 592l13 33l-5 14l21 23q123 -61 260 -58l84 2l12 250q-125 0 -180 -12q-70 -14 -164 -70q0 33 -22 33q-2 4 -2 8q0 10 8 16q2 14 2 25q0 25 -12 35l10 33l-4 14l18 25q121 -57 236 -54l112 4l11 181q0 74 -5 98q-8 45 -34 90l10 18q78 12 119 13h32l7 -8l-5 -15 q-37 -66 -51 -182q-4 -35 -14 -195l276 2l11 172q0 74 -4 99q-8 45 -35 90l10 18q78 12 119 13h33l6 -9l-4 -14q-37 -68 -52 -178q-4 -33 -14 -191h129q113 0 180 52l19 -11q8 -51 18 -155l-6 -8l-14 4q-84 43 -330 47q-8 -80 -23 -242l144 -2q113 -2 180 47l18 -10 q8 -51 17 -156l-8 -8l-13 4q-84 45 -340 53l-6 -141q-2 -66 17 -119q6 -14 49 -108q-31 4 -33 -21q-16 -6 -25 9l-38 2l-19 -11l-31 15l-14 -4l-22 20q47 92 57 176q4 33 8 184q-96 6 -289 17q-6 -102 -6 -154q0 -63 19 -119q10 -31 47 -106q-31 2 -33 -23q-16 -4 -25 11 h-41l-16 -11l-31 15l-16 -4l-21 20q47 92 58 182q4 35 8 189h-90q-84 0 -133 -17q-39 -14 -121 -59q0 33 -23 33q-6 16 9 26q6 43 -13 60zM483 606q104 0 291 -2q2 96 10 242q-92 4 -278 10q-9 -84 -23 -250zM563 713q0 31 22.5 54.5t53.5 23.5t52.5 -24t21.5 -54 q0 -33 -21.5 -56.5t-52.5 -23.5q-33 0 -54.5 23.5t-21.5 56.5z" />
<glyph unicode="$" horiz-adv-x="968" d="M92 406q0 39 31 103t31 93q0 18 -9 39l23 21l147 -64q-18 -23 -66 -53.5t-63 -50.5q-27 -37 -26 -97q0 -61 90 -136t149 -62l9 80q-137 8 -129 149l2 37q14 33 45 98q29 59 90 51l6 197l-31 -2q-111 -8 -203 78t-92 196q0 125 109.5 225.5t236.5 98.5q-2 94 -6 117 q-8 41 -39 112l13 29q39 8 122 18l50 -2l10 -12q-25 -82 -57 -264q225 -39 225 -160q0 -131 -137 -227h-11l-8 4l8 65q0 29 -24.5 48.5t-52.5 19.5h-21l-6 -100l18 -2l37 18v21l-22 6l-11 -11l-18 15l35 24q45 -4 45 -30q0 -31 -26.5 -53.5t-57.5 -16.5l-14 -184 q182 -23 254 -86q27 -25 73 -125q37 -80 121 -115l-6 -14q-43 -25 -66 -41q-10 -117 -110 -238q-109 -129 -221 -129q-33 0 -54 17q4 -39 25 -78q16 -31 37 -72h-4q-33 0 -35 -33q-4 -2 -8 -2q-12 0 -19 17l-47 2l-20 -17l-35 21l-17 -4l-24 28q35 90 51 154 q-127 20 -205 84q-92 76 -92 195zM188 1055q0 -31 67 -104.5t95.5 -80t73.5 -16.5l16 473q-252 -51 -252 -272zM326 432q0 -115 82 -129l8 283q-41 -18 -82 -84q-10 -16 -2 -53q-6 -8 -6 -17zM471 301q117 14 117 121q0 23 -28 43t-50 20q-17 0 -35 -16l-2 -49q8 -6 16 -6 q6 2 19 14q0 -2 4 -6t4 -8q0 -14 -15.5 -20.5t-27.5 -2.5q-2 -31 -2 -90zM473 270q0 -29 4 -75q59 6 113 16q35 6 89 59.5t54 85.5q0 238 -254 238l-2 -86q8 6 19 6q121 0 120 -108q0 -104 -143 -136zM481 618q88 0 156 -26q51 -20 41 -21q10 0 24.5 18.5t14.5 28.5 q0 88 -74 134q-45 28 -151 51q-6 -70 -11 -185zM516 1180q12 4 27 4q49 0 90 -54q8 -4 12 -4q18 0 37.5 36t19.5 57q0 55 -47 90q-12 10 -60.5 22t-66.5 12q-6 -61 -12 -163z" />
<glyph unicode="%" horiz-adv-x="1110" d="M27 1126q0 113 81.5 186.5t196.5 73.5q104 0 175 -65.5t71 -167.5q0 -115 -62 -195q-68 -88 -178 -88h-110q-12 14 -41 29.5t-39 26.5q-94 94 -94 200zM74 297q72 43 106 70q61 49 328 434q236 342 321 485q35 59 33 146l25 12q57 -27 172 -90l2 -15l-12 -12 q-119 -59 -424 -475q-293 -399 -357 -565q-8 -16 -4 -47q6 -43 6 -47l-2 -31q-10 2 -28 8q-16 6 -23 -8l-14 10l-6 16l-43 29l-27 2l-25 35l-18 6zM111 1163q0 -57 39.5 -102t97.5 -45q49 0 81.5 30.5t32.5 79.5q0 72 -67 72q-68 0 -68 -55q0 -18 15 -33h12q2 0 8 4t12 4 t9 -14q0 -33 -37 -33q-51 0 -51 72q0 39 32.5 65.5t73.5 26.5q94 0 94 -96q0 -72 -40 -116t-111 -44q-25 0 -56 6l-10 -12q37 -49 98 -49q123 0 166 110q33 84 33 111q0 84 -52 135t-136 51q-61 0 -118.5 -53t-57.5 -115zM557 532q0 113 82 187t197 74q104 0 174.5 -66 t70.5 -168q0 -115 -61 -194q-68 -88 -178 -89h-111q-12 14 -40.5 30t-39.5 26q-94 94 -94 200zM641 569q0 -57 40 -102t97 -45q49 0 82 30.5t33 79.5q0 72 -68 72t-67 -55q0 -18 14 -33h12q2 0 8.5 4t12.5 4t8 -14q0 -33 -37 -33q-51 0 -51 72q0 39 33 65.5t73 26.5 q94 0 95 -96q0 -72 -40 -116t-112 -44q-25 0 -55 6l-10 -12q37 -49 98 -49q123 0 166 110q33 84 33 111q0 84 -52.5 135t-136.5 51q-61 0 -118.5 -53t-57.5 -115z" />
<glyph unicode="&#x26;" horiz-adv-x="1253" d="M55 287q0 158 195 364q104 111 325 289q-27 59 -77 176q-45 109 -45 184q0 100 94 154q76 43 184 43q70 0 115 -16q31 -10 98 -60l-6 -12q49 -63 49 -147q0 -111 -104 -199q-16 -14 -191 -143q37 -92 114 -228.5t138 -212.5q31 37 56.5 103.5t25.5 113.5q0 80 -119 72 q-12 4 -12 29l12 10q172 14 166 14q35 0 107 -6l26 -22q-45 -66 -106 -201q-68 -150 -101 -207q89 -197 230 -334h-76l-129 4q-4 0 -29 6q-16 2 -30 -2l-31 29q25 29 49 74q-37 84 -59 127q-231 -170 -279 -191q-104 -47 -342 -47q-86 0 -167 75t-81 161zM152 295 q0 -133 79 -152l9 -8q90 -29 163 -29q31 0 156 29l8 8q57 8 166 99q87 71 146 137l-269 481q-37 -12 -105.5 -73.5t-68.5 -94.5v-6q16 -8 72 -14q49 -6 70 -23q41 -33 70.5 -90t29.5 -108q0 -109 -71.5 -170.5t-182.5 -61.5q-135 0 -135 127q0 59 43 125q45 74 102 74 q43 0 77 -28t34 -68q0 -94 -90 -95l-19 21q-2 14 38 19t40 46q0 61 -72 62q-53 0 -90 -50.5t-37 -105.5q0 -92 123 -92q205 0 205 186q0 66 -44 132.5t-107 66.5q-137 0 -238.5 -102.5t-101.5 -241.5zM324 1257q0 16 16 33t33 17q10 0 21.5 -11.5t11.5 -21.5 q0 -14 -18.5 -33.5t-33.5 -19.5q-8 0 -19 14t-11 22zM375 1114q0 27 22 27h11q45 0 45 -35q0 -43 -47 -43q-31 0 -31 51zM432 967q0 29 31 28q47 0 47 -37q0 -10 -11.5 -23t-21.5 -13q-20 0 -28 10q-16 16 -17 35zM526 1300q0 -76 86 -196q33 23 103.5 68t70.5 71 q0 29 -17 57.5t-44 28.5q-25 0 -66 -25.5t-41 -48.5t29 -22q31 0 31 33q0 23 18 22q16 0 17 -28q0 -61 -66 -62q-55 0 -55 57q0 45 44 78t91 33q86 0 86 -115q0 -61 -91 -117.5t-91 -68.5q0 -10 13 -40t20 -34q49 23 143 72q86 47 92 117q8 8 8 18q0 61 -37 125 q-27 45 -49 45q-4 0 -4 -2h-4q4 0 -35 26.5t-86 26.5q-61 0 -108 -28q-57 -33 -58 -91zM608 66v6h29v-6h-29z" />
<glyph unicode="'" horiz-adv-x="210" d="M20 1239q35 49 43.5 115.5t12.5 132.5q12 166 12 211q0 66 -29 94l9 8q12 0 36.5 3t36.5 3h39l6 -4l-4 -6q-23 -27 -26 -43q-4 -23 -9 -47q-39 -168 -38 -358q0 -47 10 -66q18 -25 39 -47q-27 -6 -27 -10q-18 4 -61 0q-14 6 -25 6q-6 0 -10 -2z" />
<glyph unicode="(" horiz-adv-x="550" d="M18 735q47 18 70 49l-14 15h-31l-2 26q-2 25 55 195l6 2l2 -14q6 -47 33 -142q59 115 174 345.5t119 347.5l12 4q2 -4 43 -90q27 -55 27 -89l-6 -6l-8 2q-27 0 -174 -262q-137 -244 -164 -313q170 -477 307 -651l39 2h12q-2 -35 -30.5 -105.5t-28.5 -101.5l-17 -12 q-39 287 -317 784q-12 -43 -31 -201q-20 12 -32.5 59.5t-24.5 55.5q0 4 -12 49q-8 31 -7 51z" />
<glyph unicode=")" horiz-adv-x="550" d="M43 156q12 2 51 -2q137 174 307 651q-55 137 -292 536q-23 39 -43 39q-6 0 -11 -2l-6 6q0 33 27 89q41 86 43 90l12 -4q4 -117 119 -349q57 -115 174 -344q18 39 33 142l2 14l6 -2q57 -170 55 -195l-2 -26h-31l-14 -15q23 -31 70 -49q2 -20 -6 -51q-12 -45 -13 -49 q-12 -8 -24.5 -55.5t-32.5 -59.5q-4 63 -31 201q-279 -500 -317 -784l-17 12q0 31 -28.5 101.5t-30.5 105.5z" />
<glyph unicode="*" horiz-adv-x="776" d="M18 995l17 21q47 -35 162 -43q86 -6 112 -10q-25 39 -73 114q-45 68 -111 68q-20 0 -66 -43l-24 4q20 35 80.5 79t79.5 68h26q0 -20 10 -59q8 -18 68.5 -115.5t77.5 -117.5q0 27 10 81t10 80q0 123 -116 115l-17 20q27 10 66 11q23 0 76 -4q47 -4 75 0l21 -17 q-12 -16 -33 -51q-12 -41 -18 -98q-4 -43 -13 -103q150 86 150 189q0 18 -49 59l4 27q35 -16 84 -73.5t75 -74.5l3 -26q-18 -2 -54.5 -16.5t-93.5 -61.5q-45 -37 -88 -70q51 -14 121 -14q127 0 119 119l20 16q10 -29 10 -70q0 -16 -4 -73q-4 -47 2 -74l-16 -21 q-16 12 -51 31q-47 14 -121 23l-125 14v-4q25 -37 76 -109q47 -63 114 -63q18 0 62 45l26 -4q-18 -37 -77.5 -82t-77.5 -72h-27q0 18 -10 58q-35 49 -100 147q-20 -61 -21 -133q0 -115 113 -111l16 -20q-25 -8 -55 -8q-23 0 -82 6q-51 6 -82 4l-18 18q14 14 34 50 q12 37 26.5 123.5t23.5 123.5q-37 -27 -111 -80q-61 -47 -61 -116q0 -18 45 -62l-5 -26q-35 18 -81 76.5t-74 76.5v27q55 0 153 74q68 51 95 69q-25 0 -72 6.5t-72 6.5q-129 0 -129 -97q0 -12 2 -26l-20 -19q-14 37 -11 112t-6 105z" />
<glyph unicode="+" horiz-adv-x="804" d="M55 668q6 63 25 63q2 0 51 -18.5t76 -18.5q6 0 76 4q35 2 75 2q-2 45 -6 136q-6 78 -45 120l12 23q41 8 121 20l11 -6l2 -16l-2 -6q-25 -43 -23 -150l2 -116q119 -4 152 -3q90 4 139 46l22 -15q8 -41 17 -121l-6 -10l-17 -2l-6 2q-51 33 -303 33q4 -168 31 -260 q25 -18 51 -47q-33 -27 -49 -27q-8 0 -12 4q-12 0 -39 -12l-37 4q-27 6 -27 18q0 4 15.5 46t15.5 67q0 -29 -15 209q-145 0 -227 -23q-20 -23 -49 -49q-23 31 -23 56q1 6 3 8q2 12 -11 39z" />
<glyph unicode="," horiz-adv-x="473" d="M-16 -295q0 20 122 49q74 31 121 129q-6 18 -88 35q-51 96 -51 150q0 84 49 134t133 50q145 0 146 -143v-9q16 -6 16 -18q0 -18 -31 -100q-23 -61 -45 -121q-33 -74 -76.5 -97.5t-129.5 -68.5q-33 -18 -107 -19q-59 0 -59 29zM129 82q0 -137 96 -137q39 0 79 19.5 t46 51.5q-53 -27 -92 -26q-35 0 -73 25.5t-38 58.5q0 41 32 82t73 41q23 0 56.5 -28t33.5 -50q0 -23 -18.5 -40.5t-40.5 -17.5q-14 0 -15 17q0 18 33 31q-33 43 -55 43q-18 0 -38 -23t-20 -41q0 -25 27 -39t53 -14q33 0 71 27.5t38 58.5q0 35 -36 60.5t-73 25.5 q-59 0 -99 -33t-40 -92z" />
<glyph unicode="-" horiz-adv-x="804" d="M68 668q6 14 6 22t-4 12l10 19q68 -37 131 -37q436 0 485 29q8 6 25 24l12 -8q8 -37 17 -115l-5 -6l-8 2q-49 31 -176 37h-192q-164 0 -236 -22q-16 -16 -45 -43l-4 12q-4 12 -10 10l-2 12q2 2 4 9q0 29 -8 43z" />
<glyph unicode="." horiz-adv-x="382" d="M27 84q0 82 59 131t143 49q53 0 95.5 -37t42.5 -90q0 -49 -48.5 -99t-97.5 -56q25 -10 27 -13q12 -8 14 -26l-14 -17q-14 0 -43 -3t-43 -3q-102 0 -125 21q-10 70 -10 143zM63 84q0 -55 39 -55q10 0 21 12q-23 45 -23 76q0 23 39 65q25 29 78 29q51 0 51 -88 q0 -39 -39 -39q-4 8 -12 14q12 10 12 37q0 35 -20 35t-44 -19.5t-24 -39.5q0 -31 30 -58.5t60 -27.5q27 0 61 38.5t34 65.5q0 41 -32 67.5t-73 26.5q-68 0 -113 -36.5t-45 -102.5z" />
<glyph unicode="/" horiz-adv-x="747" d="M-123 186q72 43 107 70q61 49 327 434q236 342 322 486q35 59 33 145l24 12q57 -27 172 -90l2 -14l-12 -12q-119 -59 -424 -476q-293 -399 -356 -565q-8 -16 -4 -47q6 -43 6 -47l-2 -31q-10 2 -29 8q-16 6 -23 -8l-14 10l-6 17l-43 28l-27 3l-24 34l-19 7z" />
<glyph unicode="0" horiz-adv-x="958" d="M45 719q0 309 84 504q117 276 383 276q223 0 340 -254q88 -192 88 -442q0 -248 -111 -510q-135 -322 -344 -322q-92 0 -135 23q-33 16 -104 88l-2 18q-86 27 -148 279q-51 207 -51 340zM119 739q0 -109 26 -254q33 -178 86 -227q102 86 195 322q53 145 162 436 q89 242 157 303q-100 147 -249 147q-119 0 -199 -61q-88 -68 -88 -182l12 -35h33q8 0 55 18.5t68 18.5q63 0 115.5 -56.5t52.5 -119.5q0 -90 -60 -172q-66 -88 -153 -89q-55 0 -98.5 46.5t-43.5 101.5q0 49 45.5 96t94.5 47q106 0 106 -67q0 -27 -25.5 -62t-50.5 -35 q-23 0 -57 25v18q-2 14 19 15l40 -23l39 60q-4 35 -67 34q-39 0 -74 -32.5t-35 -71.5q0 -43 31 -79t74 -36q78 0 131 76q49 68 49 150q0 53 -43 95t-96 42q-16 -2 -99 -21l-8 -10q-145 -109 -145 -418zM233 410q0 43 39 43q35 0 35 -35q0 -12 -14 -27.5t-27 -15.5 q-33 0 -33 35zM287 172q113 -102 198 -102q143 0 144 77q0 29 -45 48q-72 29 -84 36q-45 33 -45 99q0 63 56 127.5t120 64.5q35 0 66.5 -33.5t31.5 -68.5q0 -123 -111 -123q-25 0 -45 21.5t-20 46.5q0 33 25 32l12 -2l-2 -12q-8 -47 41 -47q66 0 65 82q0 23 -21.5 44 t-43.5 21q-49 0 -91 -52t-42 -103q0 -98 125 -99q106 0 188 275q65 221 65 375q0 229 -75 348q-47 -14 -129 -223q-63 -164 -150 -361q-84 -154 -233 -471zM299 563q0 39 49 39q33 0 33 -29q0 -16 -16.5 -33.5t-32.5 -17.5q-10 0 -21.5 15.5t-11.5 25.5zM381 717q0 41 41 41 q8 0 19.5 -10.5t11.5 -18.5q0 -41 -39 -41q-33 0 -33 29zM569 653q0 16 14.5 30.5t30.5 14.5q33 1 33 -30q0 -16 -14.5 -31.5t-30.5 -15.5q-33 0 -33 32zM651 844q0 39 39 39q35 0 35 -31q0 -39 -41 -39q-33 0 -33 31zM721 1022q0 10 16.5 23.5t26.5 13.5q41 0 41 -29 q0 -12 -14.5 -28.5t-26.5 -16.5t-27.5 13.5t-15.5 23.5z" />
<glyph unicode="1" horiz-adv-x="811" d="M59 1176q131 23 191 200q-14 37 -19 58l322 24q20 2 65 -16v-19q-123 -47 -145 -110q-10 -29 -10 -195q0 -102 2 -186l4 -189q0 -2 -4 -116q-6 -121 -6 -133q0 -373 151 -383q0 -6 8 -5q8 2 11 7q12 -8 26 -9q37 0 77 42t40 79q0 41 -29.5 72t-70.5 31t-71 -32t-30 -73 q0 -23 62 -53l49 41q0 23 -35 18v27l21 8l45 -41q0 -29 -25.5 -58.5t-54.5 -29.5q-31 0 -61.5 22.5t-30.5 51.5q0 53 41 103t92 50q53 0 91 -39t38 -92q0 -78 -78 -125q-18 -10 -129 -71q-41 4 -112.5 -2t-104.5 -6q-49 0 -125 8q-98 10 -113 28l11 17q94 43 116 55 q61 35 103 78q25 117 24 213q0 59 2 179t2 179q0 446 -49 541q-39 0 -133 -115l-123 -153h-18q-6 43 -17 119zM553 1315q0 31 45 31q33 0 33 -33q0 -16 -12.5 -37t-26.5 -21t-26.5 21.5t-12.5 38.5zM557 1118q0 47 33 47q28 0 28 -39q0 -14 -12 -32.5t-24 -18.5 q-25 0 -25 43zM563 932q0 49 33 49q31 0 31 -35q0 -18 -15 -33q-20 -23 -22 -26q-2 2 -21 12q-6 41 -6 33z" />
<glyph unicode="2" horiz-adv-x="866" d="M37 51l4 6l4 27q193 242 387 561q248 406 248 565q0 139 -168 140q-92 0 -190 -47q-121 -57 -121 -140q0 -39 61 -39q6 0 14 2l19 -10v-12q-113 -76 -137 -76q-12 0 -21.5 23.5t-9.5 38.5q0 270 399 311l11 6q113 -41 163 -94q63 -66 64 -174q0 -80 -96 -226l-148 -217 q0 -12 -104 -194v-23l55 2q76 2 134.5 -51t58.5 -127q0 -152 -146 -151q-154 0 -153 110q0 100 84 100q55 0 112 -38v-9q0 -57 -41 -73l-18 22l4 25h20l4 12q0 8 -33.5 17.5t-47.5 9.5q-55 0 -56 -64q0 -78 127 -78q111 0 111 115q0 63 -51.5 103t-116.5 40q-94 0 -148 -51 q-31 -31 -60.5 -110.5t-49.5 -104.5q12 -63 43 -63q6 0 17 2t18 2q20 0 34 -10l29 8q14 -16 213 -17q123 0 252 125l25 -16q-8 -27 -9 -141l-8 -29q-20 14 -57 14q-25 0 -55 -6l22 -8q-322 -2 -692 12zM326 1237q0 10 16 25.5t27 15.5q20 0 20 -23q0 -39 -39 -38 q-25 0 -24 20zM455 1270q0 8 28 37h41q6 -13 6 -19q0 -41 -28 -41q-47 0 -47 23zM545 1010q0 41 28 41q20 0 23.5 -6.5t3.5 -10.5q0 -41 -41 -53q-14 14 -14 29zM565 1178q0 12 19.5 27.5t31.5 15.5q23 0 23 -23q0 -45 -49 -45q-25 0 -25 25zM772 41v6l27 -4v-6z" />
<glyph unicode="3" horiz-adv-x="813" d="M45 291q0 74 61.5 130t137.5 56q78 0 137 -39q68 -43 68 -119t-45.5 -121.5t-120.5 -45.5q-39 0 -82 34.5t-43 71.5q0 39 24.5 65.5t61.5 26.5q63 0 63 -47l-18 -14q-4 0 -16.5 11t-28.5 11q-49 0 -49 -55q0 -66 94 -66q125 0 125 136q0 55 -58 86q-49 25 -108 24 q-72 0 -120 -46t-48 -118q0 -98 102 -151q80 -41 189 -41q102 0 196 145q84 133 84 244q0 262 -286 262q-10 0 -50.5 16.5t-46.5 22.5l4 27q16 2 48 -4.5t45 -6.5q129 0 235.5 89.5t106.5 216.5q0 258 -254 258q-80 0 -136 -29q-74 -37 -73 -109q0 -51 47 -88v-18l-19 -14 l-28 6q-8 0 -28.5 -4t-31.5 -2q-10 8 -21 35.5t-11 41.5q0 80 73.5 154t155.5 74q219 0 289 -37q110 -59 110 -260q0 -102 -62.5 -197.5t-156.5 -134.5q188 -106 189 -309q0 -289 -279 -406q-51 -14 -100 -30l-21 8l-8 -8q-297 18 -297 268zM424 885q0 27 27 26h10 q20 0 31 -10v-12q0 -8 -14.5 -24.5t-20.5 -16.5q-33 0 -33 37zM510 1262q0 12 16.5 28.5t28.5 16.5t23.5 -13.5t11.5 -25.5q0 -37 -47 -37q-33 0 -33 31zM551 958q0 47 37 48q4 0 13 -3.5t15 -3.5l2 -4q3 -4 3 -8q0 -12 -16.5 -34.5t-29.5 -22.5q-25 0 -24 28zM582 1106v2 q0 49 51 49q22 1 22 -22q0 -16 -13 -34t-28 -18q-2 4 -32 23z" />
<glyph unicode="4" horiz-adv-x="1232" d="M55 1210q0 88 80 138q68 41 160 41l76 -11l12 -6q2 2 2 6l39 2l10 -8q10 8 29 8q18 0 41 -8q-31 -88 -35 -127v-127q0 -55 -30.5 -160.5t-30.5 -158.5q0 -66 165 -66q23 0 67 3t67 3l22 11q-4 86 6 223q12 164 13 221q0 80 -39 143l14 23q78 12 94 12q184 0 238 -10 q155 -30 155 -141q0 -63 -50 -110.5t-113 -47.5q-39 0 -89 22q-57 27 -57 60q0 102 100 102l48 -10l36 -41l-43 -35l-12 4l8 31q-12 20 -37 21q-66 0 -65 -56q0 -31 39 -49q31 -14 67 -14q129 0 129 119q0 55 -48 85.5t-107 30.5q-205 0 -205 -450q0 -45 78 -152 q0 -18 -26.5 -25.5t-31.5 -23.5q-18 -78 -22 -172q-2 -43 0 -188l2 -181q0 -88 70 -104l8 -12v-25l-64 -16q-16 2 -96 6q-53 2 -94 -6l-29 20q127 131 127 658l-6 43q-31 4 -121 4q-113 0 -317 -7l-23 15q6 20 88 184q57 115 58 256q0 197 -125 197q-70 0 -127 -29 q-74 -37 -74 -98q0 -41 23 -66l88 -31q86 0 86 89q0 63 -62 63q-63 0 -63 -55l43 -35l24 20h15q-8 -51 -50 -51q-14 0 -41.5 22.5t-27.5 37.5q0 39 34.5 67.5t73.5 28.5q37 0 62.5 -25.5t25.5 -62.5q0 -57 -39.5 -94t-97.5 -37q-51 0 -88 30.5t-37 81.5zM561 96q0 29 23 29 q26 0 26 -23q0 -41 -26 -41q-23 0 -23 35zM596 186q0 59 39 60q18 0 18 -33q0 -12 -20 -45q-2 0 -8.5 -2t-10.5 -2q-18 0 -18 22zM614 328q0 35 33 34q23 1 23 -24q0 -10 -10.5 -25.5t-18.5 -15.5q-27 0 -27 31zM623 451q0 8 15 18t24 10q16 0 16 -20q0 -45 -29 -45 q-27 0 -26 37z" />
<glyph unicode="5" horiz-adv-x="942" d="M20 371q0 111 123 200q115 82 230 82q113 0 196 -63q92 -68 93 -176q0 -86 -61.5 -166t-145.5 -80q-78 0 -154 53q-82 59 -82 133q0 47 64 86q57 37 106 37q78 0 78 -71l-10 -19h-13q-6 20 -20 45l-35 8q-59 0 -121 -57l-12 -43q0 -59 68 -102q59 -39 120 -39 q72 0 131.5 73.5t59.5 145.5q0 96 -84 149q-70 45 -172 45q-117 0 -215 -73q-109 -80 -109 -193q0 -141 104.5 -232t246.5 -91q223 0 337 133q106 125 107 352q0 156 -131 254q-119 90 -281 90q-115 0 -194 -51l-25 26q47 217 47 297q0 170 -84 183l-8 16q0 27 25 27l655 -9 l35 -24q-2 -8 -17 -82q-10 -51 -8 -84l-12 -21h-16q-55 121 -449 121q-41 0 -41 -57q0 -29 8 -111q8 -70 4 -110q8 -6 179 -35q164 -29 243 -96q121 -103 121 -314q0 -238 -121 -383q-131 -154 -364 -153q-166 0 -281 107.5t-115 271.5zM94 963q0 14 16.5 28.5t32.5 14.5 q10 0 20.5 -15.5t10.5 -27.5t-15.5 -26.5t-27.5 -14.5q-8 0 -22.5 16t-14.5 25zM106 1219q0 37 41 36q16 0 25 -8v-39q-20 -20 -37 -20q-29 0 -29 31zM115 1087q0 39 45 39q28 1 28 -28q0 -10 -16 -26.5t-27 -16.5q-31 0 -30 32z" />
<glyph unicode="6" horiz-adv-x="960" d="M35 715q0 18 17.5 32.5t35.5 14.5q25 0 25 -33q0 -16 -15.5 -40.5t-29.5 -24.5q-10 0 -21.5 19t-11.5 32zM55 846v16q18 53 58 53q10 0 26 -16q2 -4 2 -8q0 -20 -17.5 -41t-35.5 -21q-16 0 -33 17zM100 395q0 334 119 592q154 334 449 334q88 0 163 -59q84 -64 80 -150 l-30 -10l-35 20q-16 0 -59.5 -32.5t-57.5 -34.5l-16 20q27 43 26 64q0 70 -125 69q-182 0 -342 -297q-139 -260 -139 -462q0 -168 80 -281q92 -127 254 -127q131 0 227 115q92 109 92 241q0 111 -84 166q-70 47 -186 47q-86 0 -154 -45l-12 4q-43 0 -78 -98 q-27 -78 -26 -131q0 -80 53 -126t135 -46q72 0 147.5 59.5t75.5 128.5q0 61 -25.5 81t-86.5 20q-137 0 -137 -84q0 -53 57 -54q51 0 51 31q0 8 -2 25.5t-2 25.5h27l16 -43l-25 -57q-23 -6 -69 -20l-15 6q-27 -8 -51 20.5t-24 57.5q0 47 35 79q12 8 77 48h125q35 0 60 -50 q20 -41 20 -82q0 -92 -85 -162.5t-177 -70.5q-90 0 -150.5 56.5t-60.5 146.5q0 158 94 248t252 90q137 0 236 -78q106 -84 106 -217q0 -172 -110 -277q-82 -78 -265 -145q-29 14 -110 31q-74 14 -105 34q-111 76 -162 163t-51 216zM121 1006q0 16 21.5 32.5t39.5 16.5 q29 -1 29 -21q0 -14 -25.5 -35.5t-40.5 -21.5q-25 0 -24 29z" />
<glyph unicode="7" horiz-adv-x="1122" d="M18 55v37l197 371q209 395 279 461q119 111 421 401v10q-78 23 -243 23q-399 0 -522 -139l-29 -11q2 84 -17 187q10 14 91 20l14 -12q31 23 190 20l723 -12l4 -12q-29 -31 -391 -359q-233 -211 -352 -381q-162 -231 -199 -491q12 -16 11 -84q37 -18 98 -18q51 0 96 24 q53 29 53 76q0 25 -26.5 58.5t-50.5 33.5l-64 -33l-12 -24l22 -31l29 43h14l17 -35l-56 -47l-65 59q0 41 38 72t81 31q41 0 75 -47q27 -39 37 -86q-41 -84 -81 -108.5t-134 -24.5q-35 0 -119 10q-76 8 -122 12zM313 430q0 16 17.5 32.5t34.5 16.5q22 0 22 -37q0 -53 -39 -53 q-35 0 -35 41zM399 604q0 12 15.5 30.5t27.5 18.5q39 1 39 -24q0 -16 -19.5 -38t-35.5 -22q-27 0 -27 35zM530 778q0 25 20.5 43.5t45.5 18.5q22 0 22 -25q0 -20 -19 -40.5t-40 -20.5q-10 0 -27 16q-2 4 -2 8zM696 967q0 20 22.5 36.5t43.5 16.5q16 0 16 -23q0 -63 -49 -63 q-10 0 -21.5 11t-11.5 22zM856 1128q0 14 25.5 27.5t42.5 13.5q10 0 26 -6q4 -2 4 -12q0 -20 -19.5 -36.5t-39.5 -16.5q-39 0 -39 30z" />
<glyph unicode="8" horiz-adv-x="976" d="M43 434q0 315 322 520q-90 68 -91 174q0 127 89.5 209t218.5 82q96 0 158.5 -70.5t62.5 -168.5q0 -141 -166 -236q152 -33 231 -176q68 -121 68 -291q0 -442 -475 -442q-37 0 -101 12q-72 14 -100 16q-41 20 -51 54q-76 12 -125 129q-41 98 -41 188zM113 477 q0 -137 49 -213q43 -68 168 -141q66 -39 116 -39q29 0 122.5 21.5t99.5 33.5q66 4 129 90t63 156q0 127 -93 220t-218 93q-111 0 -180 -53q-76 -61 -76 -168q0 -39 38 -80t77 -39l16 -14q10 0 28.5 -2t28.5 -2q133 0 133 133q0 74 -79 74l-48 -12l-18 18q0 33 63 33 q109 0 109 -123q0 -160 -168 -160q-72 0 -106 25l-15 -4q-41 0 -80 61q-37 55 -36 98q0 115 88 199t204 84q80 0 148 -33q49 -25 104 -49l15 4v14q0 213 -377 213q-23 0 -131 -81q-72 -53 -123 -160t-51 -197zM236 66v4l14 -4l-2 -7zM340 1174q0 -53 50 -93.5t106 -40.5 q51 0 95 45t44 97q0 88 -80 88q-74 0 -74 -64q0 -37 41 -37q14 0 22.5 21.5t22.5 21.5q16 0 17 -16q0 -25 -19.5 -43t-44.5 -18q-72 0 -71 43q0 129 122 129q98 0 99 -129q0 -55 -49 -101q-29 -25 -84 -73v-15q43 -20 47 -20q72 0 128 65t56 137q0 41 -20.5 97.5t-49.5 74.5 q-66 41 -102 41q-4 0 -6 -4t-6 -4q-6 0 -17.5 4t-17.5 4q-63 0 -136 -73.5t-73 -136.5zM731 969q0 25 35 24q17 0 37 -14q-10 -33 -49 -33q-23 0 -23 23zM782 1352v4q39 25 45 24q21 1 23 -28q-23 -35 -37 -37h-2h-4q-25 0 -25 37zM803 1059q0 14 11 32.5t24 18.5 q22 0 22 -25q0 -16 -24 -45h-29q0 2 -2 8.5t-2 10.5zM829 1196q0 51 31 51q29 1 29 -24q0 -12 -14.5 -28.5t-24.5 -16.5q-20 0 -21 18z" />
<glyph unicode="9" horiz-adv-x="1110" d="M74 895q0 287 225 395q154 74 471 74h121q90 0 143 -52.5t53 -142.5q0 -55 -43 -105t-96 -48l-51 2q-88 61 -88 121q0 51 33 98l49 18q39 0 81 -21.5t42 -55.5q0 -29 -23.5 -54.5t-52.5 -25.5l-43 16v23l23 16l30 -14q29 0 29 28q0 49 -82 50q-51 0 -51 -66 q0 -37 30.5 -72t67.5 -35q45 0 78 39t33 86q0 68 -46 114t-114 46q-133 0 -133 -385q0 -68 4 -149l4 -80l2 -355q2 -213 59 -364l-14 -8q-98 4 -143 -8l-27 20q68 123 68 477q0 72 -8 137q-113 -98 -250 -98q-381 0 -381 379zM113 903q0 -180 96 -272l10 -4q61 -57 180 -58 q31 0 95 19q72 18 79 39q55 16 93.5 68.5t38.5 109.5q0 20 -3.5 63t-3.5 64q0 41 -94 88q-86 43 -135 43q-80 0 -145 -45q-74 -49 -74 -125q0 -47 39 -89t86 -42q150 0 149 102q0 78 -73 78q-68 0 -68 -49q0 -12 15.5 -21.5t27.5 -7.5h18l23 27q10 -10 10 -19q0 -41 -53 -41 q-72 0 -72 72q0 27 34 52.5t63 25.5q106 0 106 -121q0 -129 -174 -129q-66 0 -114 44t-48 110q0 92 82 155q76 61 170 62q59 0 133 -39l21 12l16 -4q47 0 47 57q0 76 -90 119q-72 35 -158 35q-29 0 -71 -22q-256 -133 -256 -357zM813 549q0 49 41 49q27 0 27 -41 q0 -49 -39 -49q-29 0 -29 41zM825 367q0 20 17.5 37.5t19.5 21.5q37 -6 37 -43q0 -51 -43 -51q-31 0 -31 35zM838 152q0 47 32 47q10 0 23.5 -17.5t13.5 -27.5q0 -12 -11 -26.5t-24 -14.5q-35 0 -34 39zM1112 -12h10v-6h-10v6z" />
<glyph unicode=":" horiz-adv-x="382" d="M27 84q0 82 59 131t143 49q53 0 95.5 -37t42.5 -90q0 -49 -48.5 -99t-97.5 -56q25 -10 27 -13q12 -8 14 -26l-14 -17q-14 0 -43 -3t-43 -3q-102 0 -125 21q-10 70 -10 143zM29 772q0 82 59 131t143 49q55 0 96.5 -37t41.5 -90q0 -49 -47.5 -100t-96.5 -57l25 -13 q12 -6 16 -26l-16 -15q-14 0 -43 -3t-43 -3q-102 0 -123 19q-12 72 -12 145zM63 84q0 -55 39 -55q10 0 21 12q-23 45 -23 76q0 23 39 65q25 29 78 29q51 0 51 -88q0 -39 -39 -39q-4 8 -12 14q12 10 12 37q0 35 -20 35t-44 -19.5t-24 -39.5q0 -31 30 -58.5t60 -27.5 q27 0 61 38.5t34 65.5q0 41 -32 67.5t-73 26.5q-68 0 -113 -36.5t-45 -102.5zM66 772q0 -55 38 -55q10 0 21 10q-23 47 -23 78q0 20 41 65q25 27 76 27t51 -86q0 -39 -37 -41q-6 10 -14 16q12 10 12 35q0 37 -20 37t-44 -19.5t-24 -39.5q0 -31 30 -58.5t60 -27.5 q27 0 62 38.5t35 65.5q0 39 -32 66.5t-73 27.5q-66 0 -112.5 -37.5t-46.5 -101.5z" />
<glyph unicode=";" horiz-adv-x="382" d="M-86 -260q0 18 53 33q23 6 70 16q74 31 121 129q-6 18 -90 35q-51 96 -52 149q0 86 49.5 135.5t135.5 49.5q143 0 143 -144v-8q18 -6 18 -18q0 -4 -71 -209q-25 -68 -98 -111q-68 -31 -138 -63q-43 -20 -96 -21q-45 0 -45 27zM33 805q0 82 59.5 131t143.5 49q55 0 96 -37 t41 -90q0 -49 -47 -100t-97 -58l25 -12q12 -6 16 -26l-16 -15q-14 0 -43 -3t-43 -3q-102 0 -123 18q-12 72 -12 146zM57 117q0 -137 99 -137q37 0 73 18q45 23 50 53q-53 -27 -93 -26q-35 0 -72.5 25.5t-37.5 58.5q0 41 32.5 81.5t71.5 40.5q25 0 57.5 -26.5t32.5 -50.5 q0 -23 -17 -40.5t-40 -17.5q-14 0 -14 17q0 18 30 30q-33 43 -53 43q-18 0 -38.5 -22.5t-20.5 -40.5q0 -25 30 -41q25 -12 52 -12q33 0 70.5 27.5t37.5 58.5q0 35 -35.5 60.5t-72.5 25.5q-59 0 -100.5 -34t-41.5 -91zM70 805q0 -55 39 -55q10 0 20 10q-23 47 -23 78 q0 20 41 65q25 27 76 27t51 -86q0 -39 -36 -41q-6 10 -15 16q12 10 13 35q0 37 -21 37q-20 0 -44 -19.5t-24 -40.5q0 -31 30 -58.5t61 -27.5q27 0 61.5 39t34.5 66q0 39 -32 66.5t-73 27.5q-66 0 -112.5 -38t-46.5 -101z" />
<glyph unicode="&#x3c;" horiz-adv-x="686" d="M20 651q57 8 91 25q-18 12 -58 8l-4 14q23 33 70 101l8 2l4 -8q8 -31 13.5 -42.5t25.5 -31.5q72 57 211 172q156 131 162 188l14 2q31 -27 88 -86v-8h-24q-27 0 -211 -135q-172 -127 -209 -164q74 -86 182 -186q133 -123 203 -154q23 2 51 2l16 -2q-6 -8 -8 -14 q-4 -10 2 -15l-8 -8l-8 -4q-27 -23 -25 -39q-27 -12 -28 -26l-21 -6q-25 74 -178 219q-121 115 -223 188q-27 -37 -29 -51q-4 -25 -10 -53q-4 6 -13 10q-8 6 -14 0l-8 8l-2 10q-18 29 -35 31q-8 27 -20 31z" />
<glyph unicode="=" horiz-adv-x="878" d="M115 801q4 14 4 24q0 6 -2 13l10 16q66 -37 131 -37q436 0 483 29q10 6 27 24l12 -8q6 -37 17 -114l-4 -7l-9 2q-49 31 -178 37h-190q-164 0 -236 -22q-16 -16 -47 -43l-2 12q-4 12 -12 10v13q2 2 4 8q0 29 -8 43zM123 569q4 14 4 25q0 6 -2 12l10 17q66 -37 131 -37 q436 0 484 28q10 6 26 25l12 -8q6 -37 17 -115l-4 -6l-8 2q-49 31 -179 37h-190q-164 0 -236 -23q-16 -16 -47 -43l-2 13q-4 12 -12 10v12q2 2 4 8q0 29 -8 43z" />
<glyph unicode="&#x3e;" horiz-adv-x="626" d="M-23 348h68q35 0 197 152q133 123 188 188q-63 61 -213 170q-174 127 -223 127l-8 2v8q31 29 88 86l14 -2q6 -57 162 -188q47 -41 211 -172q27 27 39 74l4 8l8 -2q23 -35 70 -101l-4 -14q-39 4 -58 -8q33 -17 90 -25l-4 -22q-12 -4 -20 -31q-16 -2 -35 -31l-2 -10l-8 -8 q-2 4 -6 4q10 0 -21 -14q-6 29 -10 53q-2 14 -29 51q-102 -74 -223 -188q-154 -145 -178 -219l-21 6q-2 14 -28 26q2 16 -25 39l-8 4l-8 8q6 4 2 15q-2 6 -9 14z" />
<glyph unicode="?" horiz-adv-x="845" d="M27 1251q0 127 61 209q25 31 156 150l53 10q33 39 190 39q156 0 245 -95t89 -253q0 -195 -116 -305q-33 -31 -216 -183q-117 -117 -116 -293q0 -104 10 -213q8 2 10 -8q-4 -4 -6 -8q0 -29 57 -113v-12q-18 -12 -196 -12l-41 12v19q53 16 53 61q0 10 -2 28.5t-2 28.5 q0 66 8 197t8 197q0 119 -18 145v22q31 16 192 66q143 43 211 104q100 92 101 254q0 117 -68 211q-76 102 -188 103h-117l-4 -6q-143 -29 -234 -115q-98 -96 -98 -236q0 -137 223 -176q78 37 93 51q37 35 36 101q0 106 -104 106q-41 0 -87 -29.5t-46 -68.5q0 -35 23.5 -56.5 t58.5 -21.5q74 0 82 86l18 8l16 -34q-43 -98 -129 -99q-43 0 -72.5 36t-29.5 79q0 49 56.5 94t107.5 45q66 0 103.5 -38t37.5 -103q0 -63 -52 -127t-116 -64q-96 0 -166 56q-76 59 -75 151zM246 -31q0 53 47 88q41 31 96 31h94q4 -4 4 -16q0 -14 -13 -68.5t-19 -62.5 q-35 -51 -93 -62q0 -4 -10 -6q-4 0 -10 3t-8 3q-88 10 -88 90zM276 -25q0 -27 23 -45t49 -18q39 0 65.5 29.5t28.5 68.5q-4 -2 -10 -2q-12 0 -22 6q4 -8 4 -16q0 -23 -24.5 -42t-47.5 -19q-45 0 -45 49q0 25 27 51q-18 -2 -33 -22.5t-15 -39.5zM324 -2v-14q23 -12 22 -13 q6 1 33 17v4q0 12 -11.5 28.5t-23.5 16.5q8 -16 6 -21q-8 -4 -26 -18zM328 37h14v6h-14v-6z" />
<glyph unicode="@" horiz-adv-x="1271" d="M14 817q0 244 123 395q53 66 303 258l23 -24l149 8q315 0 486 -203q159 -188 159 -510q0 -49 -24 -108q-29 -74 -33 -98q-39 -201 -215 -299q-119 -66 -369 -107l-4 -10l-53 4l12 4q-160 25 -170 23q-227 119 -309 266q-78 137 -78 401zM123 809q0 -154 55 -322 q74 -223 199 -227q80 -66 254 -65q176 0 295 100l-31 2l-21 -10q-18 8 -36 8t-37 -6l-23 14q29 27 37 68q2 4 8 78q-20 -8 -383 -9q-41 0 -116 19l-86 69q-74 76 -74 234q0 154 88 299q100 166 246 166q47 0 140 -6.5t140 -6.5l4 -18q-41 -25 -94 -70q-12 -25 -10 -84 l4 -110q49 -2 98 -2q76 0 76 26q0 41 -12 127q-14 94 -27 121q14 12 107 17l14 -13q-37 -41 -37 -274h160q63 0 57 59l-51 21l-2 14l35 27q39 -10 57 -21q-45 186 -201 285q-141 90 -344 90q-223 0 -362 -195q-127 -174 -127 -405zM201 733q0 -111 66.5 -183.5t176.5 -72.5 q123 0 162 78q29 55 25 188l-2 72q-20 18 -21 37q0 39 19 51q0 90 -21 170q-31 117 -90 117q-27 0 -76 -11.5t-65 -23.5q-74 -55 -125 -192q-49 -127 -49 -230zM510 666q0 6 31 41h20l10 -37q0 -29 -22 -29q-39 0 -39 25zM514 1016l23 28h28q0 -4 5 -12t5 -12q0 -35 -34 -35 q-8 0 -17.5 11.5t-9.5 19.5zM528 856q0 31 35 31q21 0 21 -25q0 -39 -31 -39q-25 0 -25 33zM684 887l6 -125q10 -8 10 -14q0 -16 -3 -49t-3 -50q0 -66 11 -84q49 -90 104 -90q6 0 18 2q2 29 2 33v43q-25 0 -51 15.5t-26 37.5q0 33 28.5 66t61.5 43l12 131v51q-59 10 -104 10 t-66 -20zM786 614q0 -33 41 -32h4l9 96q-53 -23 -54 -64zM887 426q-2 -59 14 -74q35 -31 41 -41q94 90 165 243t71 280v98q0 8 -4 26q-25 -51 -127 -61h-152v-186q45 -12 59.5 -26.5t28.5 -59.5l-6 -21q-16 -57 -21 -67q-20 -43 -67 -64zM891 514q41 31 55 88q-16 8 -16 23 q0 12 14 22q-14 18 -49 31v-41q12 -8 12 -31q0 -18 -12 -31zM930 821q0 23 24 23q21 -1 21 -17q0 -6 -11.5 -17t-17.5 -11q4 0 -6 10t-10 12zM936 735q0 29 22 29q19 0 19 -23q0 -27 -25 -26q-16 0 -16 20z" />
<glyph unicode="A" d="M78 127q0 186 137 186q94 0 94 -104q0 -33 -21.5 -57.5t-54.5 -24.5q-20 0 -50.5 21.5t-30.5 41.5q0 43 71 74l31 -31q-66 -2 -64 -45l46 -20l38 35l-32 69l-37 4q-90 0 -90 -114q0 -113 106 -113q98 0 207 295q20 55 133 393q-18 0 -57 -5t-58 -5q-155 0 -155 202 q0 99 143 173q45 0 90 -35t45 -78q0 -47 -33.5 -88t-80.5 -41q-86 0 -86 96l39 66l47 25q33 -10 49 -48l2 -22l-14 -49h-39l-7 12l19 33l-16 24l-43 -51q0 -39 55 -45l61 39l10 37q0 27 -35.5 55.5t-64.5 28.5q-43 0 -78 -57q-31 -49 -30 -97q0 -53 31.5 -96t84.5 -43 q51 0 129 20q68 121 150 445q78 305 160 434l39 12q203 -401 202 -710l8 -8q131 49 222 49q59 0 119.5 -41t60.5 -99q0 -63 -56.5 -109t-121.5 -46q-74 0 -105 24q-37 51 -45 82l84 105l47 6q96 0 97 -70q0 -35 -44 -65h-30l-60 37l17 26h14l35 -22l27 10v18l-62 25 q-14 0 -47 -30t-33 -44q0 -61 101 -61q53 0 99 29.5t46 78.5q0 43 -68 74q-55 27 -104 27t-197 -54l105 -807l39 -36l8 -29l100 -31q82 0 123 68q35 57 35 143q0 127 -121 127q-57 0 -100 -27q-47 -33 -47 -88q0 -41 26.5 -76.5t65.5 -35.5q76 0 76 78l-13 34h-39l-24 -30 l-21 20l54 55h4q75 0 75 -75q0 -49 -31.5 -88t-76.5 -39q-43 0 -88 48t-45 91q0 82 51 126t133 44q158 0 158 -162q0 -109 -66 -186q-68 -84 -174 -84h-239l-64 18v15q59 63 59 147q0 43 -9 129t-9 129q0 80 -31 240q-18 96 -45 241q-115 -37 -342 -106q-45 -119 -112 -354 q-80 -276 -80 -342q0 -14 26 -50l17 9l41 -29q25 -20 30 -39l-4 -16l-26 -6q-39 6 -193 16q-111 6 -188 31q-84 96 -84 143zM506 160q0 49 47 49q35 0 35 -47q0 -53 -33 -53q-12 0 -30.5 19t-18.5 32zM569 328q0 16 12.5 35.5t28.5 19.5q27 0 27 -45q0 -43 -39 -43 q-29 0 -29 33zM618 492q0 18 14.5 38.5t33.5 20.5q8 0 17 -17.5t9 -25.5q0 -16 -12 -42t-29 -26q-12 0 -22.5 18.5t-10.5 33.5zM655 670q0 12 12.5 30.5t24.5 18.5q31 0 31 -43q0 -12 -11.5 -29.5t-23.5 -17.5q-33 0 -33 41zM688 883q0 -25 4 -37h25q29 0 96 45 q59 14 170 57v15q0 117 -80 454l-18 10q-61 -74 -129 -261t-68 -283z" />
<glyph unicode="B" horiz-adv-x="1335" d="M29 1260q0 236 331 262q137 10 144 16q43 -14 266 -27q199 -10 291 -73q137 -92 137 -326q0 -154 -168 -256l2 -4q119 -2 201 -162q70 -135 70 -262q0 -205 -134 -360q-141 -164 -342 -164q-84 0 -248.5 11t-248.5 11q-51 0 -160 58q-115 61 -115 112q0 72 48.5 133.5 t117.5 61.5q63 0 108.5 -43t45.5 -107q0 -39 -34 -67.5t-73 -28.5q-41 0 -69.5 26.5t-28.5 67.5q0 33 59 58l54 -35l-23 -21l-29 9l-24 -19q0 -29 61 -45q66 23 66 64q0 96 -113 96q-55 0 -90 -42t-35 -100q0 -55 68 -81q57 -16 112 -31l60 14q61 14 100 346q29 244 29 414 q0 41 -94 76v16q66 55 86 84q32 44 32 107q0 36 -3 100q-3 63 -3 96q0 143 -24 217q-25 31 -90 31q-109 0 -199 -55q-104 -63 -104 -166q0 -70 63 -111q55 -37 127 -37q164 0 164 146q0 131 -139 131h-50q-16 -10 -49 -33q-45 -33 -45 -92q0 -88 144 -88q67 0 67 46 q0 38 -23.5 63.5t-58.5 25.5q-55 0 -55 -47q0 -31 47 -39l27 31h16q-25 -61 -53 -62q-74 0 -74 60q0 39 27.5 66.5t66.5 27.5q57 0 84 -31q14 -16 37 -88q-33 -90 -139 -90q-51 0 -98 27q-55 31 -56 77q0 90 60 138q53 45 145 45q57 0 105 -33q55 -37 55 -90 q0 -231 -228 -232q-70 0 -137 54.5t-67 122.5zM520 231q-2 -20 -2 -39q0 -113 64 -153q53 -35 209 -35q115 0 194 51q90 59 90 170q0 94 -53 170q-61 82 -152 82q-72 0 -120 -49t-48 -121q0 -110 138 -110h2q37 0 62.5 29.5t25.5 66.5q0 20 -56 65l23 25q23 -16 64 -49 l6 -37q0 -55 -36 -98t-89 -43h1q0 1 -98 14q-76 70 -75 127q0 92 56 156.5t146 64.5q109 0 164 -72q14 -20 70 -137q33 -71 79 -71h1q43 0 61 79q15 54 15 115q0 121 -54 221q-59 113 -161 156q-29 12 -125 12q-47 0 -143.5 -6t-143.5 -6q-41 0 -68 14zM565 1147 q0 -141 6 -170q23 -100 109 -103l84 -2h5q183 0 183 279q0 160 -102 160q-176 0 -176 -142q0 -100 100 -100q70 0 70 53q0 51 -56 52l-18 8v20q27 16 37 17q20 0 37.5 -19.5t34.5 -38.5v-31q0 -98 -107 -98q-129 0 -129 123q0 193 207 193q90 0 117 -74l20 -135 q12 -74 70 -74q25 0 45 72q14 53 14 94q0 6 -22 55q-2 20 -17 55q-31 45 -92 89q-70 49 -117 49q-158 0 -186 -11q-66 -25 -94 -145q-23 -94 -23 -176zM569 399q0 18 35 56h14q25 -48 25 -62q0 -12 -10 -27.5t-23 -15.5q-41 0 -41 49zM588 561q0 39 28 39q14 0 30 -15.5 t16 -29.5q0 -41 -35 -41q-39 0 -39 47zM588 702q0 12 15 31t26 19q10 0 21.5 -14.5t11.5 -24.5q0 -14 -13.5 -31.5t-25.5 -17.5t-23.5 13t-11.5 25z" />
<glyph unicode="C" horiz-adv-x="1163" d="M18 762l7 22q57 31 145 248q102 256 186 361q145 184 375 184q96 0 215 -74q131 -82 131 -172l-24 -33q-39 12 -70 13q-37 -4 -72 -6l-6 18l21 51q0 43 -37 72t-82 29q-104 0 -197 -74q-73 -58 -73 -135q0 -51 38.5 -87t88.5 -36q49 0 83.5 31.5t34.5 80.5q0 82 -61 82 q-51 0 -51 -67l12 -31h12l31 21l12 -25q0 -14 -22.5 -31.5t-38.5 -17.5q-14 0 -30.5 30.5t-16.5 47.5q0 47 28.5 84.5t73.5 37.5q35 0 65.5 -39.5t30.5 -76.5q0 -61 -51 -116.5t-112 -55.5q-59 0 -113 43q-59 45 -59 102q0 49 32 103q39 63 45 90l-16 30q-145 -51 -244 -305 q-82 -213 -82 -399q0 -47 -2 -53q33 -193 47 -254q33 -135 97 -244l24 -8l27 18q31 285 233 285q90 0 161 -84t71 -174q0 -63 -46 -120.5t-108 -57.5q-61 0 -106 54t-45 118q0 123 106 123l49 -9q16 -25 33 -71l-23 -39l-16 6v12q0 55 -43 55q-68 0 -68 -79q0 -45 32 -85 t75 -40q47 0 84 43t37 90q0 66 -64.5 139.5t-130.5 73.5q-74 0 -120 -54.5t-46 -130.5q0 -284 222 -284h2q61 0 98 24l12 -4q70 0 139 125q61 111 62 191q0 43 -68 43h-6l-20 26l26 35q12 -8 39 -8q19 0 71 7q40 5 66 5h13l12 -20q-37 -207 -164 -350q-143 -162 -340 -162 q-240 0 -391 229q-135 203 -135 457q0 76 -98 153zM254 793q0 61 41 61q43 0 43 -39q0 -20 -16.5 -42.5t-34.5 -22.5q-33 0 -33 43zM274 604q0 49 41 49q43 0 43 -47q0 -16 -14 -33.5t-31 -17.5q-39 0 -39 49zM298 1006.5q13 17.5 30 17.5q10 0 22 -14.5t12 -24.5 q0 -14 -14 -33.5t-29 -19.5q-34 0 -34 39q0 18 13 35.5zM313 436q0 41 45 41q14 0 26.5 -21.5t12.5 -37.5q0 -35 -35 -35q-18 0 -33.5 17.5t-15.5 35.5zM334 1137q0 20 19.5 44.5t39.5 24.5q6 0 17.5 -10t11.5 -16q0 -27 -16 -52q-16 -30 -39 -30h-2q-31 0 -31 39z" />
<glyph unicode="D" horiz-adv-x="1265" d="M16 35q0 84 62.5 138t148.5 54q35 0 80 -52t45 -87q0 -41 -44 -87t-85 -46q-39 0 -70.5 29.5t-31.5 68.5l51 66h39l10 -17q0 -14 -27.5 -27.5t-27.5 -29.5q0 -31 57 -53q16 12 35 18l53 78q0 20 -43 59t-63 39q-53 0 -100.5 -47t-47.5 -100q0 -47 55.5 -84t104.5 -37 q166 0 195 436q8 127 14 258q-35 14 -100 58v20q104 39 104 131l4 522q0 43 -33.5 73t-76.5 30q-68 0 -139.5 -62.5t-71.5 -130.5q0 -41 35.5 -71.5t76.5 -30.5q12 0 36 7t34 7l45 70l-57 65q-68 -25 -70 -53l43 -28l31 45h24l6 -19q0 -37 -63 -61q-88 12 -88 53 q0 39 40 69.5t81 30.5q39 0 66.5 -31.5t27.5 -70.5q0 -55 -57 -92q-49 -33 -109 -33q-49 0 -99 44t-50 91q0 121 135 193q111 59 237 59q391 0 465 -35q158 -74 252 -336q80 -219 80 -430q0 -260 -137 -508q-158 -283 -396 -309q-63 -8 -194 -8t-199 -8l-49 28l-39 -10 q-70 0 -133 41q-72 47 -72 113zM504 106q-1 -10 -1 -19q0 -60 58 -83l111 -37q119 18 207 126t88 231q0 68 -41 125t-107 57q-80 0 -145 -103q-61 -92 -62 -176q0 -90 88 -90q55 0 106.5 51.5t51.5 106.5q0 41 -43 41q-27 0 -32 -6t-5 -33q0 -14 -16 -14l-27 30 q0 27 29 43.5t59 16.5q72 0 72 -70q0 -78 -57.5 -140.5t-135.5 -62.5q-127 0 -127 117q0 100 76 211q82 119 178 119q76 0 129 -76q49 -68 50 -145q0 -39 -45 -176q8 -27 32 -27q78 0 148 248q57 205 57 311q0 96 -67 373l-23 16v49q-23 23 -60.5 80t-64.5 82h-16 q20 -70 20 -125q0 -86 -51 -147q-55 -68 -139 -68q-68 0 -131.5 53.5t-63.5 118.5q0 74 35 125q39 61 109 61q45 0 94 -37.5t49 -80.5q0 -41 -36 -72t-77 -31q-12 0 -33.5 20.5t-23.5 33.5l29 22q8 0 20 -15.5t25 -15.5l49 23l4 18q0 37 -34 66t-71 29q-98 0 -98 -144 q0 -49 50 -91t100 -42q74 0 113.5 49t39.5 125q0 98 -72.5 180t-168.5 82q-160 0 -160 -297q0 -31 3 -93t3 -93q0 -473 -49 -830zM590 698q0 39 49 39q21 0 37 -14v-2q0 -20 -16.5 -45t-34.5 -25q-10 0 -22.5 18.5t-12.5 28.5zM594 547q0 49 41 49q16 0 28.5 -15.5 t12.5 -31.5q0 -14 -16.5 -31.5t-30.5 -17.5q-35 0 -35 47zM598 842q0 16 17.5 30.5t35.5 14.5q39 0 39 -31q0 -16 -14 -31.5t-31 -15.5q-47 0 -47 33z" />
<glyph unicode="E" horiz-adv-x="1368" d="M59 240q0 86 19 120q14 29 84 93l76 6q6 1 11 1q56 0 95 -54q39 -51 39 -117q0 -55 -29.5 -94t-83.5 -39q-35 0 -61.5 24.5t-26.5 59.5q0 18 12.5 52t24.5 42l27 2l41 -14v-25l-21 -10l-20 4l-27 -29q0 -65 51 -65h2q29 0 51.5 29.5t22.5 58.5q0 53 -32.5 93t-84.5 40 q-137 0 -137 -164q0 -72 52.5 -129t121.5 -57q147 0 148 329q0 371 -127 381v31q33 6 70.5 70.5t37.5 101.5v180q0 166 -33 338q-27 18 -26 53l-49 9q-74 0 -128.5 -67t-54.5 -142q0 -47 34 -87t81 -40q35 0 60.5 26.5t25.5 61.5l-59 61q-31 -2 -49 -51l28 -31l35 2l-43 -34 q-18 0 -37.5 20t-19.5 39q0 37 26.5 61.5t63.5 24.5l43 -6q49 -51 49 -82q0 -49 -41 -89t-90 -40q-61 0 -99 48t-38 112q0 160 168 247l-9 11l189 -9q86 -3 131.5 -3t50.5 3l33 -14l20 10q14 -12 62 -12q20 0 47 2l-6 12l24 -12q55 16 142 16q215 0 274 -14 q160 -39 160 -184q0 -59 -37 -97t-96 -38l-35 4q3 29 46 29q9 0 19 -1l48 29l20 62q-47 86 -104 108q-37 14 -154 14q-193 0 -352 -30q-264 -51 -264 -168v-320l6 -61q74 -53 272 -107q190 -51 295 -51q57 0 104 19q63 25 64 71q0 23 -20.5 54.5t-41.5 31.5q-31 0 -65 -49 l16 -33l17 19h24l6 -6v-25q-29 -25 -49 -25v3l-59 65q0 27 45 57.5t74 30.5q39 0 68.5 -41t29.5 -82q-82 -129 -211 -129q-43 0 -130 10.5t-130 10.5q-195 0 -260 -47q-57 -41 -57 -158q0 -47 6 -164q4 -78 5 -132q0 -18 -1 -34q80 -74 233 -98q43 -6 262 -19q28 -1 54 -1 q92 0 166 16q151 35 151 126q0 30 -22.5 50t-51.5 20q-14 0 -26 -6l-23 15v20l41 14q146 -35 146 -172q0 -57 -48 -92q-25 -18 -96 -40.5t-90 -39.5h-58q-228 0 -589 13q-25 0 -49 -29q-12 -16 -37 -47h-16q-29 45 -97 63q-14 4 -119 19l11 6q-53 20 -97.5 82.5t-44.5 118.5 zM487 301v8q10 6 29 27q35 -14 35 -55q0 -39 -29 -39q-35 0 -35 59zM541 1184q10 -13 10 -33q0 -49 -27 -49q-28 0 -28 36q0 34 45 46zM502 451q0 37 37 36q27 0 26 -34q0 -54 -33 -54q-8 0 -19 20.5t-11 31.5zM502 616q0 43 43 43q28 1 28 -38q0 -14 -13 -37t-25 -25 q-33 23 -33 57zM506 1300q0 53 43 56q16 -29 16 -39q0 -14 -39 -47q-20 12 -20 30zM510 997q0 12 13.5 23.5t25.5 11.5q29 0 29 -39q0 -14 -13.5 -32.5t-27.5 -18.5q-27 0 -27 55zM637 1595v9h12v-9h-12z" />
<glyph unicode="F" horiz-adv-x="1478" d="M35 1356q0 229 237 229q90 0 115 -10l25 8l-9 -10l275 -27q45 0 139 16q88 15 133 14h6h19q41 0 105 3q79 4 114 4q156 0 248 -65l31 -78q0 -55 -48.5 -94t-105.5 -39l-6 4v26l20 19l17 -4l28 8l35 65l-39 39q-20 0 -60 8.5t-61 8.5q-61 0 -84 20q-29 -5 -60 -5 q-16 0 -32 1q-86 8 -90 8q-330 0 -330 -434q0 -61 5 -139h61q51 0 168 -63.5t174 -63.5q135 0 135 106q0 86 -92 86q-33 0 -61.5 -23.5t-28.5 -55.5q0 -16 15.5 -35t31.5 -19l31 23l-19 33l25 22l39 -33q0 -31 -25.5 -56.5t-56.5 -25.5q-82 0 -82 93q0 43 46 77.5t91 34.5 q49 0 88 -29.5t39 -76.5q0 -86 -64.5 -137.5t-152.5 -51.5q-47 0 -134 32t-134 32q-59 0 -107 -31q-18 -127 -18 -326v-327q0 -90 139 -101l25 -22q-37 -27 -50 -27l-63 2l-12 11q-16 2 -42.5 2t-64.5 -2q-82 -4 -123 -5q-256 0 -256 189q0 53 39 82.5t94 29.5 q53 0 94.5 -36.5t41.5 -89.5q0 -90 -70 -91l-37 7l-43 73l10 21q12 -4 28.5 -32t37.5 -28q39 0 39 58q0 35 -30 57.5t-66 22.5q-100 0 -101 -86q0 -55 50.5 -101.5t105.5 -46.5q172 0 172 410q0 29 -2 88t-2 90q0 18 -3 58t-3 61l-127 73l12 23q61 27 68 31q45 23 51 43 q45 162 45 485q0 82 -60 152q-20 2 -153 16q-92 10 -154 10q-72 0 -112 -63q-37 -55 -37 -129q0 -63 34 -113q39 -55 101 -55q82 0 146.5 48t64.5 128q0 115 -125 115q-47 0 -90 -29q-49 -33 -49 -78q0 -35 44 -66.5t81 -31.5q27 0 48 24.5t21 53.5l-35 53h-47l-26 -45 q0 -25 18 -25q8 4 64 25q-14 -59 -64 -60q-16 0 -37.5 15.5t-21.5 29.5q0 45 34.5 73t79.5 28q23 0 49.5 -34t26.5 -56q0 -39 -37 -81t-76 -42q-45 0 -102 44t-57 87q0 92 73 119q43 14 127 41q96 -45 99 -47q43 -31 43 -101q0 -96 -84 -164q-76 -61 -176 -61q-78 0 -123 67 q-41 59 -41 142zM756 1032q35 0 35 -35q0 -18 -14.5 -36.5t-31.5 -18.5q-28 0 -28 42q0 48 39 48zM717 1137q0 16 16.5 33.5t32.5 17.5q6 0 19.5 -21.5t13.5 -29.5q0 -10 -11.5 -25.5t-21.5 -15.5q-2 0 -39 12q-10 14 -10 29zM721 1300q0 51 37 52q41 0 41 -39 q0 -14 -17.5 -33.5t-31.5 -19.5q-29 0 -29 40z" />
<glyph unicode="G" horiz-adv-x="1355" d="M63 670q0 319 144 596q174 336 461 336q168 0 276 -68q129 -80 129 -240q0 -45 -44 -114.5t-85 -79.5q-10 -18 -53 -31.5t-70 -13.5q-82 0 -138 57t-56 139q0 76 66.5 129.5t144.5 53.5q59 0 97 -42t38 -102q0 -55 -39 -101t-94 -46q-94 0 -95 92q0 39 28 64.5t67 25.5 q25 0 47 -31v-14q-8 -14 -23 -14q-14 0 -35 12l-47 -43q0 -39 64 -51q25 12 43 14q49 41 49 84q0 47 -30.5 79t-78.5 32q-70 0 -117.5 -48.5t-47.5 -117.5q0 -76 69 -105q33 -12 88 -30q72 33 144 63q78 47 77 141q0 121 -106 195q-95 65 -217 65h-4q-41 0 -43 -22 q-10 -2 -90 -6q-113 -80 -220 -213q-131 -162 -131 -264q0 -35 52 -123q-27 -33 -76 -103q-39 -57 -39 -118q0 -33 43 -66q35 -23 70 -45v-31q-76 -29 -76 -157q0 -102 106 -103q16 0 35 4l21 -6q8 -49 36 -63l-4 -15q0 -41 41 -71.5t84 -30.5q14 0 27 4q14 -6 187 -28.5 t204 -22.5l59 12q74 98 74 139q0 61 -8 209q-6 106 -6 176v33q-23 -2 -68 -28.5t-61 -28.5q-86 -12 -307 -13q-47 0 -76 -22l-31 -94q20 -82 78 -162l41 -10q78 0 78 75q0 88 -64 89q-29 0 -39 -33l-8 6l-4 -8q12 -29 31 -47l20 30l27 -32q0 -43 -45 -43t-60 84l25 67l47 21 q47 0 78 -56q27 -47 27 -98q0 -41 -36 -70.5t-77 -29.5q-45 0 -62 28l-10 4q-88 135 -88 256q0 31 6 62l-6 4h2q8 0 4 25q-6 29 0 38q61 -8 101 -8q313 0 600 232l22 -25q-55 -106 -55 -405q0 -74 16 -189q25 -174 25 -188q16 -6 22 -49l-34 -82q-5 5 -54 5q-37 0 -100 -3 q-150 -6 -170 -10q-31 12 -162 24q-147 14 -211 29q-106 25 -116 73q-303 270 -304 607zM227 727q0 47 35 47q39 0 39 -49q0 -43 -33 -43q-41 0 -41 45zM287 416q0 43 39 43q28 0 28 -41q0 -12 -10 -28.5t-22 -16.5q-35 0 -35 43zM1192 522q0 14 14.5 30.5t28.5 16.5 q39 0 39 -51q0 -49 -37 -49q-16 0 -30.5 17.5t-14.5 35.5zM1206 287q0 37 33 37q16 0 29.5 -13.5t13.5 -29.5q0 -14 -11 -32t-26 -18q-16 0 -27.5 19.5t-11.5 36.5zM1214 788q0 16 18.5 37t35.5 21q28 0 28 -39q0 -18 -15 -44t-32 -26q-10 0 -22.5 20.5t-12.5 30.5zM1247 84 q0 39 27 39q14 0 29.5 -14.5t15.5 -28.5t-10.5 -33.5t-22.5 -19.5q-39 0 -39 57z" />
<glyph unicode="H" horiz-adv-x="1501" d="M16 201q0 59 51.5 108t110.5 49q57 0 100.5 -32.5t43.5 -87.5q0 -39 -29 -73t-68 -34q-29 0 -55.5 25.5t-26.5 54.5q0 55 66 65l35 -32q-2 -10 -15 -15q-12 -4 -20 2l-29 -24l47 -35q25 0 41.5 23.5t16.5 50.5q0 71 -104 71h-3q-47 0 -88 -39.5t-41 -87.5q0 -35 42 -76.5 t77 -41.5q14 0 25 6q18 -23 57 -23l59 19q66 61 99 274q22 139 22 294v13q-14 -8 -84 -41q-55 -26 -82 -26h-2q-45 0 -82 20q-45 25 -45 66q-1 70 61 136q57 62 121 62h9l4 -14l-21 -24q-80 -16 -80 -95v-8l60 -31q76 0 145 58q25 90 25 282v293v12q0 211 -135 211 q-88 0 -141.5 -51t-53.5 -139q0 -39 57 -72q49 -28 92 -28h3q33 0 61.5 26.5t28.5 59.5q0 43 -72 63l-59 -57l39 -21l26 37h14l11 -24l-60 -54l-71 52q0 37 34.5 72.5t71.5 35.5t70 -31.5t33 -68.5q0 -49 -39 -88t-88 -39q-72 0 -125 35q-61 41 -62 108q0 68 61.5 152 t127.5 84q23 0 41 -11l43 23q63 -20 155 -21q49 0 107 7l20 -21q-102 -125 -102 -452q0 -49 3 -146.5t3 -146.5l6 -2l57 43l-24 26l-6 29l32 37q39 2 39 -31q0 -8 -5 -25.5t-5 -21.5l184 82q115 51 177 90q14 37 14 94q0 43 -6 115q-8 96 -8 119l-13 12l6 55q0 49 -61 105 l29 30l20 -4l234 35q4 -4 86 -12t112 -27q60 -34 60 -112q0 -92 -39 -154q-45 -72 -133 -72q-55 0 -107.5 44t-52.5 98q0 59 38 104t97 45q45 0 83 -30.5t38 -75.5t-35 -79t-80 -34q-78 0 -78 72q0 33 25 60.5t57 27.5l47 -39l-20 -37q-23 0 -23 12q2 18 0 21q-4 2 -12 2 l-37 -43q0 -39 51 -39q29 0 48.5 20.5t19.5 49.5q0 31 -31.5 53t-64.5 22q-82 0 -82 -104q0 -47 47 -80t96 -33q111 0 111 189q0 43 -64 79q-57 31 -104 31q-86 0 -135 -67q-45 -59 -45 -150q0 -39 10 -114.5t10 -114.5q0 -27 -4 -49q178 0 178 -148q0 -45 -35.5 -75.5 t-83.5 -30.5q-16 0 -41 14q-31 16 -40 18l61 39l14 -4l35 21v10q0 59 -80 84q-4 -23 -47 -129.5t-43 -114.5q0 -6 59.5 -134t59.5 -210q0 -53 -39 -155.5t-39 -141.5q0 -41 33 -69q12 -8 67 -41l64 -17q82 14 131 68l29 110q0 45 -36 77t-83 32q-41 0 -73 -38t-32 -81 t60 -57l51 51l-37 12v27l29 4q14 0 33.5 -14.5t19.5 -28.5q0 -31 -31.5 -61.5t-62.5 -30.5q-37 0 -66.5 25.5t-29.5 62.5q0 59 38.5 114.5t96.5 55.5q51 0 105.5 -40t54.5 -89q0 -240 -207 -240q-61 0 -148 60q-12 -8 -121 -11q-20 0 -30 -2l-23 25q6 20 56.5 72.5 t62.5 78.5q37 76 37 207q0 80 -70.5 172.5t-70.5 184.5q0 10 49 164q-53 32 -69 32h-1q-90 0 -219 -112q-135 -117 -133 -203l4 -186q0 -41 -18.5 -123t-18.5 -123q0 -123 78 -148l-31 -37l-104 9q-23 0 -82.5 -27t-91.5 -27q-78 0 -171.5 76t-93.5 152zM569 227 q35 0 35 -39q0 -32 -31 -32h-2q-36 0 -36 35q0 37 34 36zM709 1004q0 57 45 57q12 0 24.5 -12.5t12.5 -24.5q0 -20 -15 -35q-12 -4 -35 -16q-2 2 -17 10t-15 21zM862 1069q0 20 17.5 35.5t38.5 15.5q27 0 26 -26q0 -62 -59 -62q-23 0 -23 37zM885 1456q0 12 14 30.5t27 18.5 h22q10 -20 10 -30q0 -51 -38 -52q-35 0 -35 33z" />
<glyph unicode="I" horiz-adv-x="1363" d="M27 205q0 61 48 113.5t109 52.5q45 0 85 -33t40 -78q0 -31 -30.5 -69.5t-59.5 -38.5q-92 0 -115 90q33 68 86 86l-16 6q-66 -23 -100 -68l-11 -57q0 -131 185 -131q51 0 147 20q137 29 154 31q117 168 117 426q0 201 -88 315q78 113 77 242q0 248 -80 369 q-203 39 -294 39q-39 0 -72 -25t-33 -63q0 -66 96 -78l60 43q0 31 -41 30l-37 -4l4 -41l-31 27q0 23 27 41t51 18q16 0 40 -25.5t24 -41.5q0 -23 -38 -55.5t-61 -32.5q-45 0 -90 32.5t-45 75.5q0 70 76 119q68 43 141 43l797 8h6q207 0 207 -137q0 -53 -44 -97t-97 -44 q-31 0 -83.5 32.5t-52.5 61.5q0 45 41 81t88 40l43 -25l29 -57q0 -33 -69 -60l-50 31l19 29l35 -19l22 19q0 37 -43 37q-70 0 -70 -62q0 -18 38 -44.5t59 -26.5q37 0 65.5 32.5t28.5 69.5q0 43 -41 70.5t-86 27.5q-63 0 -178 -32q-125 -37 -178 -41q-51 -43 -54 -195 q-2 -8 -2 -203q0 -84 62 -178q-84 -133 -84 -584q0 -162 92 -215q68 -39 248 -39q31 0 76 37t45 66l-52 57l-36 -6l-13 -14l33 -17l-33 -34q-16 0 -30.5 20.5t-14.5 36.5q0 37 82 61q47 -12 86 -47l19 -61q-16 -62 -79 -108q-60 -44 -123 -44h-5q-109 2 -430 13 q-295 10 -430 10q-14 0 -56.5 17.5t-46.5 15.5l-45 36q-20 53 -20 103zM141 240q0 -18 29 -32.5t51 -14.5q20 0 35.5 20t15.5 43q0 35 -26 39q10 -8 10 -33q0 -47 -43 -47q-14 0 -27 12v13l31 12v16q0 14 -29 15q-16 0 -31.5 -13.5t-15.5 -29.5zM528 754q0 14 11.5 33.5 t25.5 19.5q37 0 37 -47t-37 -47t-37 41zM815 1044q0 12 15.5 34t27.5 22q14 0 26.5 -19.5t12.5 -33.5q0 -12 -11.5 -32t-21.5 -20q-14 0 -31.5 17.5t-17.5 31.5z" />
<glyph unicode="J" horiz-adv-x="1310" d="M29 520q0 143 43 203q51 74 188 74q72 0 129 -54.5t57 -126.5q0 -92 -40 -163q-49 -88 -136 -88q-76 0 -136 59t-60 135q0 70 52 115t122 45q117 0 117 -119q0 -55 -27 -96q-31 -49 -82 -49q-43 0 -71.5 30.5t-28.5 73.5q0 96 82 96q63 0 63 -47q0 -18 -16.5 -47 t-32.5 -29l-33 21q2 10 22.5 20.5t18.5 24.5l-29 16q-43 0 -43 -47q0 -35 74 -71q25 10 51 30l21 52q0 100 -92 100q-51 0 -93.5 -31t-42.5 -80q0 -61 50.5 -111t111.5 -50q68 0 113 71q39 63 39 137q0 63 -68 107q-59 39 -125 39q-166 0 -166 -232q0 6 11 -98 q25 -25 80 -137q51 -102 114 -154q102 -80 269 -80q35 0 110 21q55 14 113 31q152 37 151 290v70q0 16 -2 39v22q0 145 -37 175q-18 14 -22 34q86 68 86 166v295q0 195 -68 262h-28q-80 0 -187 9q-172 14 -217 14q-39 0 -74 -4l-4 -6q37 -25 37 -74q0 -43 -31.5 -69.5 t-74.5 -26.5q-29 0 -107 51l-14 55q40 140 163 140q10 0 19 -1l350 -24h16q58 0 302 8q262 8 278 16l19 -24q-45 -59 -131 -185l-19 -6l-14 6q-2 53 -62 87q-35 -39 -39 -49.5t-6 -61.5q-10 -250 -41 -895q-1 -24 -1 -48q0 -223 120 -382l-4 -21q-86 -14 -82 -14 q-43 0 -129 -2t-129 -2q-717 0 -717 371q0 33 -15 97t-15 97zM207 1389q6 -14 34.5 -31t45.5 -17q69 1 69 52q0 31 -43 63q-14 -12 -34 -39q10 -14 30.5 -14t24.5 -4q-12 -35 -35 -35q-14 0 -57 31v6q0 33 24.5 59.5t57.5 32.5v16h-25q-92 0 -92 -102v-18zM807 1184 q0 20 13.5 43.5t31.5 23.5q27 0 27 -47q0 -53 -43 -53q-29 0 -29 33zM821 1038q0 12 14.5 35t26.5 23q31 0 31 -43q0 -18 -12.5 -37t-28.5 -19q-31 0 -31 41zM825 881q0 12 13.5 27.5t25.5 15.5q10 0 19.5 -15.5t9.5 -25.5t-12.5 -29.5t-22.5 -19.5q-8 0 -20.5 18t-12.5 29z " />
<glyph unicode="K" horiz-adv-x="1544" d="M8 188q0 70 39 123q43 61 109 62q68 0 115.5 -60.5t47.5 -130.5q0 -100 -126 -100q-78 0 -78 88q0 80 63 80q59 0 60 -62l-17 -28l-20 51l-17 2l-34 -35q6 -59 38 -59q94 0 95 80q0 53 -36 93t-89 40q-51 0 -84 -51q-29 -43 -29 -99q0 -53 45 -106t98 -53q35 0 117 24 q100 166 101 1184q0 121 -3 139q-8 82 -47 121l-55 10q-59 0 -100 -30.5t-41 -88.5l6 -8q0 51 49 80l23 2l65 -35l21 -69q0 -33 -70 -82q-47 0 -89 36.5t-42 84.5q0 88 117 143q96 45 192 45q4 0 33 -6q20 -4 35 2l73 -43l-14 -29l-20 -8q-52 -71 -52 -113q0 -188 25 -577 q47 27 141 125q84 86 127 147v6l-37 -14l-47 37l52 45q37 0 38 -68q16 16 144 197l131 186l-45 50l-2 8l20 26q35 -10 66 -10q33 0 61 12q6 -8 29 -8q25 0 72 10.5t71 10.5q80 0 137 -39q64 -45 64 -123q0 -76 -60.5 -134.5t-136.5 -58.5q-31 0 -102 11q-88 100 -88 135 q0 70 53 106q47 35 119 35q41 0 84 -33.5t43 -72.5q0 -37 -38 -66t-77 -29q-72 0 -71 54l28 47l41 -15l-29 -30l9 -13l28 -2q20 -2 44 11.5t24 31.5l-57 74l-41 6q-45 0 -82 -23.5t-37 -66.5q0 -125 164 -125q57 0 96 47t39 107q0 63 -50.5 96t-117.5 33q-109 0 -225 -139 q-55 -66 -199 -295q-121 -193 -190 -254l18 2q11 1 22 1q183 0 183 -366q0 -41 -4 -125t-4 -125q0 -109 66.5 -177t174.5 -68q61 0 139 74.5t78 136.5q0 119 -67 196q-109 43 -144 43q-125 0 -125 -182q0 -33 27 -90l76 -23q53 0 86 49q29 43 29 99q0 29 -48 28l-69 -32 l24 -39q12 8 13 45h20l14 -41q0 -16 -15 -30.5t-32 -14.5q-20 0 -42.5 26.5t-22.5 46.5q0 37 45 60q39 20 78 20q16 0 45.5 -19.5t29.5 -33.5q0 -80 -43 -139q-47 -66 -124 -66q-127 0 -127 144q0 233 157 233q256 0 256 -293q0 -49 -85 -143q-83 -92 -130 -92h-2l-76 2 q-18 16 -161 18h-49q-92 0 -130 -6l-26 25q68 96 67 159v205q0 106 -26 199q-39 135 -121 135q-63 0 -188 -121q-23 -80 -24 -244.5t-22 -242.5q27 -45 68 -71t45 -32l-14 -20l-56 -6q-49 0 -145 16t-145 16q-68 0 -129.5 71t-61.5 140zM201 1333q37 -23 53 -22q33 -1 33 32 q0 8 -13 31q-12 -51 -41 -51q-4 0 -15 5t-15 5h-2zM209 1389q10 -10 31 -25q8 11 28 27q-25 25 -37 24q-23 0 -22 -26zM573 983q0 12 21.5 30.5t36.5 18.5q24 0 24 -33q0 -16 -15 -36.5t-30 -20.5q-12 0 -24.5 14.5t-12.5 26.5zM793 1245q0 12 18 39t31 27q10 -1 41 -19 q0 -20 -13 -43q-14 -28 -29 -28h-1h-39q0 2 -4 10t-4 14zM905 1405v16q0 18 21 35h51q0 -2 5 -8t5 -12q0 -18 -20.5 -40t-38.5 -22q-23 0 -23 31z" />
<glyph unicode="L" horiz-adv-x="1454" d="M127 1350q0 78 82 135q76 49 158 49q41 0 90 -8l10 -6l45 8l14 -8l41 8l6 -6q4 2 13 4q8 2 10 -6l61 8q37 0 37 -19q0 -6 -2 -12q-155 -110 -155 -198q0 -21 9 -62t9 -61q1 -13 1 -28q0 -46 -5 -114q-8 -100 -9 -141q0 -72 115 -158l7 -24q-74 -66 -101 -119 q-33 -61 -33 -152q0 -45 5.5 -137t5.5 -137l10 -88q143 -55 225 -64q66 57 103 140l20 10l19 -12q2 -33 43 -66l65 -49h68q106 0 184 29q115 43 115 120q0 109 -125 109q-84 0 -84 -68q0 -18 19.5 -31.5t39.5 -13.5q31 0 31 27q0 6 -4 12q-6 16 24 17l25 -31 q0 -23 -27.5 -44.5t-52.5 -21.5q-33 0 -62.5 27t-29.5 59q0 45 39 77t86 32q66 0 114 -40t48 -103t-23 -93l19 -120l-29 -25l-29 6q-111 0 -331 -12t-330 -12q-139 0 -197 -33q-57 6 -123 14q-94 12 -112 29q0 25 49 54.5t61 43.5q39 45 39 180q0 178 20.5 533.5t20.5 533.5 q0 106 -29 160l-86 35q-90 -12 -123 -29q-63 -31 -63 -102q0 -90 121 -90q76 0 76 61l-56 66l-49 -41l27 -23q12 12 41 8l-58 -45q-55 29 -57 58l63 71l39 9q39 0 67 -35t28 -74q0 -33 -45.5 -64.5t-79.5 -31.5q-63 0 -107 30q-51 35 -51 95zM592 164q0 14 15.5 27.5 t29.5 13.5q27 0 27 -29q0 -16 -12.5 -32.5t-26.5 -16.5q-33 0 -33 37zM592 330q0 43 43 43q39 0 39 -51q0 -20 -19 -31q-29 -12 -28 -12q-35 10 -35 51zM604 502q0 10 19.5 29.5t29.5 19.5q25 0 25 -43q0 -39 -41 -39q-33 0 -33 33z" />
<glyph unicode="M" horiz-adv-x="1921" d="M-57 1569v6l10 6l2 -6zM18 1268q0 82 88 184q87 100 165 100h3l27 25l80 6l324 -18q59 -47 141 -164q84 -123 137 -168q49 43 111 149q72 123 102 164l-8 8q104 10 129 11q223 0 334 -21q256 -46 256 -196q0 -82 -55.5 -146.5t-135.5 -64.5q-141 0 -141 151 q0 127 117 127q35 0 63.5 -22.5t28.5 -57.5q0 -25 -21.5 -61.5t-44.5 -36.5q-18 0 -39.5 15.5t-21.5 33.5l18 21l47 -29l31 49q0 16 -23.5 31.5t-41.5 15.5q-80 0 -80 -78q0 -51 29.5 -84.5t78.5 -33.5q61 0 108.5 49t47.5 110q0 70 -96 125q-86 49 -162 49l-80 -12 q-47 -100 -47 -303q0 -45 3 -133t3 -133q0 -86 -8 -144q20 -10 49 -57t53 -57l17 -23l-21 -33q-25 -4 -117 -77q-10 -150 -10 -265q0 -106 21 -172q37 -39 73 -61h25q53 0 78 31q14 18 33 80l-39 61q-61 -14 -62 -51l21 -21l20 37l12 -2l19 -37q0 -35 -43 -35q-66 0 -66 68 q0 31 29 56.5t59 25.5q84 0 84 -107q0 -100 -73 -131q-35 -14 -158 -16q-35 0 -47 -8l-37 16l-19 -6q-80 0 -96 -10l-47 18v31q162 106 162 631v-4l-2 120v93v381q0 76 -25 147q-32 92 -87 92h-5l-24 -2q-123 -94 -172 -260q-20 -70 -54 -305q-25 -184 -75 -279l-31 25 l26 154q0 145 -43 303q-55 201 -145 254q-25 65 -90 65h-2q-72 0 -98 -84q-14 -45 -17 -158q-2 -94 -12 -102q-10 -225 -10 -455v-364q0 -174 39 -211q27 0 124 -62l-24 -28q-10 -2 -51 -10q-33 -8 -54 -9q-41 0 -123 29q-77 27 -122 27h-6l-19 20q-59 4 -101 42t-42 95 q0 43 34.5 83t77.5 40q33 0 60.5 -28.5t27.5 -61.5l-61 -59l-33 24v25l35 -4l23 20l-48 43q-31 0 -55 -28.5t-24 -59.5q0 -41 30.5 -65.5t71.5 -24.5q160 0 160 324q0 76 0 75q0 16 -2 39v23q0 84 -17 111q-12 18 -98 71q4 10 53 45t60 72q8 31 20 256q10 195 10 283 q0 131 -139 131q-102 0 -194 -74q-100 -78 -101 -176q0 -57 86 -146q55 -18 80 -18q180 0 180 154q0 129 -145 129q-45 0 -78 -39t-33 -84q0 -96 103 -97h37l47 56q0 31 -23.5 62.5t-52.5 31.5l-37 -49l49 -43l-39 -27q-39 0 -39 51q0 104 74 105q41 0 73 -41t32 -84 q0 -37 -45.5 -70t-83.5 -33q-57 0 -93.5 40t-36.5 98q0 61 48.5 109t109.5 48q164 0 164 -155q0 -115 -57 -162q-49 -41 -168 -41q-72 0 -128.5 65.5t-56.5 137.5zM573 168v14q0 27 27 27q16 0 29.5 -15.5t13.5 -31.5q0 -12 -10 -27.5t-23 -15.5q-37 0 -37 49zM573 336 q0 41 31 41q35 0 35 -43t-35 -43q-31 0 -31 45zM584 494q0 35 34 34q33 0 33 -41q0 -47 -30 -47q-12 0 -24.5 20.5t-12.5 33.5zM600 664.5q12 17.5 25 17.5q26 0 26 -41q0 -12 -12 -30.5t-25 -18.5q-26 0 -26 40q0 15 12 32.5z" />
<glyph unicode="N" horiz-adv-x="1673" d="M35 123q0 43 28.5 71.5t71.5 28.5q41 0 60 -45l-35 -45l2 31l-29 18q-61 -16 -61 -53q0 -23 41 -46.5t65 -23.5l64 11q86 78 102 264q6 68 18 303q-12 47 -77 104l14 25q37 18 68 51v17q0 43 4 131t4 131q0 428 -156 428q-51 0 -97 -44t-46 -96q0 -20 39 -48.5t61 -28.5 q27 0 47.5 23.5t20.5 49.5q0 61 -39 62l-33 -31q2 -10 14 -18l25 12l10 -14l-47 -35l-39 43q0 31 25.5 57.5t56.5 26.5l53 -29l6 -59q0 -121 -110 -121q-45 0 -84 29.5t-39 74.5q0 47 31 88q4 6 63 70l-2 10l92 15q14 0 46 -8.5t49 -8.5q18 0 26 8q29 -12 187 -14 q74 0 221 -2l69 -2l6 -14q0 -2 -52 -48.5t-52 -111.5q0 -53 137 -586q139 -543 174 -596q78 104 78 643q0 119 -4 287l-4 188q0 61 -12 123q-16 86 -52 103l37 30q53 -8 117 -8q66 0 141 8q29 0 62 -4q66 -8 65 -8q39 -35 115 -106q64 -62 64 -152q0 -102 -70 -178t-172 -76 q-61 0 -109.5 58.5t-48.5 121.5q0 150 170 215q80 -31 98 -47q23 -27 23 -102q0 -137 -104 -137q-37 0 -66 18q-35 20 -35 55q0 41 26.5 75t65.5 34l54 -19l-15 -63l-20 37h-43l-27 -53q0 -43 56 -43h10l32 2l35 77q0 45 -16 78l-80 43q-43 0 -85 -61.5t-42 -106.5 q0 -57 43 -99t100 -42q72 0 128.5 63.5t56.5 135.5q0 70 -59.5 147.5t-125.5 77.5q-190 0 -260 -272q-37 -144 -37 -338q0 -43 2 -88l19 -4q6 -6 53 -48q41 -37 33 -51q-61 -43 -84 -108l2 -27l-23 -27v-282q0 -100 27 -156.5t107 -114.5q0 -40 -72 -40h-4q-63 0 -176 18 l-178 29l-7 20q41 49 41 113q0 45 -11 132t-11 132q0 174 -94 604q-109 494 -201 494q-76 0 -76 -203q0 -154 -19.5 -461t-19.5 -461q0 -219 62 -266q-2 -4 69 -72l-24 -30l-285 10l-8 6q-10 2 -90 10q-53 6 -84 29q-41 27 -41 82zM698 563q0 47 41 47q12 0 22.5 -15.5 t10.5 -27.5t-12 -32.5t-23 -20.5q-14 0 -26.5 17.5t-12.5 31.5zM717 403q0 14 14 35t27 21q33 0 33 -53q0 -47 -29 -48q-45 0 -45 45zM778 305q39 0 39 -41q0 -14 -10 -32.5t-25 -18.5q-28 0 -28 51q0 41 24 41zM758 129q0 10 13 22.5t24 12.5q14 0 25 -16.5t11 -30.5 q0 -12 -11 -25.5t-21 -13.5q-14 0 -27.5 17.5t-13.5 33.5zM762 1364q0 16 14.5 37.5t30.5 21.5q8 0 20.5 -12t12.5 -20q0 -16 -15.5 -35t-29.5 -19q-8 0 -20.5 10.5t-12.5 16.5zM836 1278q12 0 22 -17.5t10 -29.5t-13 -27.5t-24 -15.5q-28 0 -28 44q0 46 33 46zM840 1094 q0 49 37 49q26 0 26 -33q0 -55 -33 -55q-31 0 -30 39z" />
<glyph unicode="O" horiz-adv-x="1226" d="M47 743q0 420 328 758l-4 8l12 -8q176 59 235 60q272 0 433 -187q151 -176 151 -452v-45q0 -373 -127 -639q-168 -352 -500 -353q-72 0 -245 72q-156 207 -215 365q-68 178 -68 421zM156 766q0 -168 59 -334q78 -219 215 -219q100 0 175 88t75 191q0 109 -57 184 q-63 80 -170 80q-74 0 -115 -53.5t-41 -129.5q0 -182 133 -182q109 0 109 107q0 120 -77 120h-1q-16 0 -42 -17t-26 -32l25 -41h14l33 31l18 -20l-55 -58q-29 2 -48.5 25.5t-19.5 52.5q0 43 31 71.5t74 28.5q104 0 104 -159q0 -154 -145 -154q-80 0 -123 70q-35 57 -35 143 q0 96 48 165t143 69q119 0 192 -88q68 -84 68 -205q0 -104 -68 -191q-29 -37 -123 -119q-66 -57 -65 -100l10 -43l49 -33l19 9l92 -27q35 0 143 94q45 35 90 72q53 43 78 84q47 76 99.5 280.5t52.5 300.5q0 279 -103 459l-67 14q-119 0 -204 -92t-85 -211q0 -196 149 -196h2 q78 0 135.5 52t57.5 130q0 47 -33 83t-80 36q-39 0 -71.5 -32t-32.5 -71q0 -12 16.5 -30.5t28.5 -18.5t34.5 14.5t28.5 24.5l-18 29l18 20l37 -45q0 -73 -95 -73h-3q-84 0 -84 69q0 57 45 105.5t102 48.5q53 0 98.5 -45t45.5 -99q0 -102 -64.5 -170.5t-167.5 -68.5 q-90 0 -141 71q-45 63 -45 158q0 104 66 195q39 51 118 119q66 53 66 77l-35 60q-70 35 -168 35q-115 0 -215 -70l-12 6q-109 -53 -191 -289q-72 -205 -71 -356zM217 879q49 0 49 -41q0 -37 -39 -37q-34 0 -34 43q0 35 24 35zM225 1018q0 14 15.5 34.5t29.5 20.5 q31 0 31 -41q0 -12 -15.5 -30.5t-27.5 -18.5q-8 0 -20.5 13.5t-12.5 21.5zM289 1178q0 -10 28 -31q50 24 50 63q0 31 -29 31q-16 0 -32.5 -22.5t-16.5 -40.5zM401 1321q0 14 18.5 35.5t33.5 21.5h2q24 0 24 -28q0 -16 -16.5 -42t-30.5 -26q-31 0 -31 39zM770 240 q0 12 11.5 29.5t23.5 17.5q47 0 47 -41q0 -37 -47 -37q-35 0 -35 31zM862 403q0 47 35 48q51 -1 51 -56q0 -37 -35 -37q-51 0 -51 45zM922 571q0 14 16 36t31 22q14 0 26.5 -13.5t12.5 -27.5q0 -16 -16.5 -33.5t-33.5 -17.5l-18 6q-18 29 -18 28z" />
<glyph unicode="P" horiz-adv-x="1349" d="M27 1208q1 113 109 206q98 84 198 84q11 0 22 -1l205 -18l21 18q86 -35 323 -43q213 -6 299 -65q133 -91 133 -347q0 -203 -131 -313q-123 -100 -329 -100q-84 0 -152 35q-84 41 -84 116q0 66 35 114t98 48q61 0 107.5 -37t46.5 -96q0 -37 -24.5 -63.5t-61.5 -26.5 q-74 0 -74 61v6l27 5q12 -31 49 -31q47 0 47 53q0 39 -36 63.5t-77 24.5l-47 -6q-16 -10 -34.5 -48t-18.5 -59q0 -63 74 -94q55 -24 123 -24h6q190 0 299 121q102 117 102 309q0 278 -407 278h-3q-162 0 -215 -178q-29 -98 -30 -315l-4 -701q0 -47 27.5 -139t27.5 -135 l-43 -14q-45 0 -134 7t-134 7q-66 0 -114 42t-48 105q0 53 34.5 89t88.5 36q37 0 65.5 -28.5t28.5 -65.5l-6 -29q-48 -34 -74 -34q-6 0 -10 2l-4 14l49 59q0 12 -17.5 26.5t-29.5 14.5q-84 0 -84 -86q0 -104 131 -104t149 270q4 59 15 354q-29 57 -90 72v31q57 16 77 59 q10 23 19 230q2 84 2 123q0 231 -98 362q-8 -8 -17 -8q-8 0 -12 12h-125q-80 0 -157 -83t-77 -165q0 -78 64 -118q53 -35 137 -35q172 0 172 155q0 61 -46 99.5t-109 38.5q-57 0 -96.5 -41t-39.5 -99q0 -72 86 -72q12 0 25 1l68 6l45 49q-2 37 -62 63q-68 -18 -71 -49 l34 -18q25 0 43 31l15 -25q0 -39 -72 -39q-18 0 -42 15.5t-24 33.5q0 37 43 62.5t82 25.5t67 -26.5t28 -65.5q0 -98 -158 -98q-147 0 -148 92q0 90 46 131q29 27 135 68q53 -10 141 -52q47 -39 47 -116q0 -201 -219 -201q-227 0 -227 184zM731 1286q0 12 15.5 29.5 t27.5 17.5t28.5 -17.5t16.5 -29.5q0 -39 -47 -39q-41 0 -41 39zM905 1282q0 14 15.5 32.5t29.5 18.5t31.5 -14.5t17.5 -26.5t-20.5 -28.5t-32.5 -16.5q-41 0 -41 35zM1081 1270q0 18 20.5 35.5t39.5 17.5q22 0 22 -33q0 -53 -41 -53t-41 33z" />
<glyph unicode="Q" horiz-adv-x="1021" d="M35 821q0 276 102 471q129 244 377 244q178 0 340 -221q152 -210 152 -400q0 -215 -70 -407q-78 -221 -227 -336l2 -4l49 6l24 -20q-31 -33 -168 -91q-8 -23 -18 -22q-4 0 -8 4l-35 -8q-33 -25 -94 -72q-82 -66 -82 -172q0 -80 67 -151q12 -2 48 -17.5t47 -15.5 q98 0 185 76.5t87 173.5q0 125 -137 125q-63 0 -119.5 -45t-56.5 -107q0 -23 24.5 -46.5t46.5 -23.5q37 0 73 27t36 61l-2 13l-29 18l-49 -39l-16 23l61 51q63 0 64 -63q0 -45 -42 -85t-87 -40q-41 0 -76 27.5t-35 66.5q0 82 63.5 139t145.5 57q74 0 120 -43t46 -116 q0 -125 -100.5 -221.5t-225.5 -96.5q-98 0 -151 76q-47 66 -48 168q0 70 48 141q31 47 86 107q47 51 47 65l-6 23q-270 94 -371 256q-88 145 -88 444zM98 897q0 -246 45 -387q66 -203 236 -289l14 4l41 -24q8 8 19 8q6 0 14 -4q51 23 51 51q0 45 -29.5 148.5t-29.5 154.5 q0 47 12 88l14 10q10 -8 13 -26q0 -10 -2 -31.5t-2 -32.5q0 -186 170 -331q237 194 237 692q0 106 -55 221q-59 125 -146 168l-36 -33l18 -117q0 -78 -51 -145.5t-127 -67.5q-74 0 -122 46.5t-48 119.5q0 55 29.5 103.5t80.5 48.5q45 0 84 -36t39 -81q0 -31 -23.5 -58.5 t-51.5 -27.5q-37 0 -37 55q0 14 14 15l12 -4l4 -27h21q29 31 29 51q0 31 -27 54.5t-57 23.5q-39 0 -62.5 -39t-23.5 -80q0 -51 34.5 -92t85.5 -41q70 0 118 53.5t48 122.5q0 143 -57 187q-80 41 -160 79l-8 -6l-8 6l-37 -10l-14 4q-111 -51 -136 -123l-12 -2 q-43 -66 -82 -193.5t-39 -205.5zM530 545q0 8 9.5 19t17.5 11q11 0 27 -14v-8q0 -41 -25 -45q-29 16 -29 37zM575 440q0 37 39 37q19 0 19 -35q0 -8 -13.5 -23.5t-19.5 -15.5q-25 0 -25 37zM662 377q26 0 26 -33q0 -12 -10 -29.5t-23 -17.5q-26 0 -26 38q0 42 33 42z" />
<glyph unicode="R" horiz-adv-x="1435" d="M29 1257q0 287 436 287q49 0 148.5 -5t148.5 -5q215 0 368 -96q182 -115 183 -314q0 -158 -66 -235q-43 -51 -198 -141v-10q0 -135 104 -136q12 0 25 2l12 -14q-59 -41 -128 -193.5t-69 -230.5q0 -199 166 -199q76 0 141.5 50.5t65.5 123.5q0 61 -46 110.5t-108 49.5 q-59 0 -98 -42t-39 -101q0 -84 99 -84q73 0 73 69q0 51 -35 58l-41 -37l31 -25v-18l-26 -17q-45 0 -46 74q0 25 34 44.5t61 19.5t45 -33t18 -62q0 -51 -31.5 -82.5t-82.5 -31.5q-59 0 -97.5 34.5t-38.5 94.5q0 76 48.5 125t123.5 49q78 0 135.5 -53t57.5 -131 q0 -68 -33 -113q-16 -23 -84 -84q-20 0 -63 -11.5t-66 -11.5q-18 0 -53 11.5t-51 11.5q-61 57 -81 95t-20 118q0 45 32 131t32 131q0 135 -85 225t-218 90q-106 0 -197 -61q-10 -104 -16 -260q-6 -188 -13 -260q-1 -8 -1 -15q0 -77 57 -143l12 -4l29 -43h-252l-17 14 q-14 -14 -84 -14q-43 0 -79.5 46t-36.5 89q0 57 28.5 100.5t83.5 43.5q39 0 68 -27t29 -66q0 -27 -18.5 -47t-45.5 -20l-31 18l4 27l23 -4l33 33q0 20 -19.5 34.5t-40.5 14.5q-37 0 -57 -32t-20 -71q0 -43 26.5 -72.5t69.5 -29.5q131 0 168 276q14 106 14 385q0 27 -39 58 l-57 45v22q47 18 53 21q33 16 43 32.5t29 219.5q16 188 16 245q0 104 -38 148.5t-142 44.5t-169 -73.5t-65 -180.5q0 -66 66 -104q55 -33 127 -33q53 0 94 40t41 93q0 72 -63 137q-74 20 -86 21q-45 0 -78 -40t-33 -87q0 -41 29.5 -69t70.5 -28q16 0 42 27t26 43 q0 61 -68 61q-43 0 -43 -24q0 -8 8.5 -33.5t6.5 -36.5l-45 66q0 27 18.5 48t44.5 21q68 0 90 -28l25 -72q-16 -57 -37 -79.5t-76 -33.5q-68 25 -92 46q-37 33 -37 96q0 51 49 111.5t99 60.5q80 0 130 -60.5t50 -142.5q0 -76 -49 -127t-125 -51q-94 0 -155.5 52t-61.5 144z M520 932q0 -14 2 -40t2 -40q127 -55 326 -55q119 0 205 34q111 45 135 144l45 182q0 82 -59 123q-23 16 -129 57q-39 -6 -39 -30q0 -6 17 -52.5t17 -76.5q0 -92 -70.5 -152.5t-164.5 -60.5q-70 0 -113 41t-43 108q0 53 42 115.5t93 62.5q55 0 106.5 -34.5t51.5 -88.5 q0 -43 -25.5 -71.5t-66.5 -28.5q-82 0 -82 72q0 14 21 28q8 -18 26 -53l33 -6l45 14q16 23 16 39q0 33 -43 62.5t-77 29.5q-35 0 -71 -52t-36 -89q0 -33 28.5 -71.5t59.5 -38.5q96 0 158 36q78 45 78 136q0 63 -68 162.5t-127 99.5q-45 0 -115.5 -27t-103.5 -57 q-16 -16 -47 -203q-27 -166 -27 -219zM543 297q0 49 49 49q33 0 33 -43q0 -57 -43 -57q-39 0 -39 51zM551 119q0 53 45 53q10 0 26.5 -22.5t16.5 -32.5q0 -18 -15.5 -40t-33.5 -22q-4 0 -15 4q-25 14 -24 60zM551 471q0 47 39 47q16 0 32.5 -15.5t16.5 -31.5 q0 -18 -13.5 -35.5t-29.5 -17.5q-45 0 -45 53zM557 633q0 16 13.5 34.5t29.5 18.5q12 0 25.5 -19.5t13.5 -31.5q0 -16 -13.5 -31.5t-29.5 -15.5q-39 0 -39 45z" />
<glyph unicode="S" horiz-adv-x="1056" d="M33 285q0 53 40 139t40 123q0 25 -11 51l29 27l193 -82q-23 -25 -86.5 -68t-81.5 -69q-33 -47 -33 -132q0 -121 153 -202q127 -68 252 -68q100 0 211 59q129 70 129 156q0 317 -323 318q-78 0 -117 -29q-29 -20 -82 -94q2 -16 -4 -48t-6 -44q0 -178 156 -179q76 0 126 35 q59 41 60 113q0 41 -30 70.5t-70 29.5l-68 -57l39 -37l24 16l11 -18l-39 -31q-29 0 -50.5 20.5t-21.5 49.5q0 41 32 68.5t73 27.5q57 0 97 -43t40 -100q0 -76 -60.5 -128.5t-138.5 -52.5q-240 0 -240 211v48q31 39 58 112q23 66 82 82q31 10 125 10q137 0 256 -63l49 63 q0 139 -152 205q-109 47 -270 47q-147 0 -266 109.5t-119 257.5q0 197 168 321q152 113 354 113q106 0 213 -55q127 -66 127 -164q0 -104 -45 -176q-39 -61 -133 -129h-12l-11 6l11 88q0 90 -91 90h-12l-39 -2q-47 -33 -47 -86v-16q25 -20 76 -33l47 24v29l-29 6l-14 -10 l-22 18q2 31 45 31q57 0 57 -41q0 -27 -29.5 -60.5t-56.5 -33.5q-33 0 -94 31l-10 49q0 53 36.5 93t89.5 40q74 0 119 -72l15 -6q76 63 75 125q0 78 -79 125q-70 41 -154 41q-182 0 -305 -100q-131 -106 -131 -285q0 -53 121 -172q80 -78 296 -115q225 -41 306 -106 q66 -55 90 -123l37 -103q33 -55 133 -98l-8 -18q-39 -18 -86 -56q-18 -207 -146 -335q-133 -135 -338 -136q-195 0 -352 101q-178 115 -178 297zM266 1176q0 55 47 55q29 0 29 -49q0 -45 -39 -45q-12 0 -24.5 13t-12.5 26zM313 1024q0 45 31 45q39 0 39 -45t-39 -45 q-31 0 -31 45zM328 1333q0 14 14 30.5t27 16.5q32 0 32 -41q0 -10 -13 -23t-23 -13q-37 0 -37 30zM430 1434q0 18 18.5 35.5t36.5 17.5q33 0 33 -29q0 -18 -19.5 -35.5t-37.5 -17.5q-31 0 -31 29z" />
<glyph unicode="T" horiz-adv-x="1642" d="M55 1323l47 104q117 74 838 74q45 0 134 5t134 5h4q412 0 412 -204q0 -61 -72 -105q-61 -37 -127 -37q-55 0 -105 39t-50 92q0 55 59 90q49 29 109 29l100 -74q0 -27 -28.5 -60.5t-55.5 -33.5q-31 0 -61 60l24 22l41 -37l35 39q0 14 -25.5 28.5t-42.5 14.5q-39 0 -73 -18 q-41 -20 -41 -58q0 -41 36.5 -66.5t79.5 -25.5q55 0 99 25q53 31 53 82l-53 114q-29 8 -105 19q-61 -33 -407 -55q-74 -57 -107 -277q-6 -41 -28 -319q12 -2 66 -69t67 -89l-17 -21q-57 -6 -91 -52t-34 -105v-88q0 -18 -2 -45v-29q0 -123 43 -195q37 -59 146 -139v-26h-393 l-62 14v16q39 23 111 82q27 31 43 531l-27 20q-49 2 -51 37q82 72 104 264q10 86 11 293q0 135 -84 166q-29 10 -205 10q-45 0 -137.5 36t-139.5 36q-51 0 -91 -34t-40 -85q0 -41 41 -68q34 -22 76 -22h4q18 0 44 13.5t26 29.5q0 43 -68 65l-41 -20q6 -29 53 -29v-12 l-30 -14q-16 0 -38 14t-22 31q0 31 30 51t60 20q37 0 67 -33.5t30 -70.5q0 -35 -45 -58.5t-82 -23.5q-57 0 -101.5 36t-44.5 91zM682 1264.5q16 23.5 29 23.5q30 0 30 -39q0 -12 -14 -34.5t-27 -22.5q-34 0 -34 33q0 16 16 39.5zM674 854q0 55 53 55q25 1 25 -32 q0 -16 -12.5 -42t-28.5 -26q-12 0 -24.5 15.5t-12.5 29.5zM684 1071q0 57 43 57h2q27 0 27 -34q0 -18 -14.5 -44t-30.5 -26q-27 0 -27 47zM934 501.5q14 20.5 31 20.5q32 0 32 -45q0 -18 -12 -40.5t-29 -22.5q-36 0 -36 48q0 19 14 39.5zM930 268q0 49 31 49q45 0 45 -63 q0 -53 -29 -53q-47 0 -47 67zM982 102q17 25 34 25q31 0 31 -49q0 -23 -11 -41q-8 0 -20 -9.5t-19 -9.5q-32 0 -32 41q0 18 17 43z" />
<glyph unicode="U" horiz-adv-x="1695" d="M37 1253q0 244 385 244h178l33 -10l-21 -53q-141 -78 -141 -351q0 -47 5 -142t5 -142q0 -45 -2 -136.5t-2 -136.5q0 -260 68 -387q94 -176 336 -176q240 0 309 209q35 106 35 422v377q0 188 -27 284q-43 154 -160 207v21q79 28 394 28h22q86 0 150.5 -83t64.5 -171 q0 -70 -37 -115.5t-106 -45.5q-184 0 -185 133q0 61 40 98t102 37q45 0 77.5 -25.5t32.5 -68.5q0 -51 -47 -86h-39l-45 6l-20 43l14 37h27l4 -31q4 -14 24 -14q41 0 41 43q0 39 -73 61q-41 -4 -72 -37l-25 -71q0 -80 113 -80q133 0 133 108q0 53 -33 113q-39 68 -88 68 q-115 0 -157 -13q-31 -27 -31 -129q0 -291 29 -526l73 -45q48 -31 48 -47q0 -2 -1 -4q-135 -61 -135 -174q0 -41 13.5 -130.5t13.5 -136.5q0 -150 -154 -254q-137 -94 -291 -94q-227 0 -432 70q-29 16 -71 67q-27 63 -41 258q-9 136 -9 249v22l-98 82q88 57 111 133 q14 49 14 174l-2 348q-16 16 -33 74q-16 51 -65 94l-49 -2l-7 -6q-159 -37 -159 -164q0 -47 73 -92h46l71 12l19 41q0 35 -21.5 64.5t-54.5 27.5l-23 -2l-28 -51l34 -29l41 27l7 -14l-56 -50q-16 0 -39.5 21.5t-23.5 38.5q0 39 32.5 69.5t71.5 30.5q57 -31 68 -43 q23 -25 22 -72q0 -112 -121 -112h-2q-55 0 -100 26q-53 31 -53 84zM600 131q0 14 10.5 32.5t22.5 18.5q49 0 49 -45q0 -47 -45 -47q-37 0 -37 41zM741 39q0 14 26 30.5t42 16.5q23 0 37 -12q2 -5 2 -13q0 -16 -18.5 -42.5t-34.5 -26.5q-8 0 -31 20.5t-23 26.5zM947.5 74.5 q27.5 29.5 43.5 29.5q25 0 25 -51q0 -20 -22.5 -38.5t-43.5 -18.5q-30 0 -30 31q0 18 27.5 47.5zM1072.5 208.5q21.5 18.5 41.5 18.5q29 0 29 -37q0 -20 -17.5 -36.5t-38.5 -16.5q-36 0 -36 31q0 22 21.5 40.5z" />
<glyph unicode="V" horiz-adv-x="1728" d="M23 1233q0 100 73 162q72 47 146 94q196 -16 196 -19h-2q55 0 70 15q14 -2 153 -4l46 -37l-11 -19q-43 -8 -86 -14q-35 -8 -63 -61l-2 -19q0 -6 205 -549l225 -596l8 4q74 207 180 558q129 426 129 528q0 45 -34 112l-35 66q0 39 206 39q156 0 244 -70q45 -124 45 -147 q0 -49 -66.5 -99.5t-117.5 -50.5q-47 0 -81 37t-34 84q0 37 32 71t69 34q35 0 63.5 -23.5t28.5 -56.5l-54 -51l-36 24l10 21l26 -9l15 17l-51 39l-60 -41l-4 -29q0 -29 20.5 -54.5t49.5 -25.5q49 0 100 36t51 83l-10 49q-23 18 -25 43q-29 31 -92 39q-51 0 -104 2 q-51 -66 -113 -344q-57 -258 -57 -362q0 -61 94 -164v-25h-31q-74 0 -84 -4q-25 -10 -34 -70q-4 -27 -15 -77q-74 -240 -225 -574h-25q-74 276 -112 400q-74 236 -150 387q-6 12 -55 31.5t-49 35.5l51 90q-123 270 -158 342q-90 193 -174 334l-71 10q-72 0 -126.5 -60 t-54.5 -132q0 -111 88 -111q45 0 88 19q57 23 58 59q0 84 -80 84q-16 0 -38.5 -16.5t-22.5 -32.5q0 -35 36 -35q20 0 50 10v-14l-54 -33q-18 2 -37.5 22.5t-19.5 39.5q0 35 25.5 66.5t60.5 31.5q49 0 80 -30.5t31 -80.5q0 -66 -68 -100q-53 -29 -125 -29q-53 0 -82 52 q-25 43 -24 98zM598 1315.5q12 19.5 27 19.5q32 0 32 -39q0 -51 -39 -51q-32 0 -32 35q0 16 12 35.5zM649 1133q0 14 23 49h20q27 -38 27 -56q0 -43 -29 -43q-12 0 -26.5 17.5t-14.5 32.5zM719 987q0 45 24 45q12 0 25.5 -16.5t13.5 -28.5q0 -45 -28 -45q-35 0 -35 45z M760 877q14 18 41 18q12 0 24.5 -20.5t12.5 -34.5q0 -12 -10.5 -25.5t-22.5 -13.5q-23 0 -43 53q-2 4 -2 23z" />
<glyph unicode="W" horiz-adv-x="2328" d="M41 1366q0 53 69.5 111.5t125.5 58.5l266 -4l6 -10l-47 -47q-29 -29 -29 -58q0 -70 59.5 -307.5t92.5 -300.5l88 -29v-14l-60 -90q14 -53 47 -266q25 -168 66 -258q57 59 148.5 256.5t91.5 271.5q0 49 -29 84q127 139 190 375q25 92 80 422l41 30q35 -98 105 -293 q53 -156 82 -301q4 -47 22 -108q47 -33 96 -76q-70 -41 -69 -72q0 -102 43 -295q35 -156 67 -294l156 532l-45 78q29 35 90 84q51 207 51 323v213l-28 68l-76 45v23l18 16q23 -2 49 -2q37 0 113 8t113 8l16 11l4 -9q84 -18 170 -18q35 0 64 -64q24 -55 24 -96 q0 -84 -41 -149q-47 -76 -125 -76q-63 0 -108 45t-45 108l14 84l88 66l29 2h4q34 0 64 -38q32 -40 32 -79q0 -29 -27.5 -70.5t-54.5 -41.5q-43 0 -65 69l18 31l29 -14l-8 -25l34 -24l39 75q-18 80 -63 80q-98 0 -98 -102q0 -53 32.5 -89t85.5 -36q127 0 127 164q0 35 -15 80 t-40 61l-35 2q-9 1 -17 1q-86 0 -181 -54q-41 -203 -134 -606l66 -99q-12 -18 -113 -94q-14 -260 -219 -743h-26l-19 22q2 14 2 29q0 55 -43 127l6 35q0 117 -43 288q-25 96 -76 289q-12 23 -48 39q-32 14 -56 14h-6v25q74 104 72 121l-95 434q-43 -150 -137 -444l51 -103 q-68 -68 -262 -500q-176 -393 -229 -397q-33 43 -76 350q-43 317 -90 406q-10 20 -54 33.5t-53 21.5l62 107q-25 133 -76 401q-63 305 -164 305q-41 0 -93 -44t-52 -85q0 -35 27.5 -64.5t62.5 -29.5q27 0 62.5 24.5t35.5 49.5l-75 69l-50 -45l41 -26l33 8q-12 -37 -41 -37 q-6 0 -72 45l41 70l60 14q41 0 69.5 -24.5t28.5 -65.5q0 -47 -47 -81t-96 -34q-14 6 -86 43zM973 972.5q12 14.5 26 14.5q25 0 25 -31q0 -37 -29 -36q-34 0 -34 23q0 15 12 29.5zM1016 1094q0 41 35 65q6 0 12 -6q16 -29 16 -47q0 -12 -14 -23.5t-27 -11.5q-23 0 -22 23z M1094 1319q18 -10 18 -39q0 -37 -27 -37q-28 0 -28 31q0 27 37 45zM1083 1438q0 16 17 32q25 20 26 25h15q8 -19 8 -33t-14.5 -34.5t-26.5 -20.5q-25 0 -25 31zM1657 -6q0 41 29 41q26 0 26 -39q0 -41 -26 -41q-29 0 -29 39zM1763 215q6 0 9 -2q20 -10 20 -43 q0 -14 -10 -32.5t-23 -18.5q-22 0 -22 47q0 22 26 49zM1784 346q0 37 33 37q28 0 28 -37q0 -47 -28 -47q-12 0 -22.5 16.5t-10.5 30.5zM1833 535q0 12 12.5 28.5t24.5 16.5q22 0 22 -35q0 -49 -28 -49q-31 0 -31 39z" />
<glyph unicode="X" horiz-adv-x="1622" d="M-4 236q0 96 64.5 168.5t158.5 72.5q51 0 109.5 -35.5t58.5 -85.5q0 -57 -50 -103t-108 -46q-37 0 -72.5 34.5t-35.5 71.5q0 31 40 65t70 34l62 -37l10 -31l-31 -59h-36l-11 12l39 39l-43 26q-12 0 -36.5 -18t-24.5 -31q0 -20 28.5 -43.5t49.5 -23.5q45 0 78.5 34.5 t33.5 79.5l-2 15q-14 23 -58 42t-75 19q-78 0 -131 -58.5t-53 -135.5q0 -68 35 -125q39 -66 102 -66q137 0 319 236q84 109 234 356q-16 51 -53 152q-33 90 -72 139q-2 109 -94 280q-84 160 -172 246q-47 0 -99.5 -55t-52.5 -102t35 -79t82 -32q39 0 65.5 27.5t26.5 66.5 q0 18 -24.5 35.5t-43.5 17.5q-59 0 -59 -49v-12q31 -16 49 -12l25 16v-25l-37 -30l-53 10l-19 47q0 31 56 84l47 6q33 0 63.5 -21.5t30.5 -52.5q0 -59 -40 -103t-99 -44t-97.5 43t-38.5 102q0 78 68 142.5t147 64.5q96 0 269 -16l16 -16l-14 -27q-70 -8 -70 -94 q0 -63 234 -572q63 45 135 238q33 80 67 162q55 135 56 166q0 23 -11.5 67.5t-11.5 67.5q0 37 98 37h226q113 0 185.5 -76t72.5 -189q0 -59 -72 -106q-63 -41 -127 -41q-192 0 -192 144q0 105 188 132l88 -53l6 -31q0 -37 -24.5 -71.5t-59.5 -34.5q-27 0 -49 19.5t-22 45.5 l20 27q12 -49 53 -49q16 0 29.5 18.5t13.5 34.5q0 18 -24.5 36.5t-44.5 18.5q-45 0 -86 -22q-47 -27 -47 -68q0 -108 152 -108h3q55 0 103.5 31.5t48.5 83.5q0 72 -44 136t-114 64q-119 0 -248 -145q-98 -111 -202 -307l-148 -279q53 -141 166 -418q113 -258 272 -309 l-22 -29h-19q-42 0 -108 -6q-88 -8 -125 -8q-88 0 -111 25q49 49 54 53q25 33 24 67q0 61 -78 234q-47 102 -112 242l-8 -2q-57 -86 -168 -256q-117 -180 -117 -269q0 -18 6 -35l-20 -28q-25 7 -83 7q-23 0 -51 -1l-139 -6l-22 24q-68 0 -115 80q-43 70 -43 142zM412 334 q0 12 14 33.5t25 21.5q22 0 22 -37q0 -25 -31 -57q-6 2 -14 4q-16 23 -16 35zM516 479q0 18 16.5 33.5t34.5 15.5q27 1 27 -32q0 -16 -21 -43q-6 -6 -22 -7q-35 0 -35 33zM616 604q0 45 37 45q29 0 29 -31q0 -27 -35 -45h2q-2 -2 -8 -2q-25 0 -25 33zM877 774q0 49 47 49 q26 1 26 -32q0 -45 -39 -46q-35 0 -34 29zM973 928q0 12 20.5 31.5t32.5 19.5q25 0 25 -33q0 -14 -16.5 -33.5t-30.5 -19.5q-31 0 -31 35zM1071 1112q0 12 17.5 32.5t29.5 20.5h2q25 0 25 -32q0 -14 -15.5 -36t-29.5 -22q-29 0 -29 37z" />
<glyph unicode="Y" d="M29 1192q0 313 370 313q23 0 68 -2t68 -2q51 0 61 12l104 -14l11 -22l-25 -27l-59 -12l-64 -78q8 -80 103 -223q37 -10 63 -11q16 0 29 4l47 -24q-12 -23 -24.5 -75t-22.5 -68l82 -117l18 -6q39 0 129 196l-47 82l14 25l58 -2h2q60 0 110 110q45 100 45 193q0 20 -4 35 l29 20l51 -8q201 0 346 -10q14 -6 15 -17q0 -4 -2 -10q-96 -27 -244 -86q-98 -61 -230 -272l66 -123l-16 -19q-78 41 -119 43q-121 -227 -162 -413q-37 -168 -37 -449q0 -96 70 -143q18 -12 82 -47q-23 -25 -262 -25q-141 0 -142 35l11 20q63 27 112 82q55 250 55 414 q0 150 -28 250q-10 39 -53 119q-39 74 -48 112h-10q-82 0 -82 31l29 82q-12 20 -119 219q-2 -164 -63.5 -230.5t-225.5 -66.5q-74 0 -118 68q-41 59 -41 137zM59 1202q0 -68 35 -117q39 -55 105 -55q127 0 178 33q67 43 67 162q0 59 -52 98t-113 39q-51 0 -98.5 -55.5 t-47.5 -108.5q0 -43 57 -70q43 -22 91 -22h4q39 0 64.5 26.5t25.5 65.5q0 10 -15 57q-45 18 -51 19q-23 0 -47 -18.5t-24 -38.5q0 -29 51 -29q6 0 33 26l6 -8v-12q-29 -45 -76 -45q-16 0 -32.5 19.5t-16.5 35.5q0 39 40 72t79 33q33 0 60.5 -30t27.5 -62q0 -59 -39 -102.5 t-97 -43.5q-61 0 -112 29q-59 33 -60 90q0 63 60.5 137t122.5 74q80 0 159 -66q-61 123 -139 123q-113 0 -179.5 -71.5t-66.5 -184.5zM909 158q0 12 15.5 24.5t27.5 12.5q35 0 35 -45q0 -47 -26 -48q-12 0 -46 33q-6 33 -6 23zM926 348q0 33 32 33q41 -1 41 -64 q0 -28 -19 -28h-1q-53 0 -53 59zM932 524q0 47 35 47q32 0 32 -47q0 -14 -10 -30.5t-22 -16.5q-35 0 -35 47zM944 719q0 39 31 39q35 0 35 -47q0 -10 -9.5 -26.5t-19.5 -16.5q-14 0 -25.5 17t-11.5 34z" />
<glyph unicode="Z" horiz-adv-x="1372" d="M37 -88q35 115 106 344q57 176 160 324q84 100 225 307q16 31 136 157q84 90 84 191q0 100 -130 100q-63 0 -122 -43q-63 -49 -64 -110l4 -25l43 -39q18 -12 58 -12h22q37 12 55 78l-39 39h-10l-8 -23h-29l-6 21q0 41 51 41l37 -7l43 -57q-16 -59 -51 -108l-74 -23 q-47 0 -88 27q-47 29 -47 73q0 82 78 144q72 59 156 59q106 0 168 -96l2 -45l39 -37l307 229l-4 6q-147 20 -330 21q-455 0 -569 -80q-49 -33 -74 -98q-14 -39 -43 -117h-25l-8 14q-2 152 -22 295l32 29q209 6 629 8l582 -16l6 -35q-352 -258 -541 -432q-356 -330 -358 -524 q25 -25 117 -27q114 -93 114 -221q0 -94 -55 -149.5t-148 -55.5q-55 0 -102 40t-47 95q0 59 46 102t106 43q31 0 59.5 -22.5t28.5 -52.5q0 -84 -76 -84q-47 0 -47 33l14 36l37 -34h12l21 38q0 18 -19.5 33t-38.5 15q-104 0 -104 -99q0 -104 131 -104q143 0 143 160 q0 43 -26.5 98t-59.5 88q-59 10 -102 10q-92 0 -158 -112q-57 -98 -57 -199q0 -152 471 -152q35 0 105.5 3t105.5 3q45 0 141 17v26l25 -4q23 0 37 47q12 39 12 68q0 57 -38 91t-97 34q-47 0 -88 -25q-49 -29 -50 -71q0 -35 29 -58.5t64 -23.5q86 0 84 51l-37 43l-17 -12 h-22l-6 14l41 33q76 0 75 -72q0 -96 -116 -96q-53 0 -93 33.5t-40 85.5q0 57 63 96q55 35 115 35q72 0 122 -45t50 -115q0 -109 -74 -160l8 -20l-20 -19q-100 0 -301 4.5t-301 4.5q-301 0 -392 -58zM561 719v22q0 6 2 11q4 12 23.5 33.5t29.5 21.5q29 0 29 -47 q0 -53 -41 -53q-16 0 -43 12zM727 911q0 18 18.5 32.5t36.5 14.5q31 1 31 -32q0 -18 -17.5 -37t-35.5 -19q-33 0 -33 41zM905 1063q0 14 17.5 30.5t31.5 16.5q33 0 33 -35q0 -43 -49 -43q-33 0 -33 31zM1073 1231q33 27 37 26h10q35 1 35 -28q0 -18 -20.5 -43t-38.5 -25 q-12 0 -19 41q-4 18 -4 29zM1251 1329q0 25 21.5 46.5t46.5 21.5q37 0 37 -29q0 -18 -33 -40.5t-53 -22.5q-18 0 -19 24z" />
<glyph unicode="[" horiz-adv-x="702" d="M39 127q6 16 6 27q0 6 -2 10l10 16q51 -29 105 -35q31 158 43 486q6 154 6 485v101q-45 -8 -66 -21q-25 -20 -51 -41q-14 20 -14 33q0 8 4 12q2 31 -8 43q4 14 4 23q0 8 -2 12l10 18q61 -35 117 -36q0 33 -43 92l14 22q45 8 139 17l56 -2l8 -11q-2 -14 -24.5 -51 t-26.5 -61q57 0 170 4q129 6 153 43l12 -8q6 -37 17 -115l-4 -6l-8 2q-68 45 -293 37l-54 -2q-25 -244 -49 -490q-27 -281 -26 -489q0 -39 6 -95q66 0 194 5q150 8 174 45l13 -9q6 -37 16 -114l-4 -6l-8 2q-66 43 -293 36l-86 -2q6 -49 27 -77q37 -51 45 -66q-2 -2 -22.5 -7 t-20.5 -20h-19l-12 11l-53 2l-23 -15l-39 19l-20 -4l-27 24q41 76 55 123l-41 -10q-12 -16 -45 -43q-14 18 -14 31q0 8 4 12q2 33 -10 43z" />
<glyph unicode="\" horiz-adv-x="747" d="M-154 1243l4 12q59 29 173 93l24 -13q-2 -86 33 -145q92 -156 319 -485q264 -383 330 -435q37 -28 107 -69l-11 -37l-18 -6l-25 -35l-26 -2l-43 -29l-6 -16l-15 -10q-8 14 -24 8q-8 -2 -27 -8q-2 18 0 49q4 37 4 49q0 106 -337 559t-447 508z" />
<glyph unicode="]" horiz-adv-x="702" d="M29 1182q8 39 16 114l12 9q25 -37 154 -43l172 -5q-6 23 -27.5 60t-25.5 55l10 10h53q47 -8 142 -14l12 -25q-41 -59 -43 -90q55 2 117 35l10 -16q-2 -4 -2 -10q0 -8 6 -25q-12 -12 -10 -45q4 -4 4 -10q0 -12 -15 -33q-27 18 -51 39q-20 12 -63 20l-2 -98q-4 -186 8 -485 q14 -342 41 -488q55 8 104 35l11 -16q-2 -4 -3 -11q1 -8 7 -24q-12 -12 -11 -45l7 -8q0 -14 -17 -35q-12 8 -45 43l-41 10q16 -47 55 -123l-26 -24l-19 4l-41 -17l-22 13l-51 -2l-15 -11h-18q0 14 -20 20l-21 7q6 14 43 65q20 29 27 80h-84q-242 0 -295 -35l-9 -4l-4 7 q8 39 17 116l12 6q25 -35 174 -43q72 -4 195 -6q8 55 8 97q0 201 -29 489l-49 489h-51q-242 0 -295 -34l-8 -4z" />
<glyph unicode="^" horiz-adv-x="600" d="M63 1430q86 35 240 284l-22 21q-12 2 -39 6l6 20l4 6h6q18 14 18 27q16 6 19 14l12 2q6 -39 17 -63q6 14 4 41l8 2q20 -14 59 -49l2 -6l-6 -2q-20 0 -43 -29q33 -49 101 -148q78 -111 112 -114l2 -10q-16 -23 -51 -64h-4q-2 2 -2 16q0 23 -76 148q-70 113 -100 151 q-201 -207 -201 -309v-10q-6 -2 -27 18q-10 14 -20 15q-8 18 -16 18z" />
<glyph unicode="_" horiz-adv-x="878" d="M25 -66q4 14 4 25q0 6 -2 12l10 17q66 -37 131 -37q625 0 655 29l27 24l12 -8q6 -37 17 -115l-5 -6l-8 2q-29 18 -51 23q-29 2 -55 4q-86 10 -434 10q-168 0 -236 -23q-16 -16 -47 -43q-8 25 -14 23v12l4 8q2 33 -8 43z" />
<glyph unicode="`" horiz-adv-x="378" d="M-31 1686q20 37 78 77q66 47 84 70h27q0 -18 8 -59q8 -20 100 -158q76 -113 74 -162q-2 0 -10 -4t-15 -4q-14 0 -55 72q-55 96 -86 135q-57 72 -115 71q-20 0 -63 -43z" />
<glyph unicode="a" horiz-adv-x="1050" d="M33 362q0 205 102 416q123 254 311 254l33 -12q53 6 99 6q47 0 90 -6l22 8q63 -14 103 -14l4 -27l-19 -16q-108 -23 -108 -204q0 -97 10 -286.5t10 -283.5q0 -80 31 -154q41 -98 110 -98q61 0 121 80q55 74 56 137q0 35 -35 59.5t-72 24.5q-35 0 -66.5 -32t-31.5 -67 q0 -18 16.5 -32.5t34.5 -14.5q14 0 33.5 11.5t23.5 23.5l-26 25v22l18 8q49 0 49 -53q0 -78 -96 -78q-35 0 -64.5 22.5t-29.5 55.5q0 51 42 104.5t93 53.5q57 0 102 -38t45 -95q0 -100 -59 -170q-12 -14 -65 -68q-184 -28 -522 -28h-23q-51 0 -146 28q-61 59 -149 172 q-47 100 -47 266zM80 322q0 -154 72 -256q82 -115 229 -115q156 0 203 123q26 70 26 260q0 645 -139 645q-31 0 -92 -16q-70 -18 -86 -33q-88 -78 -154 -285q-59 -186 -59 -323zM461 223q0 8 39 60h24q15 -60 15 -56q0 -41 -31 -41q-12 0 -29.5 12.5t-17.5 24.5zM465 727 l29 41h34q0 -4 7.5 -16.5t7.5 -18.5q0 -51 -43 -51q-10 0 -22.5 17.5t-12.5 27.5zM483 496q0 45 43 45q27 0 27 -35q0 -55 -39 -55q-31 0 -31 45z" />
<glyph unicode="b" horiz-adv-x="1175" d="M41 1335q0 80 69.5 150.5t149.5 70.5q18 0 39 -4l16 9l7 -9q39 -12 110 -12q80 2 111 21h65l6 -35q-2 -6 -59 -31q-59 -70 -59 -160v-475q139 131 317 131q164 0 254 -117q84 -106 84 -274q0 -199 -64 -367q-81 -214 -237 -214q-10 0 -19 1l-6 -6l-73 -10q-20 0 -127 25 q-8 2 -50.5 27.5t-52.5 21.5q25 -23 78 -51v-35q-168 -39 -317 -39q-35 0 -68 2l-10 35q149 105 149 254q0 37 -6 108.5t-6 108.5q0 82 13.5 243.5t13.5 243.5v469q0 41 -54 80l-8 -10l-59 24q-162 -27 -162 -159q0 -31 43 -56.5t76 -25.5q63 0 63 61q0 74 -55 74l-45 -33 l35 -31l28 33l11 -20q0 -27 -49 -39l-70 45q0 29 61 80l35 2h5q38 0 62 -30q26 -32 27 -73q0 -49 -35.5 -75.5t-84.5 -26.5q-41 0 -93 29q-59 33 -59 69zM197 137q0 16 18 38t35 22q37 0 37 -47q0 -41 -39 -41q-51 0 -51 28zM197 467q0 12 16 41q23 37 25 43h30q0 -8 13 -16 q14 -32 14 -48q0 -41 -37 -41q-61 0 -61 21zM209 715q0 18 25.5 42.5t44.5 24.5q26 0 26 -47q0 -65 -49 -65h-2q-12 0 -28.5 16t-16.5 29zM219 297q0 20 19.5 38.5t40.5 18.5q40 0 40 -45q0 -16 -18 -37.5t-35 -21.5q-6 0 -15 5t-13 5q-18 33 -19 37zM469 291q0 -41 6 -58 q8 -23 92 -73.5t111 -50.5q57 0 144 80.5t87 136.5q0 47 -30 92q-10 14 -68 76q-59 6 -51 6h3q0 -1 -69 -6l-6 -11q-70 -29 -70 -94q0 -37 38 -67.5t77 -30.5q63 0 64 47q0 27 -31 27q-4 0 -17.5 -7.5t-17.5 -7.5q-27 0 -26 21q0 39 57 39q76 0 76 -62q0 -39 -32 -70.5 t-71 -31.5q-53 0 -105 45t-52 98q0 61 57 109.5t121 48.5q76 0 135 -72t59 -147q0 -51 -51 -114.5t-57 -90.5l37 -19q72 0 137 144q57 125 57 209l-6 14l4 31q0 8 -5 27.5t-5 29.5t4 16q-20 8 -21 43q0 131 -272 283q-143 -12 -274 -172q-29 -233 -29 -438z" />
<glyph unicode="c" horiz-adv-x="907" d="M41 528q0 201 115 353q125 168 317 168q78 0 160 -39q92 -42 92 -107v-8l-2 -21q-57 -43 -133 -92l-21 21q0 4 27 45t27 74q0 79 -144 79h-4q-154 0 -254 -151q-90 -133 -90 -295q0 -156 113 -362q127 -233 270 -234q164 0 254 129q0 18 -40 50t-50 50v15l18 10 q27 -12 72 -49l98 -17l21 -22q0 -4 -82 -79t-97.5 -80t-31.5 -7q-29 -6 -35 -27q-20 0 -62 -9t-63 -9q-104 0 -147 14l4 6q-29 27 -84 35q-248 272 -248 559zM182 616q0 16 11.5 35t25.5 19q12 0 23.5 -17.5t11.5 -31.5t-12.5 -31t-24.5 -17q-10 0 -22.5 16.5t-12.5 26.5z M205 430q0 16 13 39t28 23q12 0 24.5 -20t12.5 -32q0 -49 -43 -49q-35 0 -35 39zM279 264q0 12 10 30.5t20 18.5h1q36 0 36 -67q0 -33 -27 -33q-16 0 -28 17.5t-12 33.5zM369 102q0 47 37 48q40 -1 40 -46q0 -41 -34 -41q-43 0 -43 39z" />
<glyph unicode="d" horiz-adv-x="1212" d="M78 699q53 96 180 163q10 6 244 107q70 -16 209 -72l28 4q31 51 31 68q0 41 -16 131l10 18q0 174 -14 234q-33 135 -146 155l-20 37l10 17h96l10 -9q69 -6 109 -6h18q-2 8 9 10q12 4 14 -4l154 27q78 0 130 -55t52 -133q0 -154 -137 -154q-59 0 -104.5 38t-45.5 95 q0 94 92 94q98 0 99 -67q0 -27 -19.5 -49.5t-46.5 -24.5l-39 31l25 24l22 -8l12 6v27q-14 20 -43 20q-61 0 -61 -49q0 -92 113 -92q92 0 92 100q0 61 -45 108.5t-107 47.5q-88 0 -116 -147q-2 -10 -15 -207q-33 -520 -33 -563v-213q0 -152 33 -236q37 -102 144 -188v-13 l32 -41v-16l-26 -10q-159 22 -226 22h-6q-63 0 -94 -12l-29 27q37 23 72 88l-2 8q-96 -51 -129 -64q-53 -18 -139 -18q-197 0 -320 154q-114 142 -114 341q0 153 53 249zM133 463q0 -166 31 -246q41 -106 168 -180q27 0 43 47q-137 162 -137 293q0 135 118 235q98 25 113 25 q78 0 142.5 -62.5t64.5 -138.5q0 -86 -39 -143q-43 -66 -125 -66q-66 0 -115 43t-49 107q0 51 35 87t86 36q8 0 39 -6q0 -2 22 -23q16 -14 17 -51q0 -78 -55 -78h-3l-24 18v15q27 16 45 22l6 29q0 6 -19.5 17.5t-27.5 11.5q-29 0 -56.5 -24.5t-27.5 -53.5q0 -49 38 -77 t87 -28q61 0 96 52q33 45 33 108q0 59 -58.5 109.5t-117.5 50.5q-78 0 -133.5 -64.5t-55.5 -144.5q0 -104 88 -213q94 -115 195 -115q41 0 64 19q131 102 131 188q0 27 -3.5 79t-3.5 79q1 151 21 321q-205 109 -303 109q-33 0 -111 -47q-66 -39 -102 -72 q-117 -102 -117 -268zM893 358q0 70 43 70q39 0 39 -51q0 -53 -43 -53q-39 0 -39 34zM899 782q0 18 13.5 37t31.5 19q31 0 31 -45q0 -16 -14.5 -34t-30.5 -18q-10 0 -20.5 15.5t-10.5 25.5zM903 594q0 47 37 47q35 0 35 -43q0 -57 -39 -57q-33 0 -33 53zM911 164 q0 20 14.5 41.5t35.5 21.5q32 0 32 -47q0 -29 -32 -41q-2 0 -7.5 -6t-11.5 -6q-10 0 -20.5 13.5t-10.5 23.5z" />
<glyph unicode="e" horiz-adv-x="942" d="M37 455q0 264 129 417q137 166 397 166q125 0 194.5 -41t108.5 -151q44 -125 62 -156l-19 -28q-276 -43 -432 -123q-209 -109 -295 -320q162 -205 336 -205q223 0 316 262l26 -28q-4 -84 -103.5 -184.5t-185.5 -118.5l-8 -13q-12 0 -37.5 -5t-38.5 -5q-39 0 -120 10 l-11 13q-158 33 -245 194q-74 139 -74 316zM96 518q0 -47 10 -125l27 -10q33 0 146 70q143 88 235 133q160 78 287 88q14 55 14 82q0 86 -70.5 146.5t-156.5 60.5q-145 0 -248 -27q-6 -6 -14 -16q-23 -8 -64 -35q-113 -94 -145 -258zM222.5 544.5q17.5 18.5 27.5 18.5 q29 0 29 -33q0 -14 -15.5 -26t-30.5 -12q-28 0 -28 22q0 12 17.5 30.5zM356 612q0 6 9 23l10 20h43q14 -26 14 -30q0 -14 -16.5 -30.5t-30.5 -16.5q-29 0 -29 34zM528 680q0 14 20.5 28.5t37.5 14.5q32 0 32 -27q0 -41 -47 -41q-8 0 -25.5 9.5t-17.5 15.5z" />
<glyph unicode="f" horiz-adv-x="1007" d="M20 70q0 59 55.5 117.5t114.5 58.5q37 0 73 -40t36 -77q0 -88 -72 -88q-25 0 -51 14q-33 16 -33 39l50 66l8 -13l-13 -43q0 -23 25 -22q45 0 45 47q0 27 -21.5 49.5t-48.5 22.5q-39 0 -83 -44t-44 -83q0 -106 140 -107q102 0 133 125q14 59 14 211q0 145 -16 381 q-18 27 -88 68v26l41 47q41 2 41 29q0 88 -13.5 261t-13.5 261q0 18 -9 52t-9 51l4 34q164 33 331 33q20 0 98 -18q71 -17 90 -17h3q35 -47 74 -118q45 -88 45 -127l-27 -33q-43 -4 -127 -4l-6 22l33 35v21q0 61 -23 88q-18 20 -61 45q-49 25 -66 41l-51 2l-51 -2l-8 -11 q-151 -54 -151 -273q0 -21 1 -44l19 -289q66 -14 143 -14q29 0 98.5 14.5t87.5 26.5h4q19 0 97 15q86 18 100 26l20 -29q-2 -29 -149 -106l-27 4q-100 0 -192 -21q-125 -29 -168 -82q-6 -120 -6 -202v-39q0 -74 2 -219q4 -174 45 -230q8 -12 49 -24q27 -8 27 -47l-11 -9 q-38 2 -83.5 2t-98.5 -2q-170 -6 -178 -6l-47 4q-100 72 -101 144z" />
<glyph unicode="g" horiz-adv-x="862" d="M23 561q0 186 94 327.5t266 201.5q182 258 272 258q164 -1 164 -136q0 -61 -39 -108t-98 -47q-43 0 -71.5 29.5t-28.5 72.5q0 59 106 90l62 -41l-19 -37h-20l-6 19l-25 12l-39 -14l-18 -35q0 -16 21.5 -35.5t37.5 -19.5q39 0 67.5 29.5t28.5 68.5q0 53 -24 76 q-14 12 -72 35l-27 2h-4q-29 0 -65 -28q-39 -30 -47 -58l-11 -9l-6 -61q0 -35 74 -90q92 -70 133 -137q72 -117 72 -301q0 -178 -82 -314q-92 -154 -256 -186v-117l12 -20q82 43 105 57q57 37 90 78l14 2q27 29 78 90h12l23 -59q-29 -160 -52 -334q-6 -59 -18 -178 q-27 -197 -238 -197q-55 0 -97 46t-42 101q0 78 47 146q51 76 127 76q135 0 135 -168q0 -111 -131 -111q-25 0 -44 32t-19 58q0 61 47 62l61 -35v-21l-53 5l-16 -19l28 -41q51 8 68.5 20.5t17.5 59.5q0 66 -53 111l-41 6q-45 0 -89 -60.5t-44 -107.5q0 -119 121 -119 q96 0 150 84q45 72 45 174q0 92 -11 297l-8 4q-137 -84 -276 -254l-25 14q-18 188 -65 295q-178 88 -234 170q-65 93 -65 283v6zM68 612q0 -113 41 -209q45 -111 130 -163t95 -52l28 11q4 10 11 47q4 31 -2 45q20 39 32 39t35 -60q25 -66 33 -73q244 49 244 436 q0 158 -76 276q-86 139 -236 140q-125 0 -233 -160q-102 -145 -102 -277zM514 864q0 14 14.5 28.5t28.5 14.5q35 0 35 -41q0 -10 -12.5 -27.5t-22.5 -17.5q-12 0 -27.5 15.5t-15.5 27.5zM532 365q0 47 41 47q37 0 37 -47q0 -57 -41 -58q-37 0 -37 58zM605 743q13 27 32 27 q8 0 17.5 -15.5t9.5 -25.5q0 -18 -15.5 -35.5t-34.5 -17.5q-22 0 -22 18q0 22 13 49zM596 537q0 47 35 61q37 -16 37 -53q0 -55 -41 -56q-31 0 -31 48z" />
<glyph unicode="h" horiz-adv-x="1228" d="M55 1307q0 98 69 155.5t169 57.5q45 0 158 -13q71 -7 121 -7q20 0 36 1l25 -22l-15 -27q-31 -4 -88 -29q-27 -20 -51 -238q-21 -187 -21 -255q0 -11 1 -19l4 -55q39 76 121 117t172 41q129 0 172 -168q22 -84 22 -258v-15q0 -90 -20 -237l-33 -238q-2 -13 -2 -25 q0 -50 27 -85q35 -51 98 -51l10 6q55 0 88 49q29 43 29 102q0 74 -66 74q-116 0 -116 -92q0 -49 47 -49q29 0 39 32l-50 33v21l31 10q63 0 64 -57q0 -29 -21.5 -59t-48.5 -30q-98 0 -98 107q0 125 145 125q49 0 94 -29q21 -23 21 -86q0 -96 -51 -151l18 -19 q-18 -2 -66.5 -20.5t-66.5 -18.5q-72 1 -126 63q-47 54 -47 116q0 9 1 18l59 469q6 49 6 72q0 174 -90 268q-90 29 -129 29q-74 0 -164 -136q-84 -127 -83 -206v-332q8 -279 47 -336l-21 -29q-37 16 -121 19q-66 2 -129 2l-24 26v17q160 10 164 452v197l8 666q0 10 2 43v43 q0 129 -107 129q-70 0 -123 -41q-59 -45 -59 -113q0 -31 42 -66.5t73 -35.5q23 0 41 26.5t18 50.5q0 35 -47 52l-41 -23v-20l21 -9l36 23q0 -20 -15 -39.5t-36 -19.5l-47 40q0 33 27.5 61t60.5 28q31 0 53.5 -21.5t22.5 -52.5q0 -55 -25 -92q-29 -45 -82 -45q-41 0 -87 44 t-46 85zM401 1509v9h13v-9h-13zM477 580q0 23 15.5 44t37.5 21q29 0 29 -33q0 -23 -16.5 -49t-36.5 -26q-29 0 -29 43zM481 397q0 16 19.5 37t36.5 21q26 0 26 -41q0 -63 -43 -64q-14 0 -26.5 16.5t-12.5 30.5zM492 201q0 49 43 49q28 0 28 -41q0 -53 -37 -53q-35 0 -34 45z M500 20q0 16 20 41l31 7q37 0 37 -41q0 -18 -15.5 -39t-33.5 -21q-39 0 -39 53z" />
<glyph unicode="i" horiz-adv-x="579" d="M37 2q0 66 59 66l41 -9v-26l-24 -19l-11 2q-10 0 -20 -6l18 -28l47 -15q27 0 39 92q2 66 7 117q4 43 12 119q10 86 10 121v119l-16 227q-12 156 -41 209l-58 37l33 22q154 8 295 8q35 0 67.5 -38.5t32.5 -73.5q0 -29 -26.5 -54.5t-55.5 -25.5q-31 0 -59 24v25l23 10 l43 -18q31 0 30 37q0 27 -23.5 45t-51.5 18q-70 0 -86 -86q-6 -31 -7 -141v-754q0 -55 101 -76q-4 -31 -10 -36q-10 -12 -35 -12.5t-67 -2.5t-64 -2q-203 0 -203 125zM117 1219q0 57 22 88q31 33 62 67l65 25q39 14 70 14q63 0 90.5 -18.5t58.5 -77.5q-25 -10 -43 -27 q-6 18 -38.5 30.5t-57.5 12.5q-47 0 -88 -28q-47 -31 -47 -76q0 -37 26.5 -63.5t63.5 -26.5q41 0 57 28v17q-4 4 -30 4q-14 0 -47 33h-2v12q0 14 19 29.5t34 15.5q25 0 56.5 -33t31.5 -57q0 -39 -55 -70q-45 -28 -88 -28h-3q-66 0 -108 30q-49 35 -49 99z" />
<glyph unicode="j" horiz-adv-x="632" d="M-90 -147q0 66 47 129q50 71 111 71h2q59 0 98 -54t39 -116q0 -41 -30 -73.5t-71 -32.5q-27 0 -62.5 22.5t-35.5 46.5q0 72 55 72l29 -10v-14l-33 -27l-6 -19q0 -28 50 -28h3q61 0 62 74q0 41 -26.5 76.5t-67.5 35.5q-49 0 -87 -51t-38 -102q0 -117 170 -117q68 0 123 53 q50 48 50 106q0 7 -1 13l-31 285l-29 -5q-31 0 -59.5 16.5t-28.5 45.5q0 23 21.5 46t44.5 21l6 -12l-27 -53l43 -23q63 0 64 152q0 80 10 240.5t10 240.5q0 248 -63 316l-45 -4l-4 28q68 39 180 39q78 0 96 -2q35 -8 84 -39l19 -65l-11 -33q-20 -12 -59 -31l-27 25 q4 10 27 16t29 12q2 27 -20.5 52.5t-49.5 25.5q-80 -37 -80 -233v-484q0 -86 25 -141q18 -41 78 -121l-11 -20l-53 -17q-43 -84 -43 -260q0 -31 19.5 -86t19.5 -76q-150 -31 -244 -75l-30 12q-25 -8 -54 -8q-68 0 -128 47t-60 113zM227 1430q0 -102 129 -103q117 0 117 84 q0 72 -65 72q-16 0 -34 -15.5t-18 -31.5q0 12 9 -23h53q6 0 9 6t9 6q10 0 17 -12v-24q-53 -55 -74 -56q-82 0 -82 101q0 51 42 85.5t95 34.5q98 0 101 -176l10 -10q18 35 18 66q0 70 -55 145.5t-123 75.5q-33 0 -111 -62q-47 -123 -47 -163z" />
<glyph unicode="k" horiz-adv-x="1060" d="M57 1348q0 198 331 198h3q6 0 111 -6l20 -14q-63 -37 -98 -133q-29 -77 -29 -158v-10q0 -18 1 -39q0 -64 -5 -158q-4 -139 -4 -197q0 -366 64 -366q31 0 151 250q129 264 195 305q20 0 60 3t61 3l43 -6q47 -41 53 -49q18 -25 18 -68q0 -53 -40 -104t-93 -51 q-39 0 -76 24.5t-37 61.5q0 88 95 88q10 -4 57 -23l-6 -22l-51 4h-9q-44 0 -45 -39q0 -23 27 -38.5t51 -15.5q86 0 86 109q0 37 -30.5 62.5t-69.5 25.5q-141 0 -313 -463q18 -23 70 -55.5t73 -54.5q39 -43 45 -103q4 -37 20 -86l-18 -24v-123q0 -49 30.5 -83t80.5 -34 q45 0 76.5 23.5t31.5 66.5q0 84 -53 84q-14 0 -38 -14.5t-24 -26.5q0 -29 33 -24v-17l-35 -18q-39 0 -39 57q0 59 111 88l47 -16q12 -10 27.5 -47.5t15.5 -53.5q0 -63 -47 -105t-113 -42q-104 0 -135 88q-14 41 -14 170q0 92 -24.5 144.5t-94.5 111.5l-35 6q-51 0 -106 -131 q-51 -121 -51 -184q0 -92 59 -180l-14 -15q-88 -14 -117 -14q-41 0 -111 24q12 14 68 78q45 51 45 416q0 270 -20 588l8 8q2 31 14 129q10 82 10 129q0 137 -45 215h-90q0 -8 -33 -24q-88 -45 -88 -125q0 -88 111 -88q61 0 61 65q0 61 -53 61q-29 0 -37 -43l56 -22l-60 -21 l-37 19v12q0 96 84 96q39 0 64.5 -27.5t25.5 -68.5q0 -47 -33.5 -77.5t-82.5 -30.5q-139 0 -140 125zM459 596q0 33 24 33h25q4 -5 4 -17q0 -16 -6 -30q-6 -4 -17 -17q-31 16 -30 31zM504 -61h31v-9h-31v9zM518 713q0 45 39 45q-2 0 18 -6q7 -1 7 -17t-13.5 -33.5 t-27.5 -17.5q-23 0 -23 29zM586 854q0 31 35 31q28 0 28 -25q0 -18 -24 -43h-29q-10 31 -10 37zM664 983q0 -4 14 39h49v-43q0 -8 -15.5 -16.5t-25.5 -8.5q-23 0 -22 29z" />
<glyph unicode="l" horiz-adv-x="718" d="M43 1405q0 80 61 123q53 37 138 37q43 0 131 -6.5t131 -6.5q72 0 131 13l29 -17q-23 -39 -89 -53q0 4 -43 -61.5t-43 -120.5q0 -190 -36 -1127v-22q0 -187 133 -187q31 0 58.5 24t27.5 54q0 27 -58 56l-28 -23l8 -25l-10 -26h-19l-30 45q2 23 29.5 46.5t49.5 23.5 q31 0 65 -32t34 -63q0 -51 -35 -88t-86 -37q-8 0 -82 15l-4 8h-137l-37 -14q-4 4 -15 4q-12 0 -45.5 -11.5t-46.5 -11.5q-35 0 -55 25q0 27 47 26q100 74 145 492q31 281 31 577q0 133 -16 242q-29 191 -95 191h-1l26 -62q0 -55 -34.5 -95t-90.5 -40q-59 0 -99 35t-40 92z M84 1411q0 -92 106 -92q76 0 76 72q0 59 -55 59q-16 0 -34.5 -15.5t-18.5 -31.5q4 -4 26 -49l-8 -8h-20q-12 0 -25.5 16t-13.5 29q0 31 39 68.5t69 37.5q-12 0 56 -18l-13 14q-14 6 -22 25q-14 6 -37 6q-125 0 -125 -113z" />
<glyph unicode="m" horiz-adv-x="1622" d="M33 119q0 76 47 112q33 27 117 48q84 -25 92 -31q23 -16 35 -94q-18 -45 -27 -58q-14 -23 -47 -45l-45 -4q-33 0 -66 21q-39 23 -39 53l47 90l58 10q51 0 51 -53l-23 -49h-20l4 33l-24 32l-52 -51q0 -37 72 -37t72 60q0 77 -102 77h-3q-47 0 -78.5 -30.5t-31.5 -77.5 q0 -55 41 -89t96 -34q135 0 176 150q18 70 23 258q0 55 -5 153q-4 106 -4 154q0 182 58 268q72 104 245 105q70 0 134.5 -33t87.5 -92q77 112 230 112h3q229 0 229 -391q0 -31 -4 -96l-26 -430q-1 -11 -1 -20q0 -107 81 -107q55 0 93 36.5t38 92.5q0 71 -48 71h-1 q-27 0 -49.5 -27.5t-22.5 -53.5l8 -7q16 -2 16 33l5 21l32 -17l11 -28q0 -12 -24 -33t-36 -21q-14 0 -35.5 23.5t-21.5 38.5q0 49 88 114l33 3l32 -3q44 -23 58 -86q-8 -80 -45 -135q-42 -67 -115 -67h-2q-53 0 -82 22q-2 -18 -74 -22q-31 -2 -92 -4l-35 14q45 84 103 248 q37 221 37 502q0 205 -168 251q-113 -41 -148 -133q-16 -43 -28 -186q-10 -125 -52 -191h-14q-14 104 -49 310q-41 215 -166 215q-76 0 -133.5 -65.5t-57.5 -141.5v-447q0 -201 95 -366l-29 -25l-51 11q-23 0 -68 -7.5t-67 -7.5q-37 0 -64 15q-57 -23 -104 -23 q-20 0 -55 13.5t-50 15.5q-63 61 -63 133zM289 487q0 16 12 34t27 18q14 0 27.5 -13.5t13.5 -27.5q0 -16 -15.5 -35t-31.5 -19q-33 0 -33 43zM289 872q0 47 51 48q29 0 29 -31q0 -16 -17.5 -38t-32.5 -22q-31 0 -30 43zM293 688q0 53 55 53h2q27 0 27 -34q0 -18 -15.5 -39 t-33.5 -21q-35 0 -35 41z" />
<glyph unicode="n" horiz-adv-x="1351" d="M43 135q0 211 137 211q51 0 91 -30.5t40 -79.5q0 -53 -46 -94.5t-99 -41.5q-18 0 -42 27t-24 45q0 35 26 73t58 38l33 -4l19 -52q0 -23 -35 -51l2 31q2 33 -23 33q-39 0 -39 -58q0 -10 12.5 -26.5t22.5 -16.5q39 0 69.5 27t30.5 65q0 74 -100 74q-96 0 -96 -143 q0 -51 43 -88t94 -37q172 0 172 317q0 111 7 329t7 329q0 57 142 92q102 26 180 26h6q342 0 342 -522q0 -76 -11 -226.5t-11 -225.5q0 -109 125 -109l51 8q39 35 57 97l-14 57l-60 24q-37 0 -61 -53l20 -26h19l6 10l-18 31l28 22l31 -6l4 -39q0 -20 -21.5 -41.5t-41.5 -21.5 q-25 0 -48.5 22.5t-23.5 46.5q0 31 36 66t66 35l17 -3q70 -35 77 -43q25 -22 25 -83q0 -96 -78 -123q-35 -12 -147 -13q-10 0 -34 -11t-36 -11h-135l-10 22q121 193 121 578q0 276 -37 346q-59 113 -299 147q-39 -16 -109 -59q-74 -68 -74 -608q0 -119 33 -207q2 -4 88 -184 l-16 -25h-223l-78 -18l-31 18l-43 -10q-63 0 -118.5 41t-55.5 102zM250 465q0 47 39 47q37 0 37 -45q0 -14 -12.5 -33.5t-26.5 -19.5q-37 0 -37 51zM254 952v2q0 74 47 74q33 0 33 -49q0 -45 -33 -45q-18 0 -47 18zM258 637q0 59 43 59q29 0 29 -39q0 -16 -12 -42.5 t-23 -26.5q-37 0 -37 49zM276 827q0 57 37 58q14 0 26.5 -15.5t12.5 -29.5q0 -16 -14 -38t-29 -22q-33 0 -33 47z" />
<glyph unicode="o" horiz-adv-x="872" d="M53 545q0 215 74 381q96 217 287 217q164 0 299 -143.5t135 -307.5q0 -262 -78 -434q-106 -231 -338 -231q-182 0 -289 176q-90 150 -90 342zM98 514q0 -197 68 -264l12 12l10 -6q10 -37 65.5 -77t94.5 -40q41 0 90 32t72 69l14 2q84 86 84 178q0 129 -18 178 q-33 86 -141 86q-78 0 -143.5 -67.5t-65.5 -145.5q0 -104 69 -127l8 -12q47 -14 52 -15q43 0 76.5 38t33.5 81q0 23 -16.5 49.5t-36.5 26.5l-55 -29q23 -4 51 -26q-20 -18 -51 -31q-45 31 -45 51q0 31 35.5 55.5t68.5 24.5q35 0 62.5 -34t27.5 -70q0 -145 -149 -181 q-88 31 -123 68q-45 45 -45 131q0 88 82 174t170 86q86 0 142 -58.5t56 -144.5q0 -123 -18 -184q-27 -86 -103 -147l-16 -43l14 -37h19q127 0 186 202q41 138 41 304q0 141 -112 288q-119 156 -256 156q-18 0 -76 -16q-127 -133 -176 -240q-57 -125 -58 -297zM203 864 q0 16 15 37t30 21q28 0 28 -25q0 -29 -38 -53h-29q0 4 -3 10t-3 10zM303 969q0 29 37 57h25q10 -21 10 -33q0 -14 -17.5 -33.5t-31.5 -19.5q-23 0 -23 29zM434 961q0 12 21.5 33.5t33.5 21.5q4 0 15.5 -17.5t11.5 -23.5q0 -14 -15.5 -27.5t-31.5 -13.5q-35 0 -35 27z" />
<glyph unicode="p" horiz-adv-x="1105" d="M-197 -432q0 147 83 237.5t229 90.5q98 0 155.5 -71t57.5 -169q0 -188 -191 -188q-184 0 -184 141q0 43 40 86t83 43q8 0 44 -11.5t38 -15.5v-28l-25 -11l-27 21l-24 2h-4q-35 0 -60 -30q-26 -32 -26 -68q0 -98 147 -99q66 0 110 54.5t44 121.5q0 70 -51.5 126.5 t-120.5 56.5q-82 0 -182 -50q-12 -33 -60 -114q-41 -72 -41 -129q0 -70 60.5 -140.5t130.5 -70.5q10 -16 59 -17q152 0 246 146q82 129 82 289q0 768 -72 1179q-12 74 -22 92q-20 41 -78 41q-74 0 -123 -39q-55 -43 -55 -114q0 -86 118 -86q78 0 78 57q0 20 -18.5 46 t-36.5 26l-53 -23l28 -32l27 16l6 -19l-49 -36l-55 55q35 76 106 76q37 0 58.5 -29t21.5 -66q0 -108 -136 -108h-3q-127 0 -127 115q0 84 64.5 144t148.5 60h159q27 0 80.5 -4t79.5 -4l10 -8q47 4 93 4q426 0 426 -479q0 -205 -179 -299q-137 -74 -360 -74l-8 -6 q-82 -8 -82 -180q0 -37 6 -109.5t6 -109.5q0 -555 -371 -555q-111 0 -202 75q-98 82 -99 191zM257 742.5q15 15.5 30 17.5q24 -13 24 -33q0 -14 -15 -31.5t-30 -17.5q-24 0 -24 32q0 17 15 32.5zM246 559q2 8 14 43h41q18 -27 18 -39q0 -14 -12 -28.5t-26 -14.5 q-35 0 -35 39zM276 360q0 49 37 50q33 0 33 -39q0 -43 -39 -43q-31 0 -31 32zM514 338q37 -18 129 -19q182 0 283.5 95.5t101.5 277.5q0 119 -102.5 232.5t-218.5 113.5q-35 0 -103.5 -10t-103.5 -10q-23 -113 -23 -123l6 -35l29 -35q18 -23 35 -22q70 41 76 43q33 14 88 14 q27 0 70.5 -14.5t62.5 -16.5q82 -80 82 -172q0 -88 -67.5 -145t-158.5 -57q-47 0 -84.5 32.5t-37.5 79.5q0 57 53 97q46 34 103 34h3q43 0 68 -49q-12 -47 -29 -47q-16 0 -16 37q0 20 -31 20q-39 0 -76 -26.5t-37 -63.5q0 -33 27 -54t62 -21q74 0 128 40.5t54 112.5 q0 94 -51 131q-29 20 -140 51q-235 -70 -235 -380q0 -85 53 -111z" />
<glyph unicode="q" horiz-adv-x="1159" d="M45 573q0 356 295 502q211 102 608 103q82 0 139.5 -45.5t57.5 -124.5q0 -96 -57.5 -148.5t-153.5 -52.5q-16 0 -59.5 23.5t-51.5 37.5l-6 58q0 49 35 91t84 42l96 -53q-18 -86 -51 -86l-23 10v28l35 29l-59 29q-35 0 -60.5 -25.5t-25.5 -60.5q0 -37 29.5 -58.5 t68.5 -21.5q160 0 160 137q0 145 -172 146q-256 0 -256 -641q0 -115 10 -263l8 -157q0 -53 -11 -162t-11 -162q0 -410 282 -410q135 0 221.5 80t86.5 215q0 102 -45 187q-53 100 -148 100q-109 0 -172 -78t-63 -188q0 -111 108 -111q45 0 90 27q53 31 53 72q0 35 -45 47 q-20 -14 -47 -15q-10 0 -20 2l-4 33l63 19q37 0 68 -26t31 -62q0 -61 -66 -101q-55 -35 -121 -35q-141 0 -141 158q0 129 69.5 213t196.5 84q109 0 174 -111q58 -96 58 -213q0 -158 -97.5 -244.5t-257.5 -86.5q-186 0 -262 170q-51 117 -61 360q-10 283 -23 328 q-39 41 -63 55l-56 -4q-14 -1 -27 -1q-49 0 -102 11q-82 18 -116 53q-23 0 -62 56.5t-51 60.5l-53 82q-27 39 -27 98zM217 382q98 -106 205 -106q6 0 16.5 -6t16.5 -6h104q27 45 57 98q18 41 19 119q0 154 -23 207q-39 92 -170 92q-68 0 -114.5 -52t-46.5 -120 q0 -57 40.5 -104t98.5 -47q96 0 96 116q0 61 -43 62q-25 0 -40 -27.5t-32 -27.5q-16 0 -16 20q0 29 33 54.5t61 25.5q72 0 72 -127q0 -55 -37 -97t-90 -42q-76 0 -127 59t-51 137q0 74 62.5 141.5t133.5 67.5q31 0 76 -12q59 -16 76 -19q53 79 53 183q0 25 -72 47 q-61 20 -96 20q-133 0 -250 -157q-110 -149 -110 -285q0 -108 98 -214zM717 299q0 16 21.5 36.5t37.5 20.5q37 0 37 -53q0 -4 -7 -19.5t-7 -21.5q-14 -10 -25 -10q-14 0 -35.5 16.5t-21.5 30.5zM725 522q0 16 15.5 34.5t31.5 18.5q37 0 37 -43q0 -12 -14.5 -34.5 t-26.5 -22.5q-43 0 -43 47zM739 721q0 18 14.5 34.5t30.5 16.5q29 0 29 -43q0 -49 -37 -49t-37 41z" />
<glyph unicode="r" horiz-adv-x="942" d="M59 733q0 275 281 275h20l60 -2l6 -9l4 7h320l-17 -5q119 -86 131 -96q64 -61 64 -145q0 -61 -37 -103h-21q-29 88 -55 179q-35 63 -180 63q-98 0 -131 -53q-27 -41 -27 -146q0 -61 -4 -186t-4 -186v-211q0 -123 113 -152q25 12 41 8l22 -47q-154 -2 -457 -22l-14 14 q-35 6 -65 6l57 2l16 23q109 37 152 127q33 72 33 198v29q-2 25 -2 39v68q0 51 4 151t4 152q0 235 -143 235h-1q-66 0 -104 -67q-33 -55 -33 -127q0 -92 84 -93q63 0 96 31l7 33q0 33 -21.5 62.5t-52.5 29.5q-55 0 -55 -63q0 -16 14 -28.5t31 -12.5q29 0 28 34l19 -4v-34 l-45 -37h-11q-72 33 -71 63q0 45 30.5 84t73.5 39q45 0 72 -47q23 -39 22 -86q0 -104 -147 -105q-106 0 -107 115zM178 35q0 43 33 43q8 0 21.5 -14.5t13.5 -22.5q0 -14 -14.5 -27.5t-28.5 -13.5q-25 0 -25 35zM250 119q0 59 37 59q32 0 32 -31q0 -8 -30 -55q-4 -2 -13 -2 q-27 0 -26 29zM264 270q0 43 39 43h2q27 0 27 -30q0 -55 -41 -56q-27 0 -27 43z" />
<glyph unicode="s" horiz-adv-x="751" d="M29 268v15q0 28 53 28h4q10 0 16 -2l37 19l17 -27l-29 -104q0 -53 45 -98.5t98 -45.5l27 15l70 -19l12 12q96 8 151 95q47 76 48 178q0 160 -99 201q-49 20 -233 20q-74 0 -119 102q-35 80 -35 162q0 145 113 240q106 88 254 88q229 0 229 -176q0 -49 -47 -119t-92 -92 l-8 2q-16 0 -23 -21h-31q4 20 0 58l23 28l27 -8q37 0 61 45q20 39 20 80q0 121 -122 121q-117 0 -202 -84t-85 -201q0 -76 30.5 -114.5t104.5 -65.5l25 4q127 0 213 -63q96 -72 96 -195q0 -154 -94 -268q-100 -119 -252 -119q-113 0 -185 59q-77 62 -77 172q0 36 -9 56z M246 811q0 14 14 28.5t29 14.5q10 0 20 -15.5t10 -25.5q0 -35 -36 -35q-37 0 -37 33zM264 690q0 41 39 41q25 0 25 -31q0 -37 -25 -51q-39 25 -39 41zM305 936q0 41 39 41q29 0 29 -27t-29 -49h-29q-10 18 -10 35zM414 127q0 55 45 55q25 0 24 -28q0 -54 -47 -54 q-23 0 -22 27zM428 414q0 49 39 49q29 0 29 -39q0 -16 -11.5 -33.5t-27.5 -17.5q-29 0 -29 41zM465 270q0 8 43 62q29 -12 29 -41q0 -16 -13.5 -33.5t-29.5 -17.5q-29 0 -29 30z" />
<glyph unicode="t" horiz-adv-x="933" d="M33 985q0 147 209 148q25 0 74 -2.5t73 -2.5q18 0 21 13v28q0 74 -19 222q-20 162 -39 215q25 23 158 28l22 -24q-43 -59 -51 -228q-2 -41 -2 -249h238q90 0 90 90v12q-43 36 -70 36q-4 0 -8 -1l-4 24l53 47q45 0 84 -32.5t39 -75.5q0 -106 -110 -146q-63 -22 -190 -22 h-11h-121q2 -106 1 -208q0 -306 -13 -581q-1 -28 -1 -51q0 -58 7 -84q16 -53 80 -106l-31 -21l-43 4l-31 -18q-27 14 -57 14q-27 0 -57 -10l-31 25q66 70 92 506q20 332 21 442v88q-92 18 -160 18q-131 0 -135 -129l30 -24l-43 -39q-66 59 -65 94zM520 590q0 16 13.5 31.5 t29.5 15.5q39 0 39 -45t-35 -45q-16 0 -31.5 13t-15.5 30zM520 936q0 37 39 37q8 0 18.5 -10.5t10.5 -18.5q0 -10 -16.5 -28.5t-26.5 -18.5q-6 0 -10 2l-5 2q-10 18 -10 35zM528 784q0 49 37 50q27 0 27 -39q0 -49 -37 -50q-27 0 -27 39z" />
<glyph unicode="u" horiz-adv-x="1323" d="M37 903q0 174 135 225q76 29 283 29l16 10l16 -6l7 -18q-84 -176 -84 -510q0 -662 262 -662q289 0 289 391q0 96 -15.5 286t-15.5 286t-111 156l4 43q14 -2 28 -2q35 0 60 12l15 22q37 0 111.5 8.5t111.5 8.5q149 0 149 -160q0 -61 -36 -125q-41 -74 -99 -74 q-39 0 -72.5 38t-33.5 77q0 37 26.5 66.5t63.5 29.5q47 0 47 -43q0 -31 -33 -55l-26 22l16 25l-12 2q-27 0 -43 -49l43 -57h26q47 0 74 53q23 45 23 94q0 43 -45 104l-52 13q-12 0 -39 -4l-39 -9l-4 -6q-4 1 -7 1q-48 0 -48 -138q0 -106 16.5 -316t16.5 -317 q0 -279 -129 -383q-53 -43 -57.5 -50t-10.5 -7q-8 0 -8 14q-23 -25 -100 -41q-61 -12 -111 -12q-27 0 -41 4l-33 -16l-45 24l-8 -4q-117 131 -139 201q-18 55 -19 248q0 721 -53 776h-33q-84 0 -145 -59.5t-61 -143.5q0 -47 36.5 -78.5t83.5 -31.5q90 0 91 110q0 55 -39 56 q-25 0 -50.5 -17.5t-25.5 -40.5q0 -27 20 -26q18 0 62 20v-18q0 -12 -24.5 -31t-39.5 -19q-20 0 -37.5 24t-17.5 44q0 43 37 77q35 32 75 32h5l28 -2q14 -10 27.5 -44t13.5 -55q0 -57 -34.5 -106t-90.5 -49q-68 0 -109.5 43t-41.5 110z" />
<glyph unicode="v" horiz-adv-x="1406" d="M43 944q0 57 23 98q10 20 59 82q70 20 145 21q31 0 93.5 -9.5t93.5 -9.5v-10q2 -20 -12.5 -55t-14.5 -51q0 -147 162 -494l231 -491q68 223 135 514q84 362 84 499q0 53 -34 90l22 27q18 -2 39 -2t45 2q70 6 80 6q109 0 159 -45t50 -151q0 -66 -29 -115q-35 -55 -96 -55 q-43 0 -76 34.5t-33 77.5q0 113 82 113q25 0 46.5 -18.5t21.5 -43.5q0 -35 -41 -57q-31 2 -41 27l16 22l17 -4l10 12l-33 17q-43 0 -43 -70q0 -23 25.5 -45t48.5 -22q43 0 68 43q20 35 20 80q0 151 -114 151h-1q-49 0 -69 -33q-6 -16 -31 -84q-14 -39 -47 -315 q-20 -166 -109 -422q-127 -367 -139 -412l-22 -16l-15 6q-29 154 -186 445q-209 385 -234 446l-57 199q-37 121 -96 170l-29 2h-11q-54 0 -90 -35q-40 -39 -40 -100q0 -51 28.5 -87t77.5 -36q51 0 51 69q0 66 -69 66l-33 -39l31 -35l31 31l4 -23l-43 -51q-18 16 -39 21 l-21 45q12 51 19 63q16 33 51 33q96 0 96 -98q0 -127 -90 -127q-57 0 -92 45t-35 104z" />
<glyph unicode="w" horiz-adv-x="1808" d="M8 805q0 66 47 145q51 90 111 90q20 0 62 -14t63 -14q14 0 24 6q14 -12 33 -12q8 0 30.5 4t35.5 2l10 -41q0 -16 -18.5 -63.5t-18.5 -63.5q0 -152 109 -408q59 -133 176 -399q66 86 264 424h14q37 -92 76 -185q45 -106 88 -176h14q57 0 152 349q90 332 90 436 q0 57 -29 123l25 28l29 -4q37 0 111.5 12.5t113.5 12.5q84 0 129 -70q39 -57 39 -145q0 -74 -47 -125t-121 -51q-55 0 -98 45t-43 100q0 45 33.5 87t76.5 42l37 -12l25 -82l-13 -53l-39 -23l-40 31l-5 26l13 7l35 -15l14 23q0 33 -33 49q-72 -33 -72 -80q0 -45 35 -72 l74 -37l53 13l8 10q76 14 76 111q0 41 -44 87t-85 46q-27 0 -96 -11q-39 -5 -69 -5q-15 0 -27 1q-51 -354 -93 -522q-68 -276 -190 -495l-20 -5q-8 0 -27 82q-10 51 -131 279q-49 -57 -123 -185t-121 -184l8 -6q-43 -29 -63 -51q-51 39 -144 336q-133 428 -167 520 q-102 270 -195 270q-51 0 -93 -66.5t-42 -119.5q0 -137 104 -137l29 6l-53 4q-20 16 -56 53v31q0 43 17 70q2 4 47 55l33 2h8q43 0 67 -41q23 -37 23 -90q0 -133 -123 -133t-123 178zM82 774q0 -47 63 -47q31 0 39 12q-2 2 -16 23q-8 14 -23 14q-8 0 -12 -10l-4 31 q16 23 23 22q18 0 38.5 -20.5t20.5 -38.5q0 -78 -37 -78q53 4 53 61q0 33 -21.5 71t-51.5 38q-25 0 -48.5 -26.5t-23.5 -51.5zM1120 254q0 49 31 49q23 0 23 -35q0 -10 -25 -57h-21q-8 39 -8 43zM1169 428q0 14 12.5 41t24.5 27q23 0 23 -29q0 -45 -33 -78q-27 18 -27 39z M1212 618q0 55 39 56q25 0 25 -33q0 -16 -12.5 -39.5t-26.5 -23.5q-25 0 -25 40zM1264 811q0 61 32 61h1q22 0 22 -38q0 -35 -33 -64q-23 4 -22 41z" />
<glyph unicode="x" horiz-adv-x="1226" d="M20 915q0 139 76 185q41 25 197 45q45 -29 100 -29l88 12l13 13l20 -11l4 -16q-12 -25 -57 -63q-33 -29 -33 -80q0 -68 104 -316q59 57 127 174q76 129 113 177q72 90 170 129l-4 -9l53 -10q25 0 70 12l2 11h20q70 -43 95.5 -94.5t25.5 -137.5q0 -90 -63 -170 q-68 -86 -154 -86q-45 0 -88 37t-43 82q0 104 25 133q45 39 92 78l37 2l34 -2q35 -23 35 -76q0 -114 -68 -114h-1q-48 0 -48 37q0 6 1 14l14 6l37 -25l30 72q0 49 -32 49q-121 0 -121 -119v-8l2 -57q53 -72 98 -72l39 6l98 90q39 45 39 123q0 180 -106 180q-96 0 -131 -6 q-68 -11 -162 -125q-82 -99 -82 -162q0 -9 2 -18q-51 -61 -110 -233q39 -111 124 -328q98 -229 205 -233l17 -52q-55 -20 -144 -26q-123 -8 -147 -13l-17 27q45 66 46 121q0 41 -37 168q-41 137 -64 137q-14 0 -59 -31q-49 -113 -96 -227q-74 -133 -181 -133 q-157 0 -157 224q0 91 32 151q40 73 121 73h2q51 0 97.5 -37.5t46.5 -87.5q0 -59 -33 -110q-37 -57 -92 -57q-104 0 -105 88q0 37 26.5 76.5t61.5 39.5q76 0 76 -73q0 -14 -25 -56h-22l-4 13l18 32q0 41 -43 41q-23 0 -40 -18.5t-17 -40.5q0 -29 24.5 -47.5t55.5 -18.5 q35 0 61.5 38t26.5 75q0 45 -37 74.5t-84 29.5q-121 0 -121 -176q0 -66 23 -118q29 -70 86 -70q129 0 168 106q4 12 86 189q61 133 61 184q0 12 -91 234.5t-105 267.5q-4 18 -35 56t-37 59q-129 -23 -144 -31q-55 -31 -55 -135q0 -68 123 -72l6 -8q66 20 66 94t-53 74 l-37 -10l-23 -52q0 -33 23 -32q10 0 34 8l-8 -27l-39 -22q-14 0 -27.5 22.5t-13.5 38.5q0 45 29 79t74 34q71 0 71 -96q0 -54 -28 -99q-33 -51 -82 -51t-94 29q-51 33 -52 77zM172 -63h14v-9h-14v9zM199 -63h18v-9h-18v9zM608 512q0 51 29 51q41 0 41 -45q0 -14 -13.5 -29.5 t-27.5 -15.5q-29 0 -29 39zM678 387q0 14 12 30.5t27 16.5q35 0 35 -65v-11q-18 -20 -41 -20q-12 0 -22.5 17.5t-10.5 31.5zM735 201q0 18 12.5 41.5t28.5 23.5q12 0 24.5 -14.5t12.5 -26.5q0 -55 -51 -55q-27 0 -27 31zM928 -63h10v-9h-10v9z" />
<glyph unicode="y" horiz-adv-x="1138" d="M25 1061q0 78 70.5 156.5t148.5 78.5q156 0 205 -215q25 -147 81 -444q57 -270 226 -373q202 96 202 638v5q0 190 -24 330l43 25q74 -14 201 -15v-20q-109 -63 -138 -436q-10 -133 -18 -734q-6 -455 -53 -606q-12 -37 -170 -110l-25 18q-55 -16 -108 -16q-135 0 -212 88 t-77 227q0 133 67 209q55 61 189 115q88 -12 144.5 -78t56.5 -154q0 -104 -30 -160.5t-118 -111.5q-94 31 -123 51q-59 41 -59 115q0 41 42 85t83 44q18 0 30 -17l23 -30l-20 -25l-35 31q-20 0 -55 -40t-35 -61q0 -47 43 -77.5t92 -30.5q63 0 102 86q31 68 31 141 q0 80 -96 172l-68 19q-98 -20 -166.5 -101.5t-68.5 -181.5q0 -129 66.5 -205t193.5 -76q258 0 258 418q0 31 -2 92.5t-2 92.5l-2 239l-84 -10q-190 0 -279 203q-41 92 -102 428q-53 283 -125 383l-99 28q-59 0 -117.5 -62.5t-58.5 -123.5q0 -49 34 -81t85 -32t117 62l10 43 q0 86 -60 86h-8l-24 -2l-64 -72l39 -41l58 37l6 -10q0 -18 -28 -40t-46 -22q-61 0 -61 66q0 39 42 80t80 41q98 0 99 -115q0 -66 -51.5 -108t-118.5 -42q-137 0 -137 146zM567 598q0 53 35 53q39 0 39 -43q0 -12 -10 -27.5t-23 -15.5q-23 0 -39 19q-2 8 -2 14zM639 506 q47 0 47 -35q0 -65 -32 -65h-1q-32 0 -32 52q0 48 18 48zM752 401q14 0 21 -6.5t7 -29.5q0 -45 -41 -46q-28 0 -28 38q0 44 41 44z" />
<glyph unicode="z" horiz-adv-x="1193" d="M254 1047q98 0 297 -9q210 -8 275 -8h20l309 17l6 -21q0 -37 -215 -235q-307 -283 -399 -381q-215 -227 -215 -336q0 -61 94 -62q27 0 49 4q39 -37 99 -37q10 0 20 1q195 14 336 14q96 0 137 26q51 33 51 125q0 72 -35.5 119t-105.5 47q-59 0 -105 -32q-51 -37 -51 -95 q0 -75 62 -75h2q63 0 94 51v39l-10 2l-31 -25l-20 23q0 18 16 34.5t35 16.5q49 0 49 -62q0 -122 -137 -122h-2q-92 0 -93 110q0 59 35 106.5t92 59.5l5 8h116l4 -8q61 -14 92 -82q27 -55 27 -127q0 -86 -52 -134t-140 -50l-496 -8q-16 -1 -57 -13q-31 -9 -52 -9q-7 0 -12 1 l-39 -18q-25 18 -76 20h-79v35q0 76 198 295q123 133 371 397q199 213 199 260q0 66 -64 72l-4 6q-170 6 -612 17h-5q-128 0 -128 -103q0 -131 90 -131q110 0 110 96v2q0 57 -55 58q-72 0 -72 -56q0 -36 43 -36h2q16 0 45 49l7 -23q0 -18 -24 -41.5t-42 -23.5q-70 0 -70 77 q0 68 136 97q66 -35 65 -80q0 -74 -44 -118t-118 -44q-112 0 -112 165q0 155 184 155zM344 373q0 51 51 51q27 0 27 -31q0 -10 -20.5 -38.5t-28.5 -28.5q-29 0 -29 47zM508 567.5q16 20.5 39 20.5q33 0 33 -39q0 -20 -16.5 -44t-35.5 -24q-36 0 -36 41q0 25 16 45.5z M680 729q18 23 37 23q31 0 31 -37q0 -20 -18.5 -43t-39.5 -23q-28 0 -28 35q0 22 18 45zM983 -68l18 -6l-4 -8l-14 6v8z" />
<glyph unicode="{" horiz-adv-x="546" d="M-66 897q0 111 74 180q70 63 182 78q41 178 41 209q0 109 -2 123q-6 49 -47 112l15 23q23 0 64.5 8t64.5 8q33 0 221 -8l-164 -65q-6 -2 -61 -191l-64 -221q88 -12 144.5 -76.5t56.5 -152.5q0 -121 -70 -203t-188 -80q12 -152 51 -438q4 -14 29.5 -30.5t29.5 -20.5 l144 -54q-8 -4 -99 -8q-78 -2 -80 -20h-18l-12 10l-53 2l-23 -12l-39 16l-20 -4l-27 24q61 121 61 181q0 33 17 143q14 98 8 141q-10 63 -61 72q-16 27 -68.5 67t-71.5 64q-35 49 -35 123zM18 934q0 -61 27 -90q16 -16 82 -49l8 51q-33 12 -33 67t58 82l20 107 q-61 -8 -111.5 -58.5t-50.5 -109.5zM86 743q12 -16 31 -28l4 39q-14 0 -25 4q-4 -4 -10 -15zM135 913q0 -10 6 -22q7 28 11 59q-16 -14 -17 -37zM190 754q0 -27 5 -58q117 10 155 111q33 83 33 108q0 156 -143 183q-14 -51 -25 -92q88 -4 88 -97q0 -123 -113 -155zM190 793 q80 23 80 104q0 66 -61 72q-17 -121 -19 -176z" />
<glyph unicode="|" horiz-adv-x="309" d="M-2 16q78 150 111 699q20 342 20 723q0 94 -4 123q-8 57 -45 112l14 23q76 14 133 14h62l8 -10l-6 -17q-57 -98 -105 -665q-39 -477 -39 -731q0 -96 25 -150q0 -6 59 -131q-43 -14 -41 -26h-18l-14 10l-52 2l-22 -15l-41 19l-18 -4z" />
<glyph unicode="}" horiz-adv-x="546" d="M-6 1630l219 8q23 0 66 -8t65 -8l14 -23q-39 -61 -47 -112q-4 -25 -4 -123q0 -43 17 -104q12 -53 26 -105q113 -14 182 -78q74 -69 74 -180q0 -51 -63 -147q-66 -102 -111 -107l4 -68q4 -51 -19.5 -147t-23.5 -141q0 -59 64 -181l-29 -24l-18 4l-39 -16l-23 12l-53 -2 l-12 -10h-19q-2 18 -80 20q-90 4 -98 8l143 54q27 14 58 51q18 84 30 217l11 110q8 86 12 111q-119 -2 -188.5 80t-69.5 203q0 88 56.5 152.5t144.5 76.5q-55 203 -125 412zM158 915q0 -25 32 -108q39 -100 156 -111q4 31 4 58q-113 33 -112 155q0 92 86 97q-8 41 -25 92 q-141 -27 -141 -183zM270 897q0 -81 80 -104q-2 55 -18 176q-61 -6 -62 -72zM360 1102l21 -107q57 -27 57 -82t-32 -67l8 -51q63 31 80 49q28 31 28 90t-50 109.5t-112 58.5zM389 950q4 -31 8 -59q6 12 6 22q0 23 -14 37zM420 754l4 -39q17 12 31 28q-6 10 -11 15 q-10 -4 -24 -4z" />
<glyph unicode="~" horiz-adv-x="821" d="M37 860q0 86 69 139q63 49 152 50q104 0 141 -60q20 -33 29 -123q8 -80 39 -102q115 -57 131 -57q57 0 110.5 43t53.5 98q0 20 -16.5 39.5t-34.5 19.5q-12 0 -47 -22l-23 8v12q23 37 35 68l31 16q102 1 102 -110q0 -100 -67.5 -156.5t-170.5 -56.5q-96 0 -140 42t-44 138 q0 70 -49 104q-31 20 -115 43q-53 -14 -65 -22q-35 -18 -35 -58q0 -39 36 -70.5t36 -33.5q0 -14 -20.5 -35.5t-35.5 -21.5q-43 0 -72.5 32.5t-29.5 75.5z" />
<glyph unicode="&#xa1;" horiz-adv-x="415" d="M51 -4l2 20q125 125 125 783q0 135 -2 207q-4 127 -4 106q4 175 -47 277l18 20q6 -2 113 -10q82 -6 102 -23l4 -20q-123 -59 -122 -477v-97q0 -20 2 -41v-18q0 -57 -8.5 -169t-8.5 -169q0 -137 25 -215q33 -104 123 -170l-6 -25q-23 0 -68 -3t-68 -3q-35 0 -90 11 q-39 8 -90 16zM90 1470q0 279 166 279q57 0 90 -63q27 -49 27 -113q0 -39 -33 -81t-72 -42q-23 0 -65.5 7t-65.5 7q-6 0 -16 -3t-17 -3q-14 0 -14 12zM135 1569q2 4 19 2v10q-4 39 26.5 65.5t71.5 26.5q72 0 72 -76q0 -33 -19.5 -64.5t-50.5 -31.5q-53 0 -53 62q0 45 43 45 q16 0 16 -17q0 -10 -24 -22v-15q0 -14 16 -14q41 0 41 51q0 43 -45 43q-63 0 -64 -78q0 -6 19 -43q10 -2 26 -14q10 -10 33 -10q33 0 56.5 27.5t23.5 60.5q0 47 -18 86q-23 49 -64 49q-117 0 -125 -143z" />
<glyph unicode="&#xa2;" horiz-adv-x="907" d="M49 631q0 190 101 336q109 160 290 182q-6 66 -49 131l15 23q47 8 141 16l53 -2l10 -10q-4 -25 -29.5 -76t-27.5 -88q180 -43 180 -148l-2 -18q-23 -10 -74 -50t-59 -42l-20 20q0 6 26.5 47t26.5 72l-6 39q-41 23 -76 31q-74 -532 -74 -924q0 -41 8 -107l39 -2 q160 -8 254 129q0 18 -39 52q-45 39 -51 49v14l19 10q29 -14 71 -49l98 -16l21 -23q0 -4 -82 -78.5t-96 -80.5q-57 0 -68 -33q-23 2 -70 -8.5t-65 -10.5q-14 0 -25 4q6 -39 29 -69q33 -47 41 -62q-2 -2 -27 -8q-14 -4 -14 -18h-18l-15 10l-51 2l-22 -14l-41 18l-19 -4 l-26 25q57 111 57 129q-10 8 -2 8q-29 27 -84 35q-248 272 -248 559zM139 657q0 -127 80 -300t178 -251l6 64q-27 8 -26 35q0 41 31 47q4 74 22 397q12 207 12 395v56q-174 -37 -227 -187q-18 -51 -55 -149q-20 -53 -21 -107zM190 719q0 16 11.5 34.5t25.5 18.5 q12 0 23.5 -17.5t11.5 -31.5t-12 -30.5t-25 -16.5q-10 0 -22.5 16.5t-12.5 26.5zM213 532q0 16 13.5 39t27.5 23q12 0 24.5 -19.5t12.5 -31.5q0 -49 -43 -49q-35 0 -35 38zM287 367q0 12 10 30.5t20 18.5q37 0 37 -68q0 -33 -26 -33q-16 0 -28.5 17.5t-12.5 34.5z" />
<glyph unicode="&#xa3;" horiz-adv-x="1601" d="M113 96v8h14v-8h-14zM248 215q0 82 55 145.5t137 63.5q49 0 90 -28.5t41 -76.5l-4 -26l-16 -4q-12 0 -42 21.5t-44 21.5q-76 0 -76 -68q0 -88 133 -88q135 0 162 172l16 281h-18q-39 0 -88 -11q-61 -14 -90 -14q-20 0 -61.5 17.5t-51.5 33.5l-10 33q0 47 31 86q8 8 67 64 l41 -7l-4 -16l-31 -24l-14 -39q0 -39 111 -39q82 0 125 28q25 260 24 291q0 166 -20 264q-4 25 -29 52.5t-27 33.5l-18 7q-88 0 -160 -50q-78 -55 -78 -141q0 -43 49.5 -73.5t94.5 -30.5q35 0 66.5 23.5t31.5 56.5t-23.5 57t-56.5 24q-68 0 -67 -49l26 -35q45 25 66 19 q-53 -47 -82 -47q-33 0 -49 53l49 74l76 18q41 -6 68.5 -35.5t27.5 -70.5t-49 -80t-90 -39q-57 0 -111 33q-61 37 -61 90q0 102 92 172q84 66 190 61h82l125 2q553 0 553 -186q0 -31 -18 -96q-20 -76 -39 -76l-17 16l15 62q0 162 -252 162q-137 0 -199.5 -61.5t-65.5 -197.5 v-243h5q27 0 96 27.5t104 27.5q137 0 138 -133q0 -45 -76 -109l-37 -4l-23 19q4 10 26.5 38.5t22.5 45.5q0 27 -16 35q-31 14 -35 18q4 -6 -22 -6l-8 6q-109 -31 -157 -92.5t-48 -169.5q0 -41 6 -123t6 -123q0 -55 141 -92q109 -29 195 -29q160 0 244 47q94 53 153 193h19 l12 -12l8 -66q0 -291 -430 -291q-70 0 -174 12q-168 20 -172 21q-45 4 -150 -25q-113 -31 -157 -30q-102 0 -156 45q-63 72 -82 65l12 8q-29 51 -28 111zM854 610q0 14 13.5 26.5t27.5 12.5q16 0 31 -12v-29q-16 -20 -45 -20q-27 0 -27 22zM858 317q0 14 17.5 32t31.5 18 q4 0 8.5 -2.5t6.5 -2.5v-57q0 -25 -31 -24q-33 0 -33 36zM870 473q0 45 33 45q25 1 25 -26q0 -10 -13.5 -33t-21.5 -23q-23 0 -23 37z" />
<glyph unicode="&#xa4;" horiz-adv-x="743" d="M76 858l141 10q-59 88 -59 158q0 88 57 158l-135 55q45 80 147 135l54 -129q70 41 155 41q76 0 135 -35l13 115l73 -41l50 -86l-68 -51q43 -59 43 -135q0 -129 -68 -201l93 -51l-25 -103l-98 -16l-27 119q-41 -31 -115 -31h-80l-30 2q-12 14 -39 27.5t-35 21.5l-68 -106 q-37 16 -72.5 60t-41.5 83zM242 1063q0 -57 40 -101t97 -44q49 0 82 29.5t33 78.5q0 72 -68 72t-68 -56q0 -18 15 -32h12q2 0 8 4t13 4q6 0 8 -12q0 -35 -37 -35q-51 0 -51 71q0 41 32.5 67t73.5 26q94 0 94 -97q0 -72 -40 -115.5t-111 -43.5q-25 0 -56 8l-10 -15 q37 -47 99 -47q123 0 165 111q33 83 33 108q0 86 -51 136.5t-137 50.5q-61 0 -118.5 -53.5t-57.5 -114.5z" />
<glyph unicode="&#xa5;" d="M29 1192q0 313 372 313q23 0 67 -2t67 -2q51 0 61 12l104 -14l11 -22l-25 -27l-59 -12l-64 -78q8 -78 103 -223q37 -10 63 -11q16 0 29 4l47 -24q-12 -23 -26.5 -79t-20.5 -64l82 -117l18 -6q39 0 129 196l-47 82l14 25l56 -2q63 -2 114 110q45 100 45 193q0 20 -4 35 l29 20l51 -8q201 0 346 -10q14 -6 15 -17q0 -4 -2 -10q-96 -27 -244 -86q-96 -59 -230 -272l66 -123l-16 -19q-39 20 -119 43q-45 -74 -121 -223q-33 -80 -43 -178q63 2 125 2q84 8 106 41l13 -8q6 -37 16 -115l-4 -6q-39 0 -119 17.5t-121 17.5h-20l-21 -180q98 0 142 2 q100 4 123 41l12 -9q6 -37 16 -114l-4 -6q-45 0 -139 17t-139 17h-17q-4 -27 -4 -178q0 -94 70 -143q41 -23 82 -47q-23 -25 -262 -25q-141 0 -142 35l11 20q63 27 112 82q29 127 43 260q-113 0 -145 -6q-59 -10 -127 -59q-16 18 -17 33q0 6 5 10q2 33 -9 43q-2 20 13 53 q74 -37 131 -37q-16 0 155 8l6 109l-6 78q-129 0 -153 -4q-63 -10 -133 -62q-16 18 -17 33q0 6 4 10q2 33 -8 43q-2 20 12 54q74 -37 131 -37q-18 0 160 8q-10 102 -57 203q-53 111 -62 155h-8q-84 0 -84 31l29 82q-14 25 -119 219q-2 -150 -51 -217q-57 -80 -201 -80 q-197 0 -196 205zM59 1202q0 -68 35 -117q39 -55 105 -55q127 0 178 33q67 43 67 162q0 59 -52 98t-113 39q-51 0 -98.5 -55.5t-47.5 -108.5q0 -43 57 -70q45 -23 95 -22q39 0 64.5 26.5t25.5 65.5q0 10 -15 57q-45 18 -51 19q-23 0 -47 -18.5t-24 -38.5q0 -29 51 -29 q6 0 33 26l6 -8v-12q-29 -45 -76 -45q-16 0 -32.5 19.5t-16.5 35.5q0 39 40 72t79 33q33 0 60.5 -30t27.5 -62q0 -59 -39 -102.5t-97 -43.5q-61 0 -112 29q-59 33 -60 90q0 63 60.5 137t122.5 74q80 0 159 -66q-61 123 -139 123q-113 0 -179.5 -71.5t-66.5 -184.5z" />
<glyph unicode="&#xa6;" horiz-adv-x="235" d="M37 1518l6 12l123 12l-4 -8q-29 -59 -35 -178v-191q0 -166 23 -237q16 -14 43 -45l-13 -2q-12 -4 -12 -13h-10l-8 4q-29 0 -46 -10q-14 6 -24 6q-6 0 -10 -2l-17 11q35 66 35 131q0 436 -27 483q-6 8 -24 27zM47 807l6 10q39 8 117 19l6 -7l-4 -8q-29 -59 -35 -176v-190 q0 -166 23 -238q16 -14 43 -45l-13 -4q-12 -4 -12 -10l-10 -2q-4 4 -8 6q-29 0 -45 -10q-14 6 -25 6q-6 0 -10 -2l-17 10q35 66 35 131q0 436 -26 483q-6 8 -25 27z" />
<glyph unicode="&#xa7;" horiz-adv-x="780" d="M29 268v15l57 30l16 -4l37 19l17 -27l-29 -104q0 -45 43 -93.5t88 -48.5q20 0 39 13l70 -19l12 12q98 14 151 97q47 72 48 176q0 106 -52 166q-39 -18 -118 -19q-139 0 -227.5 99.5t-88.5 238.5q0 72 55.5 165t118.5 122q-100 61 -100 235q0 145 113 240q106 88 256 88 q227 0 227 -174q0 -49 -46 -118.5t-91 -92.5h-9q-16 2 -22 -18h-31v55l23 31l26 -11q31 0 56.5 45.5t25.5 79.5q0 121 -123 121q-119 0 -202.5 -83t-83.5 -201q0 -121 92 -164q27 8 82 8q117 0 206 -81t89 -198q0 -78 -50.5 -185.5t-111.5 -147.5q27 -14 56.5 -84t29.5 -105 q0 -154 -94 -268q-100 -119 -252 -119q-109 0 -182 59q-80 63 -80 170q0 37 -9 58zM211 754q0 -68 45 -109t115.5 -41t117.5 -14q80 23 125 106q39 72 39 162v19q-41 -90 -104 -117q-25 0 -31 -19h-31v58q0 29 23 28q4 0 13 -4t14 -4q37 0 61 45q20 39 20 80q0 47 -29.5 84 t-74.5 37q-121 0 -168 -35q-94 -71 -127 -184q8 -10 10 -21z" />
<glyph unicode="&#xa8;" horiz-adv-x="575" d="M27 1688q0 63 44 103t109 40q84 0 84 -86q0 -66 -76 -107q-14 -8 -22 -28.5t-12 -24.5l-23 -2q-104 -10 -104 105zM66 1667q0 -8 8 -22q14 0 26 20q-35 18 -34 45v-43zM74 1735q25 35 40 44t56 9h12q31 -41 31 -49q0 -16 -15.5 -32.5t-31.5 -16.5q-8 0 -19 10q2 6 31 22 v19q-18 16 -31 16q-14 0 -28.5 -12t-14.5 -25q0 -12 21.5 -32.5t34.5 -20.5q69 0 69 74q0 55 -57 55q-80 0 -98 -61zM324 1692q0 63 45 103t110 40q84 0 84 -86q0 -66 -76 -107q-14 -8 -22 -28.5t-12 -24.5h-23q-106 0 -106 103zM362 1714q2 2 3 4v-47q0 -8 8 -22 q14 0 26 20q-37 18 -37 45zM373 1739q25 35 40 44t56 9h12q31 -41 31 -49q0 -14 -16.5 -31.5t-30.5 -17.5q-8 0 -19 10q2 6 31 22v19q-18 16 -31 16q-14 0 -28.5 -12t-14.5 -25q0 -12 21.5 -32.5t34.5 -20.5q69 0 69 74q0 55 -57 55q-80 0 -98 -61z" />
<glyph unicode="&#xa9;" horiz-adv-x="1271" d="M14 817q0 244 123 395q53 66 303 258l23 -24l149 8q315 0 486 -203q159 -188 159 -510q0 -49 -24 -108q-29 -74 -33 -98q-39 -201 -215 -299q-119 -66 -369 -107l-4 -10l-53 4l12 4q-160 25 -170 23q-227 119 -309 266q-78 137 -78 401zM123 809q0 -158 55 -324 q74 -219 199 -225q80 -66 254 -65q266 0 418 243q129 209 129 494q0 219 -179 354q-162 123 -387 123q-223 0 -362 -195q-127 -174 -127 -405zM190 860q0 199 115 352q125 170 318 170q80 0 159 -39q98 -47 92 -116l-2 -21q-25 -8 -76 -49t-57 -43l-20 21q0 6 26.5 47 t26.5 71q0 80 -147 80q-154 0 -254 -151q-90 -133 -90 -295q0 -156 112 -363q127 -233 271 -233q164 0 254 129q0 18 -39 51q-45 39 -52 49v17l19 10q27 -14 72 -49l98 -17l20 -24q0 -4 -82 -79t-96 -81q-55 0 -67 -31q-16 -2 -64 -12q-39 -8 -61 -8q-104 0 -148 16l4 4 q-29 27 -84 35q-248 272 -248 559zM332 948q0 53 37 53q14 0 24 -17.5t10 -31.5t-12 -30.5t-26 -16.5q-8 0 -20.5 16.5t-12.5 26.5zM354 762q0 16 13.5 38.5t27.5 22.5q10 0 23.5 -18.5t13.5 -30.5q0 -51 -43 -51q-35 0 -35 39zM426 596q0 12 11.5 30.5t21.5 18.5 q37 1 37 -67q0 -31 -29 -31q-14 0 -27.5 16.5t-13.5 32.5zM510 121v6h20v-6h-20zM518 434q0 47 37 47q41 0 41 -45q0 -41 -35 -41q-43 0 -43 39zM537 121v6h10v-6h-10zM627 121v6l14 -4l-2 -6z" />
<glyph unicode="&#xaa;" horiz-adv-x="591" d="M0 1491q0 100 57 203q70 125 176 125l17 -7q29 4 55 5q27 0 51 -5l13 5q37 -6 57 -9l4 -12l-12 -8q-61 -10 -62 -100q0 -45 6.5 -136.5t6.5 -135.5t18 -83q23 -45 62 -45q31 0 64.5 37t33.5 68q0 41 -60 41q-18 0 -36.5 -14.5t-18.5 -33.5q0 -23 29 -22q27 0 33 16 l-17 13v10q4 2 10 4q29 0 29 -27q0 -37 -53 -37t-53 37q0 29 23.5 53.5t51.5 24.5q82 1 82 -65q0 -47 -32 -82l-37 -33q-106 -14 -305 -14q-29 0 -82 14q-29 25 -60 49q-51 53 -51 164zM25 1470q0 -78 46 -129t124 -51q88 0 114 62q15 33 15 127q0 313 -78 313 q-72 0 -101 -23q-47 -37 -83.5 -134t-36.5 -165zM240 1423q4 8 22 29h14l7 -27q0 -20 -17 -20q-27 0 -26 18zM244 1669l14 21h21q0 -2 4 -8.5t4 -10.5q0 -23 -25 -22q-18 0 -18 20zM254 1556q0 23 22 23q15 0 15 -18q0 -27 -21 -27q-16 0 -16 22z" />
<glyph unicode="&#xab;" horiz-adv-x="591" d="M14 537q39 6 62 18q-12 10 -39 6l-2 10q14 27 47 76h6l2 -6q6 -16 29 -53l147 129q113 102 111 139h10q23 -20 62 -63v-7l-7 -2l-10 2q-28 3 -223 -161q4 -14 24 -33q49 43 148 129q113 102 111 139h10q20 -20 61 -63v-4l-6 -2h-12q-18 2 -148 -101q-117 -92 -143 -123 q197 -244 303 -250l10 -2q-2 -29 -14 -30q-18 -16 -18 -29q-16 -10 -19 -18l-14 -7q-16 57 -123 164q-80 80 -156 140q-10 -10 -22 -35q35 -39 106.5 -112t134.5 -75l13 -2q-2 -29 -17 -30q-16 -16 -16 -29q-18 -10 -21 -19l-12 -6q-20 63 -90 129q-41 37 -121 111l-2 -2 l-4 6q-29 33 -63 59q-18 -27 -21 -36q-4 -20 -6 -41q-16 6 -29.5 24.5t-21.5 20.5q-6 20 -15 22zM139 563q7 -8 15 -16q23 4 36 12q-10 6 -18 6h-16q-6 0 -9 6z" />
<glyph unicode="&#xac;" horiz-adv-x="735" d="M43 731v127h676v-127h-8v-192h-193v192h-475z" />
<glyph unicode="&#xad;" horiz-adv-x="804" d="M68 668q6 14 6 22t-4 12l10 19q68 -37 131 -37q436 0 485 29q8 6 25 24l12 -8q8 -37 17 -115l-5 -6l-8 2q-49 31 -176 37h-192q-164 0 -236 -22q-16 -16 -45 -43l-4 12q-4 12 -10 10l-2 12q2 2 4 9q0 29 -8 43z" />
<glyph unicode="&#xae;" horiz-adv-x="1300" d="M51 817q0 244 123 395q53 66 303 258l23 -24l147 8q315 0 488 -203q159 -188 159 -510q0 -47 -22 -106q-31 -76 -35 -100q-39 -199 -217 -299q-119 -66 -369 -107l-2 -10l-55 4l12 4q-158 25 -168 23q-227 119 -309 266q-78 137 -78 401zM160 809q0 -158 55 -324 q74 -219 199 -225q78 -66 254 -65q268 0 417 243q127 207 127 494q0 219 -176 354q-162 123 -387 123q-223 0 -362 -195q-127 -174 -127 -405zM262 1055q0 258 283 248l55 -3q0 -4 6 -6l4 4q14 2 299 2l-14 -6l123 -84q61 -55 61 -133q0 -55 -35 -92h-20q-27 80 -53 162 q-35 55 -168 55q-88 0 -121 -47q-27 -39 -27 -131q0 -57 -4 -169t-4 -169v-190q0 -113 107 -138q20 10 37 9l22 -45q-145 0 -430 -21l-12 14q-35 6 -64 4l53 3l19 22q129 43 160 170q10 43 10 246q0 45 4 137t4 137q0 213 -135 213q-57 0 -96 -61q-35 -53 -35 -115 q0 -82 80 -82q61 0 90 27l6 31q0 29 -19.5 55t-48.5 26q-53 0 -53 -57q0 -37 41 -37q29 0 29 31l16 -4v-31l-41 -33h-10q-68 29 -68 58q0 39 30 74.5t69 35.5t64.5 -39t25.5 -79q0 -96 -140 -97q-100 0 -100 105zM373 422q0 39 33 39q6 0 18 -13.5t12 -19.5q0 -12 -13 -24.5 t-26 -12.5q-25 0 -24 31zM440 500q0 51 35 51q31 0 31 -27q0 -6 -29 -49q-4 -2 -12 -2q-25 0 -25 27zM455 637q0 39 34 39q29 0 29 -29q0 -49 -39 -49q-25 0 -24 39zM545 121v6h22v-6h-22zM573 121v6h11v-6h-11zM662 121v6l16 -4l-2 -6z" />
<glyph unicode="&#xb0;" horiz-adv-x="555" d="M35 1569q0 92 82 178t262 86q84 0 129 -66q39 -55 39 -143q0 -84 -83 -150.5t-169 -66.5q-63 0 -123 43q-66 47 -66 106q0 92 70 146q63 49 158 49q51 0 93 -31.5t42 -83.5q0 -53 -51 -100t-105 -47q-150 0 -149 92q0 104 160 105q23 0 42 -17.5t19 -40.5 q0 -27 -31.5 -49.5t-60.5 -22.5q-16 0 -33.5 13.5t-17.5 27.5q0 20 22 35h12l-10 -20q0 -35 35 -35q55 0 55 47q0 41 -61 41q-104 0 -105 -80q0 -37 39 -59q31 -18 72 -19q55 0 99 36t44 89q0 43 -36.5 72t-81.5 29q-88 0 -141.5 -45.5t-53.5 -131.5q0 -47 66 -88 q59 -39 110 -38q78 0 147.5 60t69.5 138q0 76 -44 131.5t-118 55.5q-119 0 -206 -62q-100 -70 -101 -184q0 -80 66.5 -141.5t148.5 -61.5q10 0 88 10l4 -12l-6 -12q-51 -10 -86 -11q-96 0 -165.5 66t-69.5 162z" />
<glyph unicode="&#xb1;" horiz-adv-x="804" d="M55 211q6 14 6 22t-4 15l11 16q68 -37 131 -37q436 0 483 29q10 6 27 25l12 -9q6 -37 16 -114l-4 -6l-8 2q-49 31 -178 36h-191q-164 0 -235 -22q-16 -16 -45 -43l-4 12q-4 12 -13 10v13q2 2 4 8q0 29 -8 43zM55 668q6 63 25 63q2 0 51 -18.5t76 -18.5q6 0 76 4 q35 2 75 2q-2 45 -6 136q-6 78 -45 120l12 23q41 8 121 20l11 -6l2 -16l-2 -6q-25 -43 -23 -150l2 -116q119 -4 152 -3q90 4 139 46l22 -15q8 -41 17 -121l-6 -10l-17 -2l-6 2q-51 33 -303 33q4 -168 31 -260q25 -18 51 -47q-33 -27 -49 -27q-8 0 -12 4q-12 0 -39 -12l-37 4 q-27 6 -27 18q0 4 15.5 46t15.5 67q0 -29 -15 209q-145 0 -227 -23q-20 -23 -49 -49q-23 31 -23 56q1 6 3 8q2 12 -11 39z" />
<glyph unicode="&#xb2;" horiz-adv-x="444" d="M0 1282l2 2l2 12q109 102 211 232q133 168 133 233q0 57 -90 58q-47 0 -100 -17q-70 -23 -70 -59q0 -18 25 -19q8 0 18 2l8 -4v-4q-55 -33 -73 -32q-16 0 -17 26q0 111 217 129l4 2q123 -35 123 -110q0 -35 -51 -95q-27 -31 -80 -90q0 -4 -57 -80v-8h31q37 0 69.5 -19.5 t32.5 -54.5q0 -63 -78 -63q-82 0 -82 47q0 41 45 41q31 0 60 -16l2 -2q0 -25 -23 -33l-10 10l2 10h10l2 6q0 10 -43 11q-31 0 -30 -27q0 -33 69 -33q59 0 60 47q0 29 -30 45.5t-61 16.5q-74 0 -100 -43q-14 -23 -41 -68q6 -27 25 -26q31 0 37 -2l16 2q8 -6 115 -6 q68 0 137 51l12 -6q-4 -10 -4 -60l-4 -10q-10 4 -29 4q-14 0 -33 -2l13 -2q-174 -2 -375 4zM156 1774q0 16 24 16q10 0 10 -10q0 -16 -20 -17q-14 0 -14 11zM227 1786q2 6 15 14h22q2 -8 2 -6q0 -16 -14 -16q-25 0 -25 8zM274 1679q0 16 17 17h6q4 -2 6 -2l2 -6 q0 -16 -22 -21q-8 6 -9 12zM287 1747q0 18 26 18q13 0 13 -8q0 -18 -27 -18q-12 0 -12 8zM399 1278v2l13 -2v-2z" />
<glyph unicode="&#xb3;" horiz-adv-x="419" d="M0 1366q0 37 37 59.5t76 22.5q113 0 112 -68q0 -74 -92 -73q-20 0 -45 14t-25 33q0 39 50 39q35 0 34 -21l-10 -6q-2 0 -10 5t-16 5q-27 0 -27 -24q0 -29 53 -29q70 0 70 59q0 47 -92 48q-94 0 -95 -70q0 -84 162 -84q51 0 104.5 58.5t53.5 109.5q0 113 -162 112 q-35 0 -53 17l2 12q8 0 25.5 -2t25.5 -2q63 0 123 33q70 39 70 98q0 111 -144 111q-115 0 -114 -60q0 -20 24 -37v-8l-10 -6l-16 2q-47 0 -33 -2q-18 10 -19 33q0 39 47 70q41 29 82 28q119 0 160 -16q64 -25 64 -111q0 -49 -37 -89t-86 -54q104 -47 104 -133 q0 -102 -104 -154q-53 -18 -107 -35l-12 4l-4 -4q-166 8 -166 115zM213 1624q0 10 14 10h4q12 0 19 -4v-6q0 -16 -21 -16q-16 0 -16 16zM260 1786q0 18 27 18q18 0 18 -16t-26 -16q-18 0 -19 14zM283 1655q0 20 20 20q2 0 8 -2h8l3 -6q0 -6 -9.5 -15.5t-15.5 -9.5 q-14 0 -14 13zM301 1720q-6 20 27 21q14 0 14 -10q0 -23 -23 -23q-10 0 -18 12z" />
<glyph unicode="&#xb4;" horiz-adv-x="378" d="M-340 1454q2 0 10 -4t15 -4q14 0 55 72q55 96 86 135q57 72 115 71q20 0 63 -43l27 5q-20 37 -78 77q-66 47 -84 70h-27q0 -18 -8 -59q-8 -20 -100 -158q-76 -113 -74 -162z" />
<glyph unicode="&#xb5;" horiz-adv-x="1634" d="M45 903q0 254 387 254h82q59 0 68 10q10 2 19 -7t7 -17q-102 -176 -102 -510q0 -662 321 -662q358 0 359 391q0 94 -18.5 280.5t-18.5 281.5q0 106 -139 166l6 43q66 -6 108 10l19 22q47 0 138 8.5t138 8.5q185 0 185 -160q0 -66 -52 -129q-53 -70 -116 -70q-43 0 -87 36 t-44 79q0 39 35.5 67.5t76.5 28.5q43 0 58 -43l-41 -55l-33 22l20 25l-14 2q-33 0 -53 -49l51 -57h33q53 0 87 46t34 101q0 33 -58 104l-63 13q-16 0 -49 -4l-48 -9l-2 -6q-70 10 -69 -137q0 -106 19.5 -316t19.5 -317q0 -39 -12.5 -113.5t-12.5 -113.5q0 -78 123 -186 q0 -4 -12.5 -5.5t-67.5 -3.5l-264 -14l-6 10q-43 -35 -192.5 -47t-157.5 -18l-58 24l-33 -297l-69 -4q-115 700 -115 1288q0 188 -53 234h-37q-98 0 -172 -51q-86 -57 -86 -152q0 -53 51 -84q43 -27 98 -26q111 0 111 110q0 55 -49 56q-27 0 -59.5 -17.5t-32.5 -40.5 q0 -27 26 -26q18 0 74 20v-18l-80 -50q-23 0 -44 22.5t-21 45.5q0 47 49 80q43 31 92 29l37 -2q18 -8 34.5 -43t16.5 -56q0 -61 -46 -108t-108 -47q-74 0 -131 40.5t-57 112.5z" />
<glyph unicode="&#xb6;" horiz-adv-x="813" d="M27 1372q0 119 96 199q90 76 213 76h457v-142h-74v-1382h-123v1100q-31 -43 -78 -74v-944h-131v895l-51 -4q-121 -10 -215 72.5t-94 203.5z" />
<glyph unicode="&#xb7;" horiz-adv-x="382" d="M33 952q0 82 59.5 131.5t143.5 49.5q55 0 96 -37t41 -90q0 -49 -47 -100.5t-97 -57.5l25 -12q12 -6 16 -27l-16 -14q-14 0 -43 -3.5t-43 -3.5q-102 0 -123 19q-12 72 -12 145zM70 952q0 -55 39 -55q10 0 20 10q-23 47 -23 78q0 20 41 66q25 27 76 26q51 0 51 -86 q0 -39 -36 -41q-6 10 -15 17q12 10 13 34q0 37 -21 37q-20 0 -44 -19.5t-24 -39.5q0 -31 30 -58.5t61 -27.5q27 0 61.5 38.5t34.5 65.5q0 39 -32 67t-73 28q-66 0 -112.5 -38t-46.5 -102z" />
<glyph unicode="&#xb8;" horiz-adv-x="374" d="M8 -229q51 -27 162 -35q123 -10 168 -27l22 15q-10 16 -24 55q-33 197 -107 237q-31 16 -39 50q-6 27 -14 55l-4 82q-41 -2 -49 -7.5t-8 -41.5v-119q33 -27 67 -78q2 -10 47 -34.5t45 -61.5q0 -29 -21.5 -52.5t-49.5 -23.5q-14 0 -38 12.5t-34 14.5z" />
<glyph unicode="&#xb9;" horiz-adv-x="456" d="M18 1712q76 10 111 78q-8 14 -12 22l184 11q8 0 37 -6v-9q-70 -18 -82 -43q-6 -12 -6 -73q0 -25 2 -73t2 -73q0 -16 -3 -48t-3 -48q0 -145 86 -150q0 -2 4 -2q6 0 6 2q8 -2 16 -2q18 0 42 15.5t24 32.5q0 39 -57 38q-57 0 -58 -41q0 -8 35 -20l29 16q0 8 -21 9v8l13 4 l26 -17q0 -12 -16.5 -22t-30.5 -10q-51 0 -51 26q0 25 25.5 43.5t50.5 18.5t49 -14t24 -37q0 -27 -47 -52q-35 -12 -71 -26q-23 2 -64 0q-43 -2 -61 -2q-117 0 -135 14l6 6q45 14 125 51q14 45 14 84q0 262 2 179q-2 137 -29 170q-23 0 -75 -46q-23 -20 -70 -59h-12 q-2 16 -9 45zM301 1767q0 12 27 13q18 -1 18 -15q0 -23 -22 -22q-23 0 -23 24zM303 1692q0 16 19 16q18 0 18 -14q0 -20 -23 -21q-14 0 -14 19zM307 1618q0 20 19 20q18 0 18 -14l-22 -22l-11 4q-4 16 -4 12z" />
<glyph unicode="&#xba;" horiz-adv-x="534" d="M0 1534q0 123 55 209q66 100 183 100q96 0 186 -67q98 -72 98 -166q0 -147 -61 -238q-70 -104 -211 -104q-111 0 -180.5 76.5t-69.5 189.5zM31 1520q0 -102 43 -138l8 7l6 -3q8 -23 44 -41t63 -18q61 0 106 49l8 2q55 45 56 92q0 68 -13 93q-23 45 -92 45q-45 0 -91 -33 t-46 -78q0 -55 45 -65l6 -7l33 -8q25 0 49.5 18.5t24.5 43.5q0 39 -37 39l-35 -15q14 -2 33 -14q-12 -10 -33 -14q-31 14 -31 24q0 18 24.5 30.5t45.5 12.5q23 0 41 -16.5t18 -38.5q0 -76 -98 -92q-111 31 -111 102q0 51 60 94q53 39 106 39q51 0 90 -27.5t39 -76.5 q0 -68 -12 -99q-16 -41 -66 -71l-10 -23l8 -18h13q80 0 118 96q31 70 31 164q0 82 -80 155.5t-162 73.5q-12 0 -49 -8q-80 -63 -112 -119q-41 -68 -41 -157zM98 1700q0 29 31 29q16 -1 16 -13q0 -14 -24 -26h-19q0 2 -2 5t-2 5zM164 1753q0 14 24 29h17q6 -11 6 -17 q0 -27 -33 -26q-14 0 -14 14zM250 1749q0 6 14.5 17.5t22.5 11.5q4 0 11 -9.5t7 -11.5q0 -23 -33 -22q-23 0 -22 14z" />
<glyph unicode="&#xbb;" horiz-adv-x="591" d="M-567 315q2 -29 14 -30q18 -16 18 -29q16 -10 19 -18l14 -7q16 57 123 164q80 80 156 140q10 -10 22 -35q-35 -39 -106.5 -112t-134.5 -75l-13 -2q2 -29 17 -30q16 -16 16 -29q18 -10 21 -19l12 -6q20 63 90 129q41 37 121 111l2 -2l4 6q29 33 63 59q18 -27 21 -36 q4 -20 6 -41q16 6 29.5 24.5t21.5 20.5q6 20 15 22l2 17q-39 6 -62 18q12 10 39 6l2 10q-14 27 -47 76h-6l-2 -6q-6 -16 -29 -53l-147 129q-113 102 -111 139h-10q-23 -20 -62 -63v-7l7 -2l10 2q28 3 223 -161q-4 -14 -24 -33q-49 43 -148 129q-113 102 -111 139h-10 q-20 -20 -61 -63v-4l6 -2h12q18 2 148 -101q117 -92 143 -123q-197 -244 -303 -250zM-190 559q10 6 18 6h16q6 0 9 6l8 -8q-7 -6 -15 -16q-23 4 -36 12z" />
<glyph unicode="&#xbc;" horiz-adv-x="1148" d="M-2 186q72 43 106 70q61 49 328 434q236 342 322 486q35 59 32 145l25 12q57 -27 172 -90l2 -14l-12 -12q-119 -59 -424 -476q-293 -399 -356 -565q-8 -16 -5 -47q6 -43 7 -47l-2 -31q-10 2 -29 8q-16 6 -23 -8l-14 10l-6 17l-43 28l-27 3l-24 34l-19 7zM180 1354 q63 8 94 73q-8 14 -10 23l156 8q8 0 33 -6v-6q-59 -18 -72 -41q-4 -12 -4 -74q0 -23 2 -70t2 -69q0 -16 -3 -47t-3 -47q0 -139 74 -144q0 -10 8 2q6 -4 14 -4q16 0 36.5 15.5t20.5 29.5q0 39 -49 39t-49 -39q0 -8 29 -20l24 16q0 8 -16 6v11l10 4l23 -17q-2 -33 -41 -32 q-43 0 -43 26q0 23 20.5 40.5t42.5 17.5q64 -1 64 -50q0 -27 -35 -43l-66 -30q-20 2 -55 0t-51 -2q-100 0 -117 14l6 6q39 12 107 49q12 43 12 80q0 254 2 172q-2 133 -24 164q-16 0 -125 -100h-9q-2 14 -8 45zM420 1405q0 12 22 12q17 0 17 -14q0 -20 -19 -21q-20 0 -20 23 zM422 1331q0 18 16 19q15 -1 15 -15q0 -20 -19 -20q-12 0 -12 16zM426 1262q0 18 16 18q15 0 15 -12l-19 -23l-10 4q-2 14 -2 13zM623 698q0 78 114 78l37 -4q6 -4 6 0h19l6 -2q4 4 12 4t21 -4q-16 -45 -17 -113q0 -25 -15 -71.5t-15 -69.5q0 -25 63 -27h80q4 2 10 7 q0 33 5 97t5 97q0 37 -18 64l6 10q37 6 45 6q82 0 115 -6q74 -15 74 -62q0 -27 -25 -48t-53 -21q-18 0 -41 10q-29 12 -29 27q0 45 47 45l23 -4l18 -19l-20 -16l-6 2l4 12q-6 10 -19 10q-31 0 -31 -24q0 -27 52 -27q61 0 61 51t-74 52q-98 0 -98 -199q0 -18 37 -66 q0 -8 -13.5 -12t-15.5 -10q-8 -37 -8 -238q0 -39 33 -47l4 -4v-10l-31 -8h-92l-12 10q59 57 59 289l-2 18q-33 4 -211 0l-10 6q4 10 43 82q27 49 27 111q0 86 -60 86q-96 0 -96 -55q0 -18 12 -29l41 -14q41 0 41 38q0 29 -29 29q-31 0 -30 -24l20 -15l13 8h6q-4 -23 -23 -22 q-8 0 -20.5 10t-12.5 16q0 43 52 43q41 0 41 -38q0 -57 -66 -58q-59 0 -59 49zM864 207q0 12 13 12q12 0 12 -8q0 -18 -12 -18t-13 14zM881 248q0 25 18 24q10 0 10 -12q0 -6 -10 -20q-6 -2 -8 -2q-10 0 -10 10zM891 309q0 16 14 17q13 -1 13 -13q0 -18 -15 -18 q-12 0 -12 14zM895 365q0 12 18 12q8 0 9 -10q-1 -19 -15 -19q-12 0 -12 17z" />
<glyph unicode="&#xbd;" horiz-adv-x="1013" d="M20 186q72 43 107 70q61 49 328 434q236 342 321 486q35 59 33 145l25 12q57 -27 172 -90l2 -14l-15 -12q-117 -59 -422 -476q-293 -399 -358 -565q-6 -16 -2 -47q6 -39 4 -47l-2 -31q-8 2 -27 8q-16 6 -22 -8l-14 10l-7 17l-43 28l-26 3l-25 34l-18 7zM203 1348 q66 10 96 79q-6 14 -10 23l164 8q10 2 32 -6v-6q-61 -20 -73 -45q-4 -8 -4 -74v-74q0 -18 2 -45v-28q-4 -72 -4 -97q0 -145 75 -149q0 -2 4 -2q4 2 7 2q6 -2 12 -2q18 0 38.5 15.5t20.5 31.5q0 39 -51 39q-49 0 -49 -39q0 -10 31 -21l24 15q0 8 -18 8v10l10 2l25 -14 q0 -35 -41 -35q-47 0 -48 29q0 20 23 39.5t45 19.5q66 0 66 -51q0 -35 -107 -78q-18 2 -55 0q-39 -2 -53 -2q-104 0 -121 14l4 7q41 14 112 53q12 45 13 82q0 264 2 180q-2 137 -25 170q-20 0 -67 -45q-20 -20 -64 -59h-8q-2 14 -8 45zM453 1403q0 12 22 12q17 0 17 -14 q0 -20 -19 -21q-20 0 -20 23zM455 1327q0 16 16 16q14 0 14 -14q0 -20 -18 -20q-12 0 -12 18zM459 1253q0 18 14 19q16 0 16 -12l-18 -23l-10 4q-2 16 -2 12zM584 100l2 2l2 11q96 106 178 225q113 162 113 227q0 55 -78 56q-41 0 -86 -19q-55 -23 -56 -55q0 -16 19 -17 q6 0 16 2l8 -4v-6q-49 -29 -63 -28q-14 0 -14 22q0 109 184 127l4 2q104 -33 105 -108q0 -37 -113 -177q0 -6 -47 -79v-9h24q33 0 60.5 -19.5t27.5 -49.5q0 -61 -65 -62q-70 0 -70 43q0 41 37 41q27 0 51 -16l2 -2q0 -23 -20 -31l-8 10l2 9h10v6q0 10 -37 10q-25 0 -24 -25 q0 -31 57 -30q51 0 51 45q0 57 -78 57q-61 0 -84 -41l-32 -65q4 -27 18 -25q27 0 33 -4l12 4q8 -6 98 -6q57 0 117 49l10 -6q-4 -10 -4 -58l-4 -12q-10 6 -29 6q-10 0 -22 -2l10 -2q-147 -2 -317 4zM717 578q0 16 18 16q10 0 10 -10q0 -16 -18 -17q-10 0 -10 11zM776 590 q2 6 12 14h19q2 -2 2 -6q0 -16 -12 -16q-20 0 -21 8zM817 485q0 16 12 17h7l6 -6q0 -18 -19 -23q-6 6 -6 12zM825 553q0 16 25 16q10 0 10 -8q0 -18 -22 -18q-12 0 -13 10zM922 96v2l12 -2v-2z" />
<glyph unicode="&#xbe;" horiz-adv-x="1081" d="M20 186q72 43 107 70q61 49 328 434q236 342 321 486q35 59 33 145l25 12q57 -27 172 -90l2 -14l-15 -12q-117 -59 -422 -476q-293 -399 -358 -565q-6 -16 -2 -47q6 -39 4 -47l-2 -31q-8 2 -27 8q-16 6 -22 -8l-14 10l-7 17l-43 28l-26 3l-25 34l-18 7zM188 901 q0 35 32 58.5t67 23.5q100 0 100 -70q0 -76 -82 -75q-18 0 -39.5 16t-21.5 33q0 41 43 41q31 0 30 -21l-8 -8q-2 0 -9 5t-15 5q-23 0 -23 -24q0 -29 47 -29q59 0 60 59q0 51 -80 52q-84 0 -84 -74q0 -86 143 -86q49 0 94 61.5t45 112.5q0 117 -141 117q-31 0 -47 18l2 10 q8 2 23 0q18 -4 22 -4q59 0 113.5 40t54.5 98q0 115 -125 114q-102 0 -102 -61q0 -23 22 -39v-8l-10 -6l-14 4q-39 0 -29 -4q-16 12 -16 34q0 39 37.5 71t76.5 32q106 0 142 -17q55 -26 55 -116q0 -106 -109 -150q92 -47 93 -137q0 -106 -93 -162q-47 -16 -94 -35l-10 4 l-4 -4q-145 8 -146 121zM375 1167q0 10 14 11h4q10 0 15 -4v-5q0 -18 -17 -18q-16 0 -16 16zM418 1335q0 20 22 21q17 -1 17 -19q0 -14 -25 -14q-14 0 -14 12zM436 1200q0 20 19 21h8q4 -2 6 -2l2 -7q0 -25 -22 -24q-12 0 -13 12zM453 1268q0 20 24 20q12 0 12 -10 q0 -23 -20 -23q-12 6 -16 13zM580 694q0 82 116 82l39 -4q4 -2 6 0h19l6 -4q6 4 14 4t21 -4q-18 -47 -19 -117q0 -25 -14 -74t-14 -73q0 -31 63 -31h41q29 2 43 2q4 2 10 4q-2 37 4.5 107.5t6.5 99.5q0 37 -21 66l6 10q39 6 47 6q96 0 119 -4q76 -15 76 -66q0 -29 -25.5 -51 t-56.5 -22q-18 0 -45 12t-27 27q0 47 52 47l22 -4l18 -19l-22 -16l-4 2l2 12q-4 10 -16 10q-33 0 -33 -24q0 -31 51 -31q63 0 63 55t-75 56q-100 0 -101 -209q0 -23 39 -72q0 -8 -13 -11t-15 -11q-10 -41 -11 -250q0 -41 33 -49l6 -7v-10l-33 -8h-94l-12 10q61 61 61 305 l-2 19q-35 4 -217 0l-10 6q2 10 43 86q29 53 29 119q0 90 -64 90q-98 0 -98 -60q0 -18 12 -28l43 -15q43 0 43 39q0 31 -30 31q-33 0 -33 -25l22 -16l13 8h6q-4 -23 -25 -22q-6 0 -19.5 10t-13.5 16q0 45 54 45q43 0 43 -41q0 -61 -68 -61q-61 0 -61 53zM827 178q0 12 13 12 q14 0 14 -10q0 -18 -14 -18q-12 0 -13 16zM846 219q0 27 18 27q10 -1 10 -15q0 -6 -10 -20q-6 -2 -8 -2q-10 0 -10 10zM856 285q0 16 14 16q13 0 13 -12q0 -18 -15 -19q-12 0 -12 15zM860 342q0 12 19 12q8 0 8 -8q-1 -22 -15 -22q-12 0 -12 18z" />
<glyph unicode="&#xbf;" horiz-adv-x="845" d="M43 360q0 160 76 261q47 61 174 144t176 143.5t61 176.5q2 19 2 201v64q-8 -2 -10 8q4 4 8 10q0 27 -53 113l2 14l17 6q170 0 221 -18l-2 -19q-45 -12 -53 -45q-6 -156 -15 -342q-14 -180 -14 -268v-23q-35 -18 -144 -24q-156 -23 -266 -131q-117 -115 -117 -269 q0 -135 89.5 -221t224.5 -86q20 0 43 2l6 6q137 20 238 105q111 96 110 227q0 88 -69 133q-47 31 -146 56q-78 -35 -98 -52q-39 -33 -39 -106q0 -43 28.5 -70.5t71.5 -27.5q41 0 86 24q53 29 54 66q0 33 -23 57.5t-55 24.5q-84 0 -86 -68l-2 -12l-19 -8l-14 37q45 90 133 90 q39 0 67.5 -36t28.5 -75q0 -55 -56 -98t-114 -43q-57 0 -96 40t-39 97q0 70 54.5 132t123.5 62q90 0 161 -60t71 -148q0 -125 -70 -211q-31 -39 -166 -148l-53 -6q-29 -29 -193 -29q-145 0 -230 98.5t-85 245.5zM440 1595v7q0 14 16.5 66t24.5 63q45 55 88 55h9q-2 4 8 6 q4 0 10 -4t8 -4q84 -12 84 -90q0 -51 -44 -83t-97 -32q-4 0 -103 4q-4 4 -4 12zM489 1659q4 2 9 2q12 0 24 -6q-4 6 -4 12q0 25 25.5 43.5t50.5 18.5q43 0 43 -41q0 -35 -31 -62q20 2 35.5 22.5t15.5 41.5q0 27 -23.5 45t-49.5 18q-37 0 -64 -28.5t-31 -65.5zM555 1673 q0 -12 10 -28.5t23 -16.5q-8 16 -8 19v2q10 4 28 18v12l-22 15q-4 -1 -31 -15v-6zM588 1622l14 -2v8h-14v-6z" />
<glyph unicode="&#xc0;" d="M78 127q0 186 137 186q94 0 94 -104q0 -33 -21.5 -57.5t-54.5 -24.5q-20 0 -50.5 21.5t-30.5 41.5q0 43 71 74l31 -31q-66 -2 -64 -45l46 -20l38 35l-32 69l-37 4q-90 0 -90 -114q0 -113 106 -113q98 0 207 295q20 55 133 393q-18 0 -57 -5t-58 -5q-156 0 -155 205 q0 96 143 170q45 0 90 -35t45 -78q0 -47 -33.5 -88t-80.5 -41q-86 0 -86 96l39 66l47 25q33 -10 49 -48l2 -22l-14 -49h-39l-7 12l19 33l-16 24l-43 -51q0 -39 55 -45l61 39l10 37q0 27 -35.5 55.5t-64.5 28.5q-43 0 -78 -57q-31 -49 -30 -97q0 -53 31.5 -96t84.5 -43 q51 0 129 20q68 121 150 445q78 305 160 434l39 12q203 -401 202 -710l8 -8q131 49 222 49q59 0 119.5 -41t60.5 -99q0 -63 -56.5 -109t-121.5 -46q-74 0 -105 24q-37 51 -45 82l84 105l47 6q96 0 97 -70q0 -35 -44 -65h-30l-60 37l17 26h14l35 -22l27 10v18l-62 25 q-14 0 -47 -30t-33 -44q0 -61 101 -61q53 0 99 29.5t46 78.5q0 43 -68 74q-55 27 -104 27t-197 -54l105 -807l39 -36l8 -29l100 -31q82 0 123 68q35 57 35 143q0 127 -121 127q-57 0 -100 -27q-47 -33 -47 -88q0 -41 26.5 -76.5t65.5 -35.5q76 0 76 78l-13 34h-39l-24 -30 l-21 20l54 55q80 2 79 -77q0 -47 -31.5 -86t-76.5 -39q-43 0 -88 48t-45 91q0 82 51 126t133 44q158 0 158 -162q0 -109 -66 -186q-68 -84 -174 -84h-239l-64 18v15q59 63 59 147q0 43 -9 129t-9 129q0 80 -31 240q-18 96 -45 241q-115 -37 -342 -106q-45 -119 -112 -354 q-80 -276 -80 -342q0 -14 26 -50l17 9l41 -29q25 -20 30 -39l-4 -16l-26 -6q-39 6 -193 16q-111 6 -188 31q-84 96 -84 143zM506 160q0 49 47 49q35 0 35 -47q0 -53 -33 -53q-12 0 -30.5 19t-18.5 32zM549 1958q20 33 80.5 77t79.5 68h26q0 -18 10 -59q6 -16 101 -158 q74 -111 74 -162q-4 0 -12.5 -4t-12.5 -4q-12 0 -55 74q-53 92 -86 133q-59 72 -115 72q-20 0 -66 -43zM569 328q0 16 12.5 35.5t28.5 19.5q27 0 27 -45q0 -43 -39 -43q-29 0 -29 33zM618 492q0 18 14.5 38.5t33.5 20.5q8 0 17 -17.5t9 -25.5q0 -16 -12 -42t-29 -26 q-12 0 -22.5 18.5t-10.5 33.5zM655 670q0 12 12.5 30.5t24.5 18.5q31 0 31 -43q0 -12 -11.5 -29.5t-23.5 -17.5q-33 0 -33 41zM688 883q0 -25 4 -37h25q29 0 96 45q59 14 170 57v15q0 117 -80 454l-18 10q-61 -74 -129 -261t-68 -283z" />
<glyph unicode="&#xc1;" d="M78 127q0 186 137 186q94 0 94 -104q0 -33 -21.5 -57.5t-54.5 -24.5q-20 0 -50.5 21.5t-30.5 41.5q0 43 71 74l31 -31q-66 -2 -64 -45l46 -20l38 35l-32 69l-37 4q-90 0 -90 -114q0 -113 106 -113q98 0 207 295q20 55 133 393q-18 0 -57 -5t-58 -5q-156 0 -155 205 q0 96 143 170q45 0 90 -35t45 -78q0 -47 -33.5 -88t-80.5 -41q-86 0 -86 96l39 66l47 25q33 -10 49 -48l2 -22l-14 -49h-39l-7 12l19 33l-16 24l-43 -51q0 -39 55 -45l61 39l10 37q0 27 -35.5 55.5t-64.5 28.5q-43 0 -78 -57q-31 -49 -30 -97q0 -53 31.5 -96t84.5 -43 q51 0 129 20q68 121 150 445q78 305 160 434l39 12q203 -401 202 -710l8 -8q131 49 222 49q59 0 119.5 -41t60.5 -99q0 -63 -56.5 -109t-121.5 -46q-74 0 -105 24q-37 51 -45 82l84 105l47 6q96 0 97 -70q0 -35 -44 -65h-30l-60 37l17 26h14l35 -22l27 10v18l-62 25 q-14 0 -47 -30t-33 -44q0 -61 101 -61q53 0 99 29.5t46 78.5q0 43 -68 74q-55 27 -104 27t-197 -54l105 -807l39 -36l8 -29l100 -31q82 0 123 68q35 57 35 143q0 127 -121 127q-57 0 -100 -27q-47 -33 -47 -88q0 -41 26.5 -76.5t65.5 -35.5q76 0 76 78l-13 34h-39l-24 -30 l-21 20l54 55q80 2 79 -77q0 -47 -31.5 -86t-76.5 -39q-43 0 -88 48t-45 91q0 82 51 126t133 44q158 0 158 -162q0 -109 -66 -186q-68 -84 -174 -84h-239l-64 18v15q59 63 59 147q0 43 -9 129t-9 129q0 80 -31 240q-18 96 -45 241q-115 -37 -342 -106q-45 -119 -112 -354 q-80 -276 -80 -342q0 -14 26 -50l17 9l41 -29q25 -20 30 -39l-4 -16l-26 -6q-39 6 -193 16q-111 6 -188 31q-84 96 -84 143zM506 160q0 49 47 49q35 0 35 -47q0 -53 -33 -53q-12 0 -30.5 19t-18.5 32zM569 328q0 16 12.5 35.5t28.5 19.5q27 0 27 -45q0 -43 -39 -43 q-29 0 -29 33zM618 492q0 18 14.5 38.5t33.5 20.5q8 0 17 -17.5t9 -25.5q0 -16 -12 -42t-29 -26q-12 0 -22.5 18.5t-10.5 33.5zM655 670q0 12 12.5 30.5t24.5 18.5q31 0 31 -43q0 -12 -11.5 -29.5t-23.5 -17.5q-33 0 -33 41zM688 883q0 -25 4 -37h25q29 0 96 45 q59 14 170 57v15q0 117 -80 454l-18 10q-61 -74 -129 -261t-68 -283zM883 1712q2 0 10 -4t14 -4q14 0 56 72q53 92 86 133q59 74 114 73q20 0 64 -43l26 5q-20 35 -77 75q-63 45 -84 72h-27q0 -20 -8 -59q-8 -23 -101 -160q-75 -113 -73 -160z" />
<glyph unicode="&#xc2;" d="M78 127q0 186 137 186q94 0 94 -104q0 -33 -21.5 -57.5t-54.5 -24.5q-20 0 -50.5 21.5t-30.5 41.5q0 43 71 74l31 -31q-66 -2 -64 -45l46 -20l38 35l-32 69l-37 4q-90 0 -90 -114q0 -113 106 -113q98 0 207 295q20 55 133 393q-18 0 -57 -5t-58 -5q-156 0 -155 205 q0 96 143 170q45 0 90 -35t45 -78q0 -47 -33.5 -88t-80.5 -41q-86 0 -86 96l39 66l47 25q33 -10 49 -48l2 -22l-14 -49h-39l-7 12l19 33l-16 24l-43 -51q0 -39 55 -45l61 39l10 37q0 27 -35.5 55.5t-64.5 28.5q-43 0 -78 -57q-31 -49 -30 -97q0 -53 31.5 -96t84.5 -43 q51 0 129 20q68 121 150 445q78 305 160 434l39 12q203 -401 202 -710l8 -8q131 49 222 49q59 0 119.5 -41t60.5 -99q0 -63 -56.5 -109t-121.5 -46q-74 0 -105 24q-37 51 -45 82l84 105l47 6q96 0 97 -70q0 -35 -44 -65h-30l-60 37l17 26h14l35 -22l27 10v18l-62 25 q-14 0 -47 -30t-33 -44q0 -61 101 -61q53 0 99 29.5t46 78.5q0 43 -68 74q-55 27 -104 27t-197 -54l105 -807l39 -36l8 -29l100 -31q82 0 123 68q35 57 35 143q0 127 -121 127q-57 0 -100 -27q-47 -33 -47 -88q0 -41 26.5 -76.5t65.5 -35.5q76 0 76 78l-13 34h-39l-24 -30 l-21 20l54 55q80 2 79 -77q0 -47 -31.5 -86t-76.5 -39q-43 0 -88 48t-45 91q0 82 51 126t133 44q158 0 158 -162q0 -109 -66 -186q-68 -84 -174 -84h-239l-64 18v15q59 63 59 147q0 43 -9 129t-9 129q0 80 -31 240q-18 96 -45 241q-115 -37 -342 -106q-45 -119 -112 -354 q-80 -276 -80 -342q0 -14 26 -50l17 9l41 -29q25 -20 30 -39l-4 -16l-26 -6q-39 6 -193 16q-111 6 -188 31q-84 96 -84 143zM506 160q0 49 47 49q35 0 35 -47q0 -53 -33 -53q-12 0 -30.5 19t-18.5 32zM569 328q0 16 12.5 35.5t28.5 19.5q27 0 27 -45q0 -43 -39 -43 q-29 0 -29 33zM618 492q0 18 14.5 38.5t33.5 20.5q8 0 17 -17.5t9 -25.5q0 -16 -12 -42t-29 -26q-12 0 -22.5 18.5t-10.5 33.5zM629 1686q88 35 241 284l-22 21q-14 2 -39 6l6 20l4 6h6q18 14 19 27q16 6 18 14l12 2q6 -39 17 -63q6 14 4 41l8 2q20 -14 60 -49v-6l-5 -2 q-20 0 -43 -29q33 -49 101 -148q78 -111 112 -114v-10q-14 -23 -49 -64h-4q-2 2 -2 16q0 23 -76 148q-70 113 -100 151q-201 -207 -201 -309v-12q-8 10 -15 9t-15.5 12.5t-18.5 13.5q-6 16 -14 18zM655 670q0 12 12.5 30.5t24.5 18.5q31 0 31 -43q0 -12 -11.5 -29.5 t-23.5 -17.5q-33 0 -33 41zM688 883q0 -25 4 -37h25q29 0 96 45q59 14 170 57v15q0 117 -80 454l-18 10q-61 -74 -129 -261t-68 -283z" />
<glyph unicode="&#xc3;" d="M78 127q0 186 137 186q94 0 94 -104q0 -33 -21.5 -57.5t-54.5 -24.5q-20 0 -50.5 21.5t-30.5 41.5q0 43 71 74l31 -31q-66 -2 -64 -45l46 -20l38 35l-32 69l-37 4q-90 0 -90 -114q0 -113 106 -113q98 0 207 295q20 55 133 393q-18 0 -57 -5t-58 -5q-156 0 -155 205 q0 96 143 170q45 0 90 -35t45 -78q0 -47 -33.5 -88t-80.5 -41q-86 0 -86 96l39 66l47 25q33 -10 49 -48l2 -22l-14 -49h-39l-7 12l19 33l-16 24l-43 -51q0 -39 55 -45l61 39l10 37q0 27 -35.5 55.5t-64.5 28.5q-43 0 -78 -57q-31 -49 -30 -97q0 -53 31.5 -96t84.5 -43 q51 0 129 20q68 121 150 445q78 305 160 434l39 12q203 -401 202 -710l8 -8q131 49 222 49q59 0 119.5 -41t60.5 -99q0 -63 -56.5 -109t-121.5 -46q-74 0 -105 24q-37 51 -45 82l84 105l47 6q96 0 97 -70q0 -35 -44 -65h-30l-60 37l17 26h14l35 -22l27 10v18l-62 25 q-14 0 -47 -30t-33 -44q0 -61 101 -61q53 0 99 29.5t46 78.5q0 43 -68 74q-55 27 -104 27t-197 -54l105 -807l39 -36l8 -29l100 -31q82 0 123 68q35 57 35 143q0 127 -121 127q-57 0 -100 -27q-47 -33 -47 -88q0 -41 26.5 -76.5t65.5 -35.5q76 0 76 78l-13 34h-39l-24 -30 l-21 20l54 55q80 2 79 -77q0 -47 -31.5 -86t-76.5 -39q-43 0 -88 48t-45 91q0 82 51 126t133 44q158 0 158 -162q0 -109 -66 -186q-68 -84 -174 -84h-239l-64 18v15q59 63 59 147q0 43 -9 129t-9 129q0 80 -31 240q-18 96 -45 241q-115 -37 -342 -106q-45 -119 -112 -354 q-80 -276 -80 -342q0 -14 26 -50l17 9l41 -29q25 -20 30 -39l-4 -16l-26 -6q-39 6 -193 16q-111 6 -188 31q-84 96 -84 143zM506 160q0 49 47 49q35 0 35 -47q0 -53 -33 -53q-12 0 -30.5 19t-18.5 32zM569 328q0 16 12.5 35.5t28.5 19.5q27 0 27 -45q0 -43 -39 -43 q-29 0 -29 33zM618 492q0 18 14.5 38.5t33.5 20.5q8 0 17 -17.5t9 -25.5q0 -16 -12 -42t-29 -26q-12 0 -22.5 18.5t-10.5 33.5zM641 1853q0 66 46 107t112 41q74 0 100 -47q14 -25 21 -96q6 -61 26 -80q96 -43 94 -43q43 0 80 33.5t37 76.5q0 14 -11 29.5t-26 15.5 q-8 0 -33 -18l-16 6v10q0 2 2 8q14 27 23 46l22 12q72 -2 72 -86q0 -76 -46 -122t-122 -46q-133 0 -133 143q0 55 -31 80q-20 16 -84 35q-72 -23 -72 -64q0 -31 25 -56.5t25 -22.5q0 -12 -13.5 -30t-25.5 -18q-31 0 -51.5 27t-20.5 59zM655 670q0 12 12.5 30.5t24.5 18.5 q31 0 31 -43q0 -12 -11.5 -29.5t-23.5 -17.5q-33 0 -33 41zM688 883q0 -25 4 -37h25q29 0 96 45q59 14 170 57v15q0 117 -80 454l-18 10q-61 -74 -129 -261t-68 -283z" />
<glyph unicode="&#xc4;" d="M78 127q0 186 137 186q94 0 94 -104q0 -33 -21.5 -57.5t-54.5 -24.5q-20 0 -50.5 21.5t-30.5 41.5q0 43 71 74l31 -31q-66 -2 -64 -45l46 -20l38 35l-32 69l-37 4q-90 0 -90 -114q0 -113 106 -113q98 0 207 295q20 55 133 393q-18 0 -57 -5t-58 -5q-156 0 -155 205 q0 96 143 170q45 0 90 -35t45 -78q0 -47 -33.5 -88t-80.5 -41q-86 0 -86 96l39 66l47 25q33 -10 49 -48l2 -22l-14 -49h-39l-7 12l19 33l-16 24l-43 -51q0 -39 55 -45l61 39l10 37q0 27 -35.5 55.5t-64.5 28.5q-43 0 -78 -57q-31 -49 -30 -97q0 -53 31.5 -96t84.5 -43 q51 0 129 20q68 121 150 445q78 305 160 434l39 12q203 -401 202 -710l8 -8q131 49 222 49q59 0 119.5 -41t60.5 -99q0 -63 -56.5 -109t-121.5 -46q-74 0 -105 24q-37 51 -45 82l84 105l47 6q96 0 97 -70q0 -35 -44 -65h-30l-60 37l17 26h14l35 -22l27 10v18l-62 25 q-14 0 -47 -30t-33 -44q0 -61 101 -61q53 0 99 29.5t46 78.5q0 43 -68 74q-55 27 -104 27t-197 -54l105 -807l39 -36l8 -29l100 -31q82 0 123 68q35 57 35 143q0 127 -121 127q-57 0 -100 -27q-47 -33 -47 -88q0 -41 26.5 -76.5t65.5 -35.5q76 0 76 78l-13 34h-39l-24 -30 l-21 20l54 55q80 2 79 -77q0 -47 -31.5 -86t-76.5 -39q-43 0 -88 48t-45 91q0 82 51 126t133 44q158 0 158 -162q0 -109 -66 -186q-68 -84 -174 -84h-239l-64 18v15q59 63 59 147q0 43 -9 129t-9 129q0 80 -31 240q-18 96 -45 241q-115 -37 -342 -106q-45 -119 -112 -354 q-80 -276 -80 -342q0 -14 26 -50l17 9l41 -29q25 -20 30 -39l-4 -16l-26 -6q-39 6 -193 16q-111 6 -188 31q-84 96 -84 143zM506 160q0 49 47 49q35 0 35 -47q0 -53 -33 -53q-12 0 -30.5 19t-18.5 32zM569 328q0 16 12.5 35.5t28.5 19.5q27 0 27 -45q0 -43 -39 -43 q-29 0 -29 33zM618 492q0 18 14.5 38.5t33.5 20.5q8 0 17 -17.5t9 -25.5q0 -16 -12 -42t-29 -26q-12 0 -22.5 18.5t-10.5 33.5zM623 1812q0 66 44 106t109 40q84 0 84 -86q0 -66 -76 -107q-14 -8 -22 -28.5t-12 -24.5l-23 -2q-104 -10 -104 102zM655 670q0 12 12.5 30.5 t24.5 18.5q31 0 31 -43q0 -12 -11.5 -29.5t-23.5 -17.5q-33 0 -33 41zM662 1794q0 -10 8 -25q14 3 26 23q-35 18 -34 45v-43zM670 1860q25 37 40 46t56 9q8 0 12 -2q31 -39 31 -47q0 -16 -15.5 -32.5t-31.5 -16.5q-8 0 -19 10q2 4 31 22v19q-18 16 -31 16q-14 0 -28.5 -12 t-14.5 -25q0 -12 21.5 -32.5t34.5 -20.5q69 0 69 74q0 55 -57 55q-80 0 -98 -63zM688 883q0 -25 4 -37h25q29 0 96 45q59 14 170 57v15q0 117 -80 454l-18 10q-61 -74 -129 -261t-68 -283zM920 1817q0 66 45 105.5t110 39.5q84 0 84 -86q0 -66 -76 -107q-14 -8 -22 -28.5 t-12 -24.5l-23 -2q-106 -10 -106 103zM958 1841q2 2 3 4v-47q0 -8 8 -24q14 2 26 22q-37 18 -37 45zM969 1864q25 37 40 46t56 9q8 0 12 -2q31 -39 31 -47q0 -14 -16.5 -31.5t-30.5 -17.5q-8 0 -19 10q2 4 31 22v19q-18 16 -31 16q-14 0 -28.5 -12t-14.5 -25 q0 -12 21.5 -32.5t34.5 -20.5q69 0 69 74q0 55 -57 55q-80 0 -98 -63z" />
<glyph unicode="&#xc5;" d="M78 127q0 186 137 186q94 0 94 -104q0 -33 -21.5 -57.5t-54.5 -24.5q-20 0 -50.5 21.5t-30.5 41.5q0 43 71 74l31 -31q-66 -2 -64 -45l46 -20l38 35l-32 69l-37 4q-90 0 -90 -114q0 -113 106 -113q98 0 207 295q20 55 133 393q-18 0 -57 -5t-58 -5q-156 0 -155 205 q0 96 143 170q45 0 90 -35t45 -78q0 -47 -33.5 -88t-80.5 -41q-86 0 -86 96l39 66l47 25q33 -10 49 -48l2 -22l-14 -49h-39l-7 12l19 33l-16 24l-43 -51q0 -39 55 -45l61 39l10 37q0 27 -35.5 55.5t-64.5 28.5q-43 0 -78 -57q-31 -49 -30 -97q0 -53 31.5 -96t84.5 -43 q51 0 129 20q68 121 150 445q78 305 160 434l39 12q203 -401 202 -710l8 -8q131 49 222 49q59 0 119.5 -41t60.5 -99q0 -63 -56.5 -109t-121.5 -46q-74 0 -105 24q-37 51 -45 82l84 105l47 6q96 0 97 -70q0 -35 -44 -65h-30l-60 37l17 26h14l35 -22l27 10v18l-62 25 q-14 0 -47 -30t-33 -44q0 -61 101 -61q53 0 99 29.5t46 78.5q0 43 -68 74q-55 27 -104 27t-197 -54l105 -807l39 -36l8 -29l100 -31q82 0 123 68q35 57 35 143q0 127 -121 127q-57 0 -100 -27q-47 -33 -47 -88q0 -41 26.5 -76.5t65.5 -35.5q76 0 76 78l-13 34h-39l-24 -30 l-21 20l54 55q80 2 79 -77q0 -47 -31.5 -86t-76.5 -39q-43 0 -88 48t-45 91q0 82 51 126t133 44q158 0 158 -162q0 -109 -66 -186q-68 -84 -174 -84h-239l-64 18v15q59 63 59 147q0 43 -9 129t-9 129q0 80 -31 240q-18 96 -45 241q-115 -37 -342 -106q-45 -119 -112 -354 q-80 -276 -80 -342q0 -14 26 -50l17 9l41 -29q25 -20 30 -39l-4 -16l-26 -6q-39 6 -193 16q-111 6 -188 31q-84 96 -84 143zM506 160q0 49 47 49q35 0 35 -47q0 -53 -33 -53q-12 0 -30.5 19t-18.5 32zM569 328q0 16 12.5 35.5t28.5 19.5q27 0 27 -45q0 -43 -39 -43 q-29 0 -29 33zM618 492q0 18 14.5 38.5t33.5 20.5q8 0 17 -17.5t9 -25.5q0 -16 -12 -42t-29 -26q-12 0 -22.5 18.5t-10.5 33.5zM655 670q0 12 12.5 30.5t24.5 18.5q31 0 31 -43q0 -12 -11.5 -29.5t-23.5 -17.5q-33 0 -33 41zM688 883q0 -25 4 -37h25q29 0 96 45 q59 14 170 57v15q0 117 -80 454l-18 10q-61 -74 -129 -261t-68 -283zM690 1806q0 102 88 162q78 51 185 51q63 0 98 -48t35 -116v-4q0 -68 -65.5 -122t-135.5 -54q-49 0 -98 37t-49 84q0 74 55 117q49 39 125 39q41 0 73.5 -25.5t32.5 -66.5q0 -43 -40 -80t-83 -37 q-119 0 -118 72q0 86 127 86q47 0 47 -48q0 -20 -24.5 -38.5t-47.5 -18.5q-39 0 -39 35q0 14 16 27h9q-2 -8 -7 -17q0 -29 27 -29q45 0 45 39q0 33 -51 33q-80 0 -80 -65q0 -61 86 -62q43 0 79 30t36 71q0 33 -30 56t-64 23q-154 0 -154 -141q0 -39 49 -70.5t90 -31.5 q61 0 115.5 49t54.5 110q0 59 -34.5 105.5t-92.5 46.5q-94 0 -164 -51q-80 -57 -79 -148q0 -63 53 -113.5t117 -50.5q8 0 71 9l2 -9l-6 -12q-39 -6 -65 -6q-78 0 -133.5 52.5t-55.5 129.5z" />
<glyph unicode="&#xc6;" horiz-adv-x="2142" d="M78 141q0 172 137 172q94 0 94 -104q0 -33 -21.5 -57.5t-54.5 -24.5q-20 0 -50.5 21.5t-30.5 41.5q0 43 71 74l31 -31q-66 -2 -64 -45l46 -20l38 35l-32 69l-37 4q-90 0 -90 -114q0 -113 106 -113q100 0 209 295q43 131 131 393l-115 -10q-156 0 -155 201q0 98 143 174 q45 0 90 -35t45 -78q0 -47 -33.5 -88t-80.5 -41q-86 0 -86 96l39 66l47 25q33 -10 49 -48l2 -22l-14 -49h-39l-7 12l19 33l-16 24l-43 -51q0 -39 55 -45l61 39l10 37q0 27 -35.5 55.5t-64.5 28.5q-43 0 -78 -57q-31 -49 -30 -97q0 -53 31.5 -96t84.5 -43t129 20 q70 123 150 445q78 307 160 434l39 12q203 -401 202 -710l8 -8q4 0 5 6v180q0 70 -43 186q-47 125 -52 176l-14 37l-4 43q59 -2 164 -6q147 -6 155 0l35 -14q6 6 60 4q18 0 67 -4l-4 12l25 -12q68 20 196 20q98 0 232 -12q51 -37 102 -72q45 -43 45 -119q0 -57 -39 -96 t-96 -39l-33 6q2 35 66 27l47 29l18 61q-45 86 -104 109q-39 14 -152 14q-197 0 -348 -29q-268 -51 -268 -170v-319l4 -61q76 -53 274 -107q190 -51 295 -51q55 0 105 18q63 25 63 72q0 20 -20.5 53t-40.5 33l-66 -49l17 -33q4 18 41 18q10 0 6 -30q-29 -25 -49 -25l-2 2 l-60 66q0 25 46 56.5t73 31.5q66 0 100 -123l-69 -94q-74 -33 -156 -33q-41 0 -123 9t-123 9q-147 0 -192 -10q-113 -25 -113 -119q0 -313 21 -426q66 -55 227 -77q63 -8 244 -19q127 -6 221 14q150 33 149 127q0 41 -73 74l-27 -10l-23 14v21l41 16q145 -37 146 -174 q0 -57 -47 -92q-25 -18 -95.5 -41t-89.5 -39q-211 -2 -589 10l-17 -57l-108 6l-19 -22h-16l-15 16l-36 -2l-64 18v15l19 20l6 59q23 8 32 21l2 47q6 154 -30 371l-64 368q-115 -37 -342 -106q-41 -109 -110 -348q-82 -281 -82 -332q0 -29 26 -66l17 9q72 -47 71 -68l-4 -16 l-26 -6q-27 4 -195 14q-115 6 -186 33l-60 71q-25 37 -24 86zM506 160q0 49 47 49q35 0 35 -47q0 -53 -33 -53q-12 0 -30.5 19t-18.5 32zM569 328q0 16 12.5 35.5t28.5 19.5q27 0 27 -45q0 -43 -39 -43q-29 0 -29 33zM618 492q0 18 14.5 38.5t33.5 20.5q8 0 17 -17.5 t9 -25.5q0 -16 -12 -42t-29 -26q-12 0 -22.5 18.5t-10.5 33.5zM655 670q0 12 12.5 30.5t24.5 18.5q31 0 31 -43q0 -12 -11.5 -29.5t-23.5 -17.5q-33 0 -33 41zM688 883q0 -25 4 -37h25q29 0 96 45q59 14 170 57v15q0 117 -80 454l-18 10q-61 -74 -129 -261t-68 -283z M1223 287q0 6 2 8q10 8 26 27q35 -15 35 -56q0 -39 -29 -39q-35 0 -34 60zM1233 1126q0 31 43 43q10 -12 10 -32q0 -49 -26 -50q-27 0 -27 39zM1237 436q0 37 39 37q25 0 24 -35q1 -51 -30 -51q-10 0 -21.5 19.5t-11.5 29.5zM1237 602q0 16 13.5 29.5t29.5 13.5q31 0 31 -39 q0 -16 -13.5 -37.5t-27.5 -23.5q-33 23 -33 57zM1241 1286q0 53 45 55q14 -28 14 -38q0 -14 -38 -48q-20 12 -21 31zM1245 983q0 12 13.5 23.5t25.5 11.5q31 0 31 -37q0 -16 -13.5 -34.5t-27.5 -18.5q-29 0 -29 55zM1374 1581v8h12v-8h-12z" />
<glyph unicode="&#xc7;" horiz-adv-x="1077" d="M18 762l7 22q57 31 145 248q102 256 186 361q145 184 375 184q96 0 215 -74q131 -82 131 -172l-24 -33q-39 12 -70 13q-37 -4 -72 -6l-6 18l21 51q0 43 -37 72t-82 29q-104 0 -197 -74q-74 -59 -73 -137q0 -49 38.5 -85t88.5 -36q49 0 83.5 31.5t34.5 80.5q0 82 -61 82 q-51 0 -51 -67l12 -31h12l31 21l12 -25q0 -14 -22.5 -31.5t-38.5 -17.5q-14 0 -30.5 30.5t-16.5 47.5q0 47 28.5 84.5t73.5 37.5q35 0 65.5 -39.5t30.5 -76.5q0 -61 -51 -116.5t-112 -55.5q-59 0 -113 43q-59 45 -59 102q0 49 32 103q39 63 45 90l-16 30q-145 -51 -244 -305 q-82 -213 -82 -399q0 -47 -2 -53q33 -193 47 -254q33 -135 97 -244l24 -8l27 18q31 285 233 285q90 0 161 -84t71 -174q0 -63 -46 -120.5t-108 -57.5q-61 0 -106 54t-45 118q0 123 106 123l49 -9q16 -25 33 -71l-23 -39l-16 6v12q0 55 -43 55q-68 0 -68 -79q0 -45 32 -85 t75 -40q47 0 84 43t37 90q0 66 -64.5 139.5t-130.5 73.5q-74 0 -120 -54.5t-46 -130.5q0 -285 224 -284q61 0 98 24l12 -4q70 0 139 125q61 111 62 191q0 45 -74 43l-20 26l26 35q12 -8 39 -8q20 0 71.5 7t78.5 5l12 -20q-37 -207 -164 -350q-143 -162 -340 -162 q-240 0 -391 229q-135 203 -135 457q0 76 -98 153zM254 793q0 61 41 61q43 0 43 -39q0 -20 -16.5 -42.5t-34.5 -22.5q-33 0 -33 43zM274 604q0 49 41 49q43 0 43 -47q0 -16 -14 -33.5t-31 -17.5q-39 0 -39 49zM285 973q0 16 13 33.5t30 17.5q10 0 22 -14.5t12 -24.5 q0 -14 -14 -33.5t-29 -19.5q-35 0 -34 41zM313 436q0 41 45 41q14 0 26.5 -21.5t12.5 -37.5q0 -35 -35 -35q-18 0 -33.5 17.5t-15.5 35.5zM334 1137q0 20 19.5 44.5t39.5 24.5q6 0 17.5 -10t11.5 -16q0 -27 -16 -52q-16 -31 -41 -30q-31 0 -31 39zM438 -479q51 -27 162 -35 q123 -10 168 -27l23 15q-10 16 -25 55q-33 197 -107 238q-33 18 -38 49q-10 49 -15 55l-4 82q-43 -2 -47 -6q-10 -6 -10 -43v-119q0 -6 31.5 -36t33.5 -41t48.5 -35.5t46.5 -61.5q0 -31 -21.5 -53.5t-52.5 -22.5q-14 0 -37 12.5t-33 14.5z" />
<glyph unicode="&#xc8;" horiz-adv-x="1368" d="M59 240q0 86 19 120q14 29 84 93l76 6q63 6 106 -53q39 -51 39 -117q0 -55 -29.5 -94t-83.5 -39q-35 0 -61.5 24.5t-26.5 59.5q0 18 12.5 52t24.5 42l27 2l41 -14v-25l-21 -10l-20 4l-27 -29q0 -66 53 -65q29 0 51.5 29.5t22.5 58.5q0 53 -32.5 93t-84.5 40 q-137 0 -137 -164q0 -72 52.5 -129t121.5 -57q147 0 148 329q0 371 -127 381v31q33 6 70.5 70.5t37.5 101.5v180q0 166 -33 338q-27 18 -26 53l-49 9q-74 0 -128.5 -67t-54.5 -142q0 -47 34 -87t81 -40q35 0 60.5 26.5t25.5 61.5l-59 61q-31 -2 -49 -51l28 -31l35 2l-43 -34 q-18 0 -37.5 20t-19.5 39q0 37 26.5 61.5t63.5 24.5l43 -6q49 -51 49 -82q0 -49 -41 -89t-90 -40q-61 0 -99 48t-38 112q0 160 168 247l-9 11l189 -9q172 -6 182 0l33 -14l20 10q14 -12 62 -12q20 0 47 2l-6 12l24 -12q55 16 142 16q215 0 274 -14q160 -39 160 -184 q0 -59 -37 -97t-96 -38l-35 4q4 35 65 28l48 29l20 62q-47 86 -104 108q-37 14 -154 14q-193 0 -352 -30q-264 -51 -264 -168v-320l6 -61q74 -53 272 -107q190 -51 295 -51q57 0 104 19q63 25 64 71q0 23 -20.5 54.5t-41.5 31.5q-31 0 -65 -49l16 -33l17 19h24l6 -6v-25 q-29 -25 -49 -25v3l-59 65q0 27 45 57.5t74 30.5q39 0 68.5 -41t29.5 -82q-82 -129 -211 -129q-43 0 -130 10.5t-130 10.5q-195 0 -260 -47q-57 -41 -57 -158q0 -47 6 -164q6 -104 4 -166q80 -74 233 -98q43 -6 262 -19q125 -6 220 15q152 35 151 127q0 29 -22.5 49 t-51.5 20q-14 0 -26 -6l-23 15v20l41 14q146 -35 146 -172q0 -57 -48 -92q-25 -18 -96 -40.5t-90 -39.5q-238 -2 -647 13q-25 0 -49 -29q-12 -16 -37 -47h-16q-29 45 -97 63q-14 4 -119 19l11 6q-53 20 -97.5 82.5t-44.5 118.5zM465 1890q20 33 80.5 77t79.5 69h26 q0 -18 11 -60q6 -16 100 -157q74 -111 74 -162q-4 0 -12.5 -4t-12.5 -4q-12 0 -55 73q-53 92 -86 133q-59 72 -115 72q-20 0 -66 -43zM487 301v8q10 6 29 27q35 -14 35 -55q0 -39 -29 -39q-35 0 -35 59zM496 1141q0 31 45 43q10 -13 10 -33q0 -49 -27 -49q-29 0 -28 39z M502 451q0 37 37 36q27 0 26 -34q0 -54 -33 -54q-8 0 -19 20.5t-11 31.5zM502 616q0 43 43 43q28 1 28 -38q0 -14 -13 -37t-25 -25q-33 23 -33 57zM506 1300q0 53 43 56q16 -29 16 -39q0 -14 -39 -47q-20 12 -20 30zM510 997q0 12 13.5 23.5t25.5 11.5q29 0 29 -39 q0 -14 -13.5 -32.5t-27.5 -18.5q-27 0 -27 55zM637 1595v9h12v-9h-12z" />
<glyph unicode="&#xc9;" horiz-adv-x="1368" d="M59 240q0 86 19 120q14 29 84 93l76 6q63 6 106 -53q39 -51 39 -117q0 -55 -29.5 -94t-83.5 -39q-35 0 -61.5 24.5t-26.5 59.5q0 18 12.5 52t24.5 42l27 2l41 -14v-25l-21 -10l-20 4l-27 -29q0 -66 53 -65q29 0 51.5 29.5t22.5 58.5q0 53 -32.5 93t-84.5 40 q-137 0 -137 -164q0 -72 52.5 -129t121.5 -57q147 0 148 329q0 371 -127 381v31q33 6 70.5 70.5t37.5 101.5v180q0 166 -33 338q-27 18 -26 53l-49 9q-74 0 -128.5 -67t-54.5 -142q0 -47 34 -87t81 -40q35 0 60.5 26.5t25.5 61.5l-59 61q-31 -2 -49 -51l28 -31l35 2l-43 -34 q-18 0 -37.5 20t-19.5 39q0 37 26.5 61.5t63.5 24.5l43 -6q49 -51 49 -82q0 -49 -41 -89t-90 -40q-61 0 -99 48t-38 112q0 160 168 247l-9 11l189 -9q172 -6 182 0l33 -14l20 10q14 -12 62 -12q20 0 47 2l-6 12l24 -12q55 16 142 16q215 0 274 -14q160 -39 160 -184 q0 -59 -37 -97t-96 -38l-35 4q4 35 65 28l48 29l20 62q-47 86 -104 108q-37 14 -154 14q-193 0 -352 -30q-264 -51 -264 -168v-320l6 -61q74 -53 272 -107q190 -51 295 -51q57 0 104 19q63 25 64 71q0 23 -20.5 54.5t-41.5 31.5q-31 0 -65 -49l16 -33l17 19h24l6 -6v-25 q-29 -25 -49 -25v3l-59 65q0 27 45 57.5t74 30.5q39 0 68.5 -41t29.5 -82q-82 -129 -211 -129q-43 0 -130 10.5t-130 10.5q-195 0 -260 -47q-57 -41 -57 -158q0 -47 6 -164q6 -104 4 -166q80 -74 233 -98q43 -6 262 -19q125 -6 220 15q152 35 151 127q0 29 -22.5 49 t-51.5 20q-14 0 -26 -6l-23 15v20l41 14q146 -35 146 -172q0 -57 -48 -92q-25 -18 -96 -40.5t-90 -39.5q-238 -2 -647 13q-25 0 -49 -29q-12 -16 -37 -47h-16q-29 45 -97 63q-14 4 -119 19l11 6q-53 20 -97.5 82.5t-44.5 118.5zM487 301v8q10 6 29 27q35 -14 35 -55 q0 -39 -29 -39q-35 0 -35 59zM496 1141q0 31 45 43q10 -13 10 -33q0 -49 -27 -49q-29 0 -28 39zM502 451q0 37 37 36q27 0 26 -34q0 -54 -33 -54q-8 0 -19 20.5t-11 31.5zM502 616q0 43 43 43q28 1 28 -38q0 -14 -13 -37t-25 -25q-33 23 -33 57zM506 1300q0 53 43 56 q16 -29 16 -39q0 -14 -39 -47q-20 12 -20 30zM510 997q0 12 13.5 23.5t25.5 11.5q29 0 29 -39q0 -14 -13.5 -32.5t-27.5 -18.5q-27 0 -27 55zM637 1595v9h12v-9h-12zM762 1640q4 0 12 -4t14 -4q12 0 54 72q53 92 86 133q59 74 116 74q18 0 64 -43l27 4q-18 33 -78 76 q-66 47 -84 71h-27q0 -20 -8 -59q-12 -27 -100 -160q-76 -115 -76 -160z" />
<glyph unicode="&#xca;" horiz-adv-x="1368" d="M59 240q0 86 19 120q14 29 84 93l76 6q63 6 106 -53q39 -51 39 -117q0 -55 -29.5 -94t-83.5 -39q-35 0 -61.5 24.5t-26.5 59.5q0 18 12.5 52t24.5 42l27 2l41 -14v-25l-21 -10l-20 4l-27 -29q0 -66 53 -65q29 0 51.5 29.5t22.5 58.5q0 53 -32.5 93t-84.5 40 q-137 0 -137 -164q0 -72 52.5 -129t121.5 -57q147 0 148 329q0 371 -127 381v31q33 6 70.5 70.5t37.5 101.5v180q0 166 -33 338q-27 18 -26 53l-49 9q-74 0 -128.5 -67t-54.5 -142q0 -47 34 -87t81 -40q35 0 60.5 26.5t25.5 61.5l-59 61q-31 -2 -49 -51l28 -31l35 2l-43 -34 q-18 0 -37.5 20t-19.5 39q0 37 26.5 61.5t63.5 24.5l43 -6q49 -51 49 -82q0 -49 -41 -89t-90 -40q-61 0 -99 48t-38 112q0 160 168 247l-9 11l189 -9q172 -6 182 0l33 -14l20 10q14 -12 62 -12q20 0 47 2l-6 12l24 -12q55 16 142 16q215 0 274 -14q160 -39 160 -184 q0 -59 -37 -97t-96 -38l-35 4q4 35 65 28l48 29l20 62q-47 86 -104 108q-37 14 -154 14q-193 0 -352 -30q-264 -51 -264 -168v-320l6 -61q74 -53 272 -107q190 -51 295 -51q57 0 104 19q63 25 64 71q0 23 -20.5 54.5t-41.5 31.5q-31 0 -65 -49l16 -33l17 19h24l6 -6v-25 q-29 -25 -49 -25v3l-59 65q0 27 45 57.5t74 30.5q39 0 68.5 -41t29.5 -82q-82 -129 -211 -129q-43 0 -130 10.5t-130 10.5q-195 0 -260 -47q-57 -41 -57 -158q0 -47 6 -164q6 -104 4 -166q80 -74 233 -98q43 -6 262 -19q125 -6 220 15q152 35 151 127q0 29 -22.5 49 t-51.5 20q-14 0 -26 -6l-23 15v20l41 14q146 -35 146 -172q0 -57 -48 -92q-25 -18 -96 -40.5t-90 -39.5q-238 -2 -647 13q-25 0 -49 -29q-12 -16 -37 -47h-16q-29 45 -97 63q-14 4 -119 19l11 6q-53 20 -97.5 82.5t-44.5 118.5zM487 301v8q10 6 29 27q35 -14 35 -55 q0 -39 -29 -39q-35 0 -35 59zM496 1141q0 31 45 43q10 -13 10 -33q0 -49 -27 -49q-29 0 -28 39zM502 451q0 37 37 36q27 0 26 -34q0 -54 -33 -54q-8 0 -19 20.5t-11 31.5zM502 616q0 43 43 43q28 1 28 -38q0 -14 -13 -37t-25 -25q-33 23 -33 57zM506 1300q0 53 43 56 q16 -29 16 -39q0 -14 -39 -47q-20 12 -20 30zM510 997q0 12 13.5 23.5t25.5 11.5q29 0 29 -39q0 -14 -13.5 -32.5t-27.5 -18.5q-27 0 -27 55zM549 1716q88 35 242 283l-23 22q-14 0 -39 7l6 18l4 6l6 2q16 12 19 25q16 6 18 14l13 2q6 -39 14 -63q8 14 6 41l8 2 q20 -14 60 -50v-4l-4 -4q-20 2 -43 -26q33 -49 98 -148q80 -113 115 -117v-10q-14 -20 -50 -63h-4q-25 25 -45 80q-23 70 -35 88q-70 115 -98 147q-201 -207 -201 -309v-10q-6 8 -10 8q-4 -2 -6 -4q-4 2 -13 15t-20 13q-6 18 -14 21zM637 1595v9h12v-9h-12z" />
<glyph unicode="&#xcb;" horiz-adv-x="1368" d="M59 240q0 86 19 120q14 29 84 93l76 6q63 6 106 -53q39 -51 39 -117q0 -55 -29.5 -94t-83.5 -39q-35 0 -61.5 24.5t-26.5 59.5q0 18 12.5 52t24.5 42l27 2l41 -14v-25l-21 -10l-20 4l-27 -29q0 -66 53 -65q29 0 51.5 29.5t22.5 58.5q0 53 -32.5 93t-84.5 40 q-137 0 -137 -164q0 -72 52.5 -129t121.5 -57q147 0 148 329q0 371 -127 381v31q33 6 70.5 70.5t37.5 101.5v180q0 166 -33 338q-27 18 -26 53l-49 9q-74 0 -128.5 -67t-54.5 -142q0 -47 34 -87t81 -40q35 0 60.5 26.5t25.5 61.5l-59 61q-31 -2 -49 -51l28 -31l35 2l-43 -34 q-18 0 -37.5 20t-19.5 39q0 37 26.5 61.5t63.5 24.5l43 -6q49 -51 49 -82q0 -49 -41 -89t-90 -40q-61 0 -99 48t-38 112q0 160 168 247l-9 11l189 -9q172 -6 182 0l33 -14l20 10q14 -12 62 -12q20 0 47 2l-6 12l24 -12q55 16 142 16q215 0 274 -14q160 -39 160 -184 q0 -59 -37 -97t-96 -38l-35 4q4 35 65 28l48 29l20 62q-47 86 -104 108q-37 14 -154 14q-193 0 -352 -30q-264 -51 -264 -168v-320l6 -61q74 -53 272 -107q190 -51 295 -51q57 0 104 19q63 25 64 71q0 23 -20.5 54.5t-41.5 31.5q-31 0 -65 -49l16 -33l17 19h24l6 -6v-25 q-29 -25 -49 -25v3l-59 65q0 27 45 57.5t74 30.5q39 0 68.5 -41t29.5 -82q-82 -129 -211 -129q-43 0 -130 10.5t-130 10.5q-195 0 -260 -47q-57 -41 -57 -158q0 -47 6 -164q6 -104 4 -166q80 -74 233 -98q43 -6 262 -19q125 -6 220 15q152 35 151 127q0 29 -22.5 49 t-51.5 20q-14 0 -26 -6l-23 15v20l41 14q146 -35 146 -172q0 -57 -48 -92q-25 -18 -96 -40.5t-90 -39.5q-238 -2 -647 13q-25 0 -49 -29q-12 -16 -37 -47h-16q-29 45 -97 63q-14 4 -119 19l11 6q-53 20 -97.5 82.5t-44.5 118.5zM487 301v8q10 6 29 27q35 -14 35 -55 q0 -39 -29 -39q-35 0 -35 59zM496 1141q0 31 45 43q10 -13 10 -33q0 -49 -27 -49q-29 0 -28 39zM502 451q0 37 37 36q27 0 26 -34q0 -54 -33 -54q-8 0 -19 20.5t-11 31.5zM502 616q0 43 43 43q28 1 28 -38q0 -14 -13 -37t-25 -25q-33 23 -33 57zM506 1300q0 53 43 56 q16 -29 16 -39q0 -14 -39 -47q-20 12 -20 30zM510 997q0 12 13.5 23.5t25.5 11.5q29 0 29 -39q0 -14 -13.5 -32.5t-27.5 -18.5q-27 0 -27 55zM547 1804q0 63 44 103.5t109 40.5q84 0 84 -86q0 -66 -75 -107q-14 -8 -22.5 -28.5t-12.5 -24.5l-23 -2q-104 -10 -104 104z M586 1784q0 -8 8 -23q15 1 27 21q-35 18 -35 45v-43zM594 1851q25 35 40 44.5t56 9.5h12q31 -41 31 -50q0 -16 -15.5 -32.5t-31.5 -16.5q-8 0 -18 11q2 6 30 22v19q-18 16 -30 16q-14 0 -28.5 -12.5t-14.5 -24.5t21.5 -32.5t33.5 -20.5q70 0 70 74q0 55 -58 55 q-80 0 -98 -62zM637 1595v9h12v-9h-12zM844 1808q0 63 45 103.5t110 40.5q84 0 84 -86q0 -66 -75 -107q-14 -8 -22.5 -28.5t-12.5 -24.5h-23q-106 0 -106 102zM883 1831q2 2 2 4v-47q0 -8 8 -23q15 1 27 21q-37 18 -37 45zM893 1855q25 35 40 44.5t56 9.5h12q31 -41 31 -49 q0 -14 -16.5 -32t-30.5 -18q-8 0 -18 11q2 6 30 22v19q-18 16 -30 16q-14 0 -28.5 -12.5t-14.5 -24.5t21.5 -32.5t33.5 -20.5q70 0 70 74q0 55 -58 55q-80 0 -98 -62z" />
<glyph unicode="&#xcc;" horiz-adv-x="1363" d="M27 205q0 61 48 113.5t109 52.5q45 0 85 -33t40 -78q0 -31 -30.5 -69.5t-59.5 -38.5q-92 0 -115 90q33 68 86 86l-16 6q-66 -23 -100 -68l-11 -57q0 -131 185 -131q51 0 147 20q137 29 154 31q117 168 117 426q0 201 -88 315q78 113 77 242q0 248 -80 369 q-203 39 -294 39q-39 0 -72 -25t-33 -63q0 -66 96 -78l60 43q0 31 -41 30l-37 -4l4 -41l-31 27q0 23 27 41t51 18q16 0 40 -25.5t24 -41.5q0 -23 -38 -55.5t-61 -32.5q-45 0 -90 32.5t-45 75.5q0 70 76 119q68 43 141 43l797 8q213 2 213 -137q0 -53 -44 -97t-97 -44 q-31 0 -83.5 32.5t-52.5 61.5q0 45 41 81t88 40l43 -25l29 -57q0 -33 -69 -60l-50 31l19 29l35 -19l22 19q0 37 -43 37q-70 0 -70 -62q0 -18 38 -44.5t59 -26.5q37 0 65.5 32.5t28.5 69.5q0 43 -41 70.5t-86 27.5q-63 0 -178 -32q-125 -37 -178 -41q-51 -43 -54 -195 q-2 -8 -2 -203q0 -84 62 -178q-84 -133 -84 -584q0 -162 92 -215q68 -39 248 -39q31 0 76 37t45 66l-52 57l-36 -6l-13 -14l33 -17l-33 -34q-16 0 -30.5 20.5t-14.5 36.5q0 37 82 61q47 -12 86 -47l19 -61q-16 -63 -79 -108.5t-128 -43.5q-109 2 -430 13q-295 10 -430 10 q-14 0 -56.5 17.5t-46.5 15.5l-45 36q-20 53 -20 103zM141 240q0 -18 29 -32.5t51 -14.5q20 0 35.5 20t15.5 43q0 35 -26 39q10 -8 10 -33q0 -47 -43 -47q-14 0 -27 12v13l31 12v16q0 14 -29 15q-16 0 -31.5 -13.5t-15.5 -29.5zM338 1872q20 33 80.5 77t79.5 68h26 q0 -18 11 -59q6 -16 100 -158q74 -111 74 -162q-4 0 -12.5 -4t-12.5 -4q-12 0 -55 74q-53 92 -86 133q-59 72 -115 72q-20 0 -66 -43zM528 754q0 14 11.5 33.5t25.5 19.5q37 0 37 -47t-37 -47t-37 41zM815 1044q0 12 15.5 34t27.5 22q14 0 26.5 -19.5t12.5 -33.5 q0 -12 -11.5 -32t-21.5 -20q-14 0 -31.5 17.5t-17.5 31.5z" />
<glyph unicode="&#xcd;" horiz-adv-x="1363" d="M27 205q0 61 48 113.5t109 52.5q45 0 85 -33t40 -78q0 -31 -30.5 -69.5t-59.5 -38.5q-92 0 -115 90q33 68 86 86l-16 6q-66 -23 -100 -68l-11 -57q0 -131 185 -131q51 0 147 20q137 29 154 31q117 168 117 426q0 201 -88 315q78 113 77 242q0 248 -80 369 q-203 39 -294 39q-39 0 -72 -25t-33 -63q0 -66 96 -78l60 43q0 31 -41 30l-37 -4l4 -41l-31 27q0 23 27 41t51 18q16 0 40 -25.5t24 -41.5q0 -23 -38 -55.5t-61 -32.5q-45 0 -90 32.5t-45 75.5q0 70 76 119q68 43 141 43l797 8q213 2 213 -137q0 -53 -44 -97t-97 -44 q-31 0 -83.5 32.5t-52.5 61.5q0 45 41 81t88 40l43 -25l29 -57q0 -33 -69 -60l-50 31l19 29l35 -19l22 19q0 37 -43 37q-70 0 -70 -62q0 -18 38 -44.5t59 -26.5q37 0 65.5 32.5t28.5 69.5q0 43 -41 70.5t-86 27.5q-63 0 -178 -32q-125 -37 -178 -41q-51 -43 -54 -195 q-2 -8 -2 -203q0 -84 62 -178q-84 -133 -84 -584q0 -162 92 -215q68 -39 248 -39q31 0 76 37t45 66l-52 57l-36 -6l-13 -14l33 -17l-33 -34q-16 0 -30.5 20.5t-14.5 36.5q0 37 82 61q47 -12 86 -47l19 -61q-16 -63 -79 -108.5t-128 -43.5q-109 2 -430 13q-295 10 -430 10 q-14 0 -56.5 17.5t-46.5 15.5l-45 36q-20 53 -20 103zM141 240q0 -18 29 -32.5t51 -14.5q20 0 35.5 20t15.5 43q0 35 -26 39q10 -8 10 -33q0 -47 -43 -47q-14 0 -27 12v13l31 12v16q0 14 -29 15q-16 0 -31.5 -13.5t-15.5 -29.5zM528 754q0 14 11.5 33.5t25.5 19.5 q37 0 37 -47t-37 -47t-37 41zM680 1630q4 0 12 -4t15 -4q12 0 53 72q53 92 86 133q59 74 117 74q18 0 63 -43l27 4q-18 33 -78 75q-66 47 -84 72h-27q0 -20 -8 -59q-12 -27 -100 -160q-76 -115 -76 -160zM815 1044q0 12 15.5 34t27.5 22q14 0 26.5 -19.5t12.5 -33.5 q0 -12 -11.5 -32t-21.5 -20q-14 0 -31.5 17.5t-17.5 31.5z" />
<glyph unicode="&#xce;" horiz-adv-x="1363" d="M27 205q0 61 48 113.5t109 52.5q45 0 85 -33t40 -78q0 -31 -30.5 -69.5t-59.5 -38.5q-92 0 -115 90q33 68 86 86l-16 6q-66 -23 -100 -68l-11 -57q0 -131 185 -131q51 0 147 20q137 29 154 31q117 168 117 426q0 201 -88 315q78 113 77 242q0 248 -80 369 q-203 39 -294 39q-39 0 -72 -25t-33 -63q0 -66 96 -78l60 43q0 31 -41 30l-37 -4l4 -41l-31 27q0 23 27 41t51 18q16 0 40 -25.5t24 -41.5q0 -23 -38 -55.5t-61 -32.5q-45 0 -90 32.5t-45 75.5q0 70 76 119q68 43 141 43l797 8q213 2 213 -137q0 -53 -44 -97t-97 -44 q-31 0 -83.5 32.5t-52.5 61.5q0 45 41 81t88 40l43 -25l29 -57q0 -33 -69 -60l-50 31l19 29l35 -19l22 19q0 37 -43 37q-70 0 -70 -62q0 -18 38 -44.5t59 -26.5q37 0 65.5 32.5t28.5 69.5q0 43 -41 70.5t-86 27.5q-63 0 -178 -32q-125 -37 -178 -41q-51 -43 -54 -195 q-2 -8 -2 -203q0 -84 62 -178q-84 -133 -84 -584q0 -162 92 -215q68 -39 248 -39q31 0 76 37t45 66l-52 57l-36 -6l-13 -14l33 -17l-33 -34q-16 0 -30.5 20.5t-14.5 36.5q0 37 82 61q47 -12 86 -47l19 -61q-16 -63 -79 -108.5t-128 -43.5q-109 2 -430 13q-295 10 -430 10 q-14 0 -56.5 17.5t-46.5 15.5l-45 36q-20 53 -20 103zM141 240q0 -18 29 -32.5t51 -14.5q20 0 35.5 20t15.5 43q0 35 -26 39q10 -8 10 -33q0 -47 -43 -47q-14 0 -27 12v13l31 12v16q0 14 -29 15q-16 0 -31.5 -13.5t-15.5 -29.5zM449 1720q86 35 239 285l-22 20q-12 2 -39 7 l6 20l4 6h6q18 14 19 27q16 6 18 14l12 2q6 -39 17 -63q6 14 4 41l8 2q20 -14 59 -49l2 -7l-6 -2q-20 0 -43 -28q33 -49 101 -148q78 -111 112 -114l2 -11q-16 -23 -51 -63h-4q-2 2 -2 16q0 23 -76 148q-70 113 -100 151q-201 -207 -201 -309v-10q-6 -2 -27 18 q-10 14 -20 15q-8 18 -16 18zM528 754q0 14 11.5 33.5t25.5 19.5q37 0 37 -47t-37 -47t-37 41zM815 1044q0 12 15.5 34t27.5 22q14 0 26.5 -19.5t12.5 -33.5q0 -12 -11.5 -32t-21.5 -20q-14 0 -31.5 17.5t-17.5 31.5z" />
<glyph unicode="&#xcf;" horiz-adv-x="1363" d="M27 205q0 61 48 113.5t109 52.5q45 0 85 -33t40 -78q0 -31 -30.5 -69.5t-59.5 -38.5q-92 0 -115 90q33 68 86 86l-16 6q-66 -23 -100 -68l-11 -57q0 -131 185 -131q51 0 147 20q137 29 154 31q117 168 117 426q0 201 -88 315q78 113 77 242q0 248 -80 369 q-203 39 -294 39q-39 0 -72 -25t-33 -63q0 -66 96 -78l60 43q0 31 -41 30l-37 -4l4 -41l-31 27q0 23 27 41t51 18q16 0 40 -25.5t24 -41.5q0 -23 -38 -55.5t-61 -32.5q-45 0 -90 32.5t-45 75.5q0 70 76 119q68 43 141 43l797 8q213 2 213 -137q0 -53 -44 -97t-97 -44 q-31 0 -83.5 32.5t-52.5 61.5q0 45 41 81t88 40l43 -25l29 -57q0 -33 -69 -60l-50 31l19 29l35 -19l22 19q0 37 -43 37q-70 0 -70 -62q0 -18 38 -44.5t59 -26.5q37 0 65.5 32.5t28.5 69.5q0 43 -41 70.5t-86 27.5q-63 0 -178 -32q-125 -37 -178 -41q-51 -43 -54 -195 q-2 -8 -2 -203q0 -84 62 -178q-84 -133 -84 -584q0 -162 92 -215q68 -39 248 -39q31 0 76 37t45 66l-52 57l-36 -6l-13 -14l33 -17l-33 -34q-16 0 -30.5 20.5t-14.5 36.5q0 37 82 61q47 -12 86 -47l19 -61q-16 -63 -79 -108.5t-128 -43.5q-109 2 -430 13q-295 10 -430 10 q-14 0 -56.5 17.5t-46.5 15.5l-45 36q-20 53 -20 103zM141 240q0 -18 29 -32.5t51 -14.5q20 0 35.5 20t15.5 43q0 35 -26 39q10 -8 10 -33q0 -47 -43 -47q-14 0 -27 12v13l31 12v16q0 14 -29 15q-16 0 -31.5 -13.5t-15.5 -29.5zM438 1755q0 66 44 106t110 40q84 0 84 -86 q0 -66 -74 -107q-16 -8 -24.5 -28.5t-12.5 -24.5l-22 -2q-104 -10 -105 102zM477 1737q0 -8 8 -25q15 3 27 23q-35 18 -35 45v-43zM485 1802q25 35 41.5 45.5t55.5 10.5q8 0 14 -3q31 -39 31 -47q0 -14 -16.5 -31.5t-30.5 -17.5q-10 0 -21 10q4 4 31 23v18q-16 16 -31 17 q-14 0 -28.5 -12.5t-14.5 -24.5t22.5 -32.5t34.5 -20.5q68 -1 68 73q0 55 -55 56q-82 0 -101 -64zM528 754q0 14 11.5 33.5t25.5 19.5q37 0 37 -47t-37 -47t-37 41zM737 1759q0 66 44 106t110 40q84 0 84 -86q0 -66 -74 -107q-16 -8 -24.5 -28.5t-12.5 -24.5l-22 -2 q-104 -10 -105 102zM776 1741q0 -8 8 -25q15 3 27 23q-35 18 -35 45v-43zM784 1806q27 37 41.5 46.5t55.5 9.5q8 0 14 -2q31 -39 31 -48q0 -14 -16.5 -31.5t-30.5 -17.5q-10 0 -21 11q4 4 31 22v19q-16 16 -31 16q-14 0 -28.5 -12.5t-14.5 -24.5t22.5 -32.5t34.5 -20.5 q68 0 68 74q0 55 -57 55q-80 0 -99 -64zM815 1044q0 12 15.5 34t27.5 22q14 0 26.5 -19.5t12.5 -33.5q0 -12 -11.5 -32t-21.5 -20q-14 0 -31.5 17.5t-17.5 31.5z" />
<glyph unicode="&#xd0;" horiz-adv-x="1363" d="M16 35q0 84 62.5 138t148.5 54q35 0 80 -52t45 -87q0 -41 -44 -87t-85 -46q-39 0 -70.5 29.5t-31.5 68.5l51 66h39l10 -17q0 -14 -27.5 -27.5t-27.5 -29.5q0 -31 57 -53q16 12 35 18l53 78q0 20 -43 59t-63 39q-53 0 -100.5 -47t-47.5 -100q0 -47 55.5 -84t104.5 -37 q166 0 195 436q8 127 14 258q-12 8 -52 11.5t-52 13.5q-16 0 -49 8t-48 8q-27 0 -75 -49q-14 20 -15 33q0 6 4 10q2 33 -10 45q0 18 14 51q72 -35 131 -34q86 0 111 12q45 23 45 100l4 522q0 43 -33.5 73t-76.5 30q-68 0 -139.5 -62.5t-71.5 -130.5q0 -41 35.5 -71.5 t76.5 -30.5q12 0 36 7t34 7l45 70l-57 65q-68 -25 -70 -53l43 -28l31 45h24l6 -19q0 -37 -63 -61q-88 12 -88 53q0 39 40 69.5t81 30.5q39 0 66.5 -31.5t27.5 -70.5q0 -55 -57 -92q-49 -33 -109 -33q-49 0 -99 44t-50 91q0 121 135 193q111 59 237 59q391 0 465 -35 q158 -74 252 -336q80 -219 80 -430q0 -258 -137 -506q-158 -287 -396 -311q-63 -6 -194 -7t-199 -9l-49 28l-39 -10q-70 0 -133 41q-72 47 -72 113zM504 106q-10 -76 57 -102l111 -37q119 18 207 126t88 231q0 68 -41 125t-107 57q-76 0 -145 -103q-61 -94 -62 -176 q0 -90 88 -90q55 0 106.5 51.5t51.5 106.5q0 41 -43 41q-27 0 -32 -6t-5 -33q0 -14 -16 -14l-27 30q0 27 29 43.5t59 16.5q72 0 72 -70q0 -78 -57.5 -140.5t-135.5 -62.5q-127 0 -127 117q0 100 76 211q82 119 178 119q76 0 129 -76q49 -68 50 -145q0 -39 -45 -176 q8 -27 32 -27q78 0 148 248q57 205 57 311q0 96 -67 373l-23 16v49q-23 23 -60.5 80t-64.5 82h-16q20 -70 20 -125q0 -86 -51 -147q-55 -68 -139 -68q-68 0 -131.5 53.5t-63.5 118.5q0 72 35 125q39 61 106 61q47 0 96.5 -36.5t49.5 -81.5q0 -41 -36 -72t-77 -31 q-12 0 -33.5 20.5t-23.5 33.5l29 22q8 0 20 -15.5t25 -15.5l49 23l4 18q0 37 -34 66t-71 29q-98 0 -98 -144q0 -49 50 -91t100 -42q74 0 113.5 49t39.5 125q0 98 -72.5 180t-168.5 82q-68 0 -115 -64.5t-47 -133.5q0 -285 4 -504q63 2 125 2q88 8 110 41l13 -8 q6 -37 16 -115q0 -4 -4 -4t-16.5 7t-16.5 7q-12 0 -40.5 -10t-43.5 -10q-25 0 -71 -10.5t-70 -10.5q2 -33 2 -65q0 -80 -49 -435z" />
<glyph unicode="&#xd1;" horiz-adv-x="1673" d="M35 123q0 43 28.5 71.5t71.5 28.5q41 0 60 -45l-35 -45l2 31l-29 18q-61 -16 -61 -53q0 -23 41 -46.5t65 -23.5l64 11q86 78 102 264q6 68 18 303q-12 47 -77 104l14 25q37 18 68 51v17q0 43 4 131t4 131q0 428 -156 428q-51 0 -97 -44t-46 -96q0 -20 39 -48.5t61 -28.5 q27 0 47.5 23.5t20.5 49.5q0 61 -39 62l-33 -31q2 -10 14 -18l25 12l10 -14l-47 -35l-39 43q0 31 25.5 57.5t56.5 26.5l53 -29l6 -59q0 -121 -110 -121q-45 0 -84 29.5t-39 74.5q0 47 31 88q4 6 63 70l-2 10l92 15q14 0 46 -8.5t49 -8.5q18 0 26 8q29 -12 187 -14 q74 0 221 -2l69 -2l6 -14q0 -2 -52 -48.5t-52 -111.5q0 -53 137 -586q139 -543 174 -596q78 104 78 643q0 119 -4 287l-4 188q0 61 -12 123q-16 86 -52 103l37 30q53 -8 117 -8q66 0 141 8q53 0 127 -12q39 -35 115 -106q64 -62 64 -152q0 -102 -70 -178t-172 -76 q-61 0 -109.5 58.5t-48.5 121.5q0 150 170 215q80 -31 98 -47q23 -27 23 -102q0 -137 -104 -137q-37 0 -66 18q-35 20 -35 55q0 41 26.5 75t65.5 34l54 -19l-15 -63l-20 37h-43l-27 -53q0 -47 66 -43l32 2l35 77q0 45 -16 78l-80 43q-43 0 -85 -61.5t-42 -106.5 q0 -57 43 -99t100 -42q72 0 128.5 63.5t56.5 135.5q0 70 -59.5 147.5t-125.5 77.5q-190 0 -260 -272q-45 -176 -35 -426l19 -4q6 -6 53 -48q41 -37 33 -51q-61 -43 -84 -108l2 -27l-23 -27v-282q0 -100 27 -156.5t107 -114.5q0 -41 -76 -40q-63 0 -176 18l-178 29l-7 20 q41 49 41 113q0 45 -11 132t-11 132q0 174 -94 604q-109 494 -201 494q-76 0 -76 -203q0 -154 -19.5 -461t-19.5 -461q0 -219 62 -266q-2 -4 69 -72l-24 -30l-285 10l-8 6q-10 2 -90 10q-53 6 -84 29q-41 27 -41 82zM553 1767q0 66 46 107t112 41q76 0 100 -47 q10 -18 20 -94q8 -66 29 -82q72 -45 92 -45q43 0 80 33.5t37 76.5q0 14 -11 30.5t-26 16.5q-8 0 -33 -18l-16 6v10q0 2 4 8q14 27 21 45l22 13q72 -2 72 -86q0 -76 -46 -122t-122 -46q-131 0 -131 141q0 55 -33 82q-20 16 -84 35q-72 -23 -72 -64q0 -31 26 -56l26 -26 q0 -10 -14.5 -27.5t-24.5 -17.5q-33 0 -53.5 27t-20.5 59zM698 563q0 47 41 47q12 0 22.5 -15.5t10.5 -27.5t-12 -32.5t-23 -20.5q-14 0 -26.5 17.5t-12.5 31.5zM717 403q0 14 14 35t27 21q33 0 33 -53q0 -47 -29 -48q-45 0 -45 45zM754 268q0 37 24 37q39 0 39 -41 q0 -14 -10 -32.5t-25 -18.5q-29 0 -28 55zM758 129q0 10 13 22.5t24 12.5q14 0 25 -16.5t11 -30.5q0 -12 -11 -25.5t-21 -13.5q-14 0 -27.5 17.5t-13.5 33.5zM762 1364q0 16 14.5 37.5t30.5 21.5q8 0 20.5 -12t12.5 -20q0 -16 -15.5 -35t-29.5 -19q-8 0 -20.5 10.5 t-12.5 16.5zM803 1235q0 43 33 43q12 0 22 -17.5t10 -29.5t-13 -27.5t-24 -15.5q-29 0 -28 47zM840 1094q0 49 37 49q26 0 26 -33q0 -55 -33 -55q-31 0 -30 39z" />
<glyph unicode="&#xd2;" horiz-adv-x="1226" d="M47 743q0 420 328 758l-4 8l12 -8q176 59 235 60q272 0 433 -187q151 -176 151 -452v-45q0 -373 -127 -639q-168 -352 -500 -353q-72 0 -245 72q-156 207 -215 365q-68 178 -68 421zM156 766q0 -168 59 -334q78 -219 215 -219q100 0 175 88t75 191q0 109 -57 184 q-63 80 -170 80q-74 0 -115 -53.5t-41 -129.5q0 -182 133 -182q109 0 109 107q0 121 -78 120q-16 0 -42 -17t-26 -32l25 -41h14l33 31l18 -20l-55 -58q-29 2 -48.5 25.5t-19.5 52.5q0 43 31 71.5t74 28.5q104 0 104 -159q0 -154 -145 -154q-80 0 -123 70q-35 57 -35 143 q0 96 48 165t143 69q119 0 192 -88q68 -84 68 -205q0 -104 -68 -191q-29 -37 -123 -119q-66 -57 -65 -100l10 -43l49 -33l19 9l92 -27q35 0 143 94q45 35 90 72q53 43 78 84q47 76 99.5 280.5t52.5 300.5q0 279 -103 459l-67 14q-119 0 -204 -92t-85 -211q0 -197 151 -196 q78 0 135.5 52t57.5 130q0 47 -33 83t-80 36q-39 0 -71.5 -32t-32.5 -71q0 -12 16.5 -30.5t28.5 -18.5t34.5 14.5t28.5 24.5l-18 29l18 20l37 -45q0 -74 -98 -73q-84 0 -84 69q0 57 45 105.5t102 48.5q53 0 98.5 -45t45.5 -99q0 -102 -64.5 -170.5t-167.5 -68.5 q-90 0 -141 71q-45 63 -45 158q0 104 66 195q39 51 118 119q66 53 66 77l-35 60q-70 35 -168 35q-115 0 -215 -70l-12 6q-109 -53 -191 -289q-72 -205 -71 -356zM193 846q0 33 24 33q49 0 49 -41q0 -37 -39 -37q-35 0 -34 45zM225 1018q0 14 15.5 34.5t29.5 20.5 q31 0 31 -41q0 -12 -15.5 -30.5t-27.5 -18.5q-8 0 -20.5 13.5t-12.5 21.5zM276 1847q20 35 81 79t81 69h25q2 -20 10 -60q6 -18 100 -159q74 -111 74 -160q-2 0 -11 -4t-13 -4q-14 0 -56 71q-57 100 -86 136q-59 72 -114 71q-20 0 -64 -43zM289 1178q0 -10 28 -31 q50 24 50 63q0 31 -29 31q-16 0 -32.5 -22.5t-16.5 -40.5zM401 1321q0 14 18.5 35.5t33.5 21.5q26 1 26 -28q0 -16 -16.5 -42t-30.5 -26q-31 0 -31 39zM770 240q0 12 11.5 29.5t23.5 17.5q47 0 47 -41q0 -37 -47 -37q-35 0 -35 31zM862 403q0 47 35 48q51 -1 51 -56 q0 -37 -35 -37q-51 0 -51 45zM922 571q0 14 16 36t31 22q14 0 26.5 -13.5t12.5 -27.5q0 -16 -16.5 -33.5t-33.5 -17.5l-18 6q-18 29 -18 28z" />
<glyph unicode="&#xd3;" horiz-adv-x="1226" d="M47 743q0 420 328 758l-4 8l12 -8q176 59 235 60q272 0 433 -187q151 -176 151 -452v-45q0 -373 -127 -639q-168 -352 -500 -353q-72 0 -245 72q-156 207 -215 365q-68 178 -68 421zM156 766q0 -168 59 -334q78 -219 215 -219q100 0 175 88t75 191q0 109 -57 184 q-63 80 -170 80q-74 0 -115 -53.5t-41 -129.5q0 -182 133 -182q109 0 109 107q0 121 -78 120q-16 0 -42 -17t-26 -32l25 -41h14l33 31l18 -20l-55 -58q-29 2 -48.5 25.5t-19.5 52.5q0 43 31 71.5t74 28.5q104 0 104 -159q0 -154 -145 -154q-80 0 -123 70q-35 57 -35 143 q0 96 48 165t143 69q119 0 192 -88q68 -84 68 -205q0 -104 -68 -191q-29 -37 -123 -119q-66 -57 -65 -100l10 -43l49 -33l19 9l92 -27q35 0 143 94q45 35 90 72q53 43 78 84q47 76 99.5 280.5t52.5 300.5q0 279 -103 459l-67 14q-119 0 -204 -92t-85 -211q0 -197 151 -196 q78 0 135.5 52t57.5 130q0 47 -33 83t-80 36q-39 0 -71.5 -32t-32.5 -71q0 -12 16.5 -30.5t28.5 -18.5t34.5 14.5t28.5 24.5l-18 29l18 20l37 -45q0 -74 -98 -73q-84 0 -84 69q0 57 45 105.5t102 48.5q53 0 98.5 -45t45.5 -99q0 -102 -64.5 -170.5t-167.5 -68.5 q-90 0 -141 71q-45 63 -45 158q0 104 66 195q39 51 118 119q66 53 66 77l-35 60q-70 35 -168 35q-115 0 -215 -70l-12 6q-109 -53 -191 -289q-72 -205 -71 -356zM193 846q0 33 24 33q49 0 49 -41q0 -37 -39 -37q-35 0 -34 45zM225 1018q0 14 15.5 34.5t29.5 20.5 q31 0 31 -41q0 -12 -15.5 -30.5t-27.5 -18.5q-8 0 -20.5 13.5t-12.5 21.5zM289 1178q0 -10 28 -31q50 24 50 63q0 31 -29 31q-16 0 -32.5 -22.5t-16.5 -40.5zM401 1321q0 14 18.5 35.5t33.5 21.5q26 1 26 -28q0 -16 -16.5 -42t-30.5 -26q-31 0 -31 39zM602 1634q2 0 11.5 -4 t13.5 -4q14 0 55 72q57 100 86 135q59 72 115 72q20 0 63 -43l27 4q-20 37 -82 81t-80 66h-25q-2 -20 -10 -59q-6 -18 -100 -160q-74 -111 -74 -160zM770 240q0 12 11.5 29.5t23.5 17.5q47 0 47 -41q0 -37 -47 -37q-35 0 -35 31zM862 403q0 47 35 48q51 -1 51 -56 q0 -37 -35 -37q-51 0 -51 45zM922 571q0 14 16 36t31 22q14 0 26.5 -13.5t12.5 -27.5q0 -16 -16.5 -33.5t-33.5 -17.5l-18 6q-18 29 -18 28z" />
<glyph unicode="&#xd4;" horiz-adv-x="1226" d="M47 743q0 420 328 758l-4 8l12 -8q176 59 235 60q272 0 433 -187q151 -176 151 -452v-45q0 -373 -127 -639q-168 -352 -500 -353q-72 0 -245 72q-156 207 -215 365q-68 178 -68 421zM156 766q0 -168 59 -334q78 -219 215 -219q100 0 175 88t75 191q0 109 -57 184 q-63 80 -170 80q-74 0 -115 -53.5t-41 -129.5q0 -182 133 -182q109 0 109 107q0 121 -78 120q-16 0 -42 -17t-26 -32l25 -41h14l33 31l18 -20l-55 -58q-29 2 -48.5 25.5t-19.5 52.5q0 43 31 71.5t74 28.5q104 0 104 -159q0 -154 -145 -154q-80 0 -123 70q-35 57 -35 143 q0 96 48 165t143 69q119 0 192 -88q68 -84 68 -205q0 -104 -68 -191q-29 -37 -123 -119q-66 -57 -65 -100l10 -43l49 -33l19 9l92 -27q35 0 143 94q45 35 90 72q53 43 78 84q47 76 99.5 280.5t52.5 300.5q0 279 -103 459l-67 14q-119 0 -204 -92t-85 -211q0 -197 151 -196 q78 0 135.5 52t57.5 130q0 47 -33 83t-80 36q-39 0 -71.5 -32t-32.5 -71q0 -12 16.5 -30.5t28.5 -18.5t34.5 14.5t28.5 24.5l-18 29l18 20l37 -45q0 -74 -98 -73q-84 0 -84 69q0 57 45 105.5t102 48.5q53 0 98.5 -45t45.5 -99q0 -102 -64.5 -170.5t-167.5 -68.5 q-90 0 -141 71q-45 63 -45 158q0 104 66 195q39 51 118 119q66 53 66 77l-35 60q-70 35 -168 35q-115 0 -215 -70l-12 6q-109 -53 -191 -289q-72 -205 -71 -356zM193 846q0 33 24 33q49 0 49 -41q0 -37 -39 -37q-35 0 -34 45zM225 1018q0 14 15.5 34.5t29.5 20.5 q31 0 31 -41q0 -12 -15.5 -30.5t-27.5 -18.5q-8 0 -20.5 13.5t-12.5 21.5zM289 1178q0 -10 28 -31q50 24 50 63q0 31 -29 31q-16 0 -32.5 -22.5t-16.5 -40.5zM348 1669q88 35 242 285l-23 20q-14 2 -39 6l7 21l4 6h6q18 14 18 27q16 6 19 14l12 2q6 -41 16 -63q6 12 4 41 l9 2q20 -14 59 -50v-6l-4 -2q-20 0 -43 -28q33 -49 100 -148q78 -111 113 -115v-10q-14 -23 -49 -63h-4q-25 25 -45 80q-23 68 -35 86q-70 113 -99 149q-201 -207 -200 -309v-12q-8 10 -15.5 9t-15.5 12t-18 13q-6 16 -15 19zM401 1321q0 14 18.5 35.5t33.5 21.5 q26 1 26 -28q0 -16 -16.5 -42t-30.5 -26q-31 0 -31 39zM770 240q0 12 11.5 29.5t23.5 17.5q47 0 47 -41q0 -37 -47 -37q-35 0 -35 31zM862 403q0 47 35 48q51 -1 51 -56q0 -37 -35 -37q-51 0 -51 45zM922 571q0 14 16 36t31 22q14 0 26.5 -13.5t12.5 -27.5 q0 -16 -16.5 -33.5t-33.5 -17.5l-18 6q-18 29 -18 28z" />
<glyph unicode="&#xd5;" horiz-adv-x="1226" d="M47 743q0 420 328 758l-4 8l12 -8q176 59 235 60q272 0 433 -187q151 -176 151 -452v-45q0 -373 -127 -639q-168 -352 -500 -353q-72 0 -245 72q-156 207 -215 365q-68 178 -68 421zM156 766q0 -168 59 -334q78 -219 215 -219q100 0 175 88t75 191q0 109 -57 184 q-63 80 -170 80q-74 0 -115 -53.5t-41 -129.5q0 -182 133 -182q109 0 109 107q0 121 -78 120q-16 0 -42 -17t-26 -32l25 -41h14l33 31l18 -20l-55 -58q-29 2 -48.5 25.5t-19.5 52.5q0 43 31 71.5t74 28.5q104 0 104 -159q0 -154 -145 -154q-80 0 -123 70q-35 57 -35 143 q0 96 48 165t143 69q119 0 192 -88q68 -84 68 -205q0 -104 -68 -191q-29 -37 -123 -119q-66 -57 -65 -100l10 -43l49 -33l19 9l92 -27q35 0 143 94q45 35 90 72q53 43 78 84q47 76 99.5 280.5t52.5 300.5q0 279 -103 459l-67 14q-119 0 -204 -92t-85 -211q0 -197 151 -196 q78 0 135.5 52t57.5 130q0 47 -33 83t-80 36q-39 0 -71.5 -32t-32.5 -71q0 -12 16.5 -30.5t28.5 -18.5t34.5 14.5t28.5 24.5l-18 29l18 20l37 -45q0 -74 -98 -73q-84 0 -84 69q0 57 45 105.5t102 48.5q53 0 98.5 -45t45.5 -99q0 -102 -64.5 -170.5t-167.5 -68.5 q-90 0 -141 71q-45 63 -45 158q0 104 66 195q39 51 118 119q66 53 66 77l-35 60q-70 35 -168 35q-115 0 -215 -70l-12 6q-109 -53 -191 -289q-72 -205 -71 -356zM193 846q0 33 24 33q49 0 49 -41q0 -37 -39 -37q-35 0 -34 45zM225 1018q0 14 15.5 34.5t29.5 20.5 q31 0 31 -41q0 -12 -15.5 -30.5t-27.5 -18.5q-8 0 -20.5 13.5t-12.5 21.5zM289 1178q0 -10 28 -31q50 24 50 63q0 31 -29 31q-16 0 -32.5 -22.5t-16.5 -40.5zM317 1780q0 66 46.5 106.5t111.5 40.5q74 0 100 -47q14 -25 21 -96q6 -61 29 -80q90 -45 92 -45q43 0 80 33.5 t37 76.5q0 14 -11.5 31t-25.5 17q-8 0 -33 -19l-16 6v11q0 2 4 8q14 27 22 45l21 12q71 -2 71 -86q0 -76 -46 -122t-122 -46q-131 0 -131 143q0 53 -32 80q-20 16 -84 35q-72 -23 -72 -63q0 -31 25 -57l26 -25q0 -10 -14.5 -27.5t-24.5 -17.5q-33 0 -53.5 26.5t-20.5 59.5z M401 1321q0 14 18.5 35.5t33.5 21.5q26 1 26 -28q0 -16 -16.5 -42t-30.5 -26q-31 0 -31 39zM770 240q0 12 11.5 29.5t23.5 17.5q47 0 47 -41q0 -37 -47 -37q-35 0 -35 31zM862 403q0 47 35 48q51 -1 51 -56q0 -37 -35 -37q-51 0 -51 45zM922 571q0 14 16 36t31 22 q14 0 26.5 -13.5t12.5 -27.5q0 -16 -16.5 -33.5t-33.5 -17.5l-18 6q-18 29 -18 28z" />
<glyph unicode="&#xd6;" horiz-adv-x="1226" d="M47 743q0 420 328 758l-4 8l12 -8q176 59 235 60q272 0 433 -187q151 -176 151 -452v-45q0 -373 -127 -639q-168 -352 -500 -353q-72 0 -245 72q-156 207 -215 365q-68 178 -68 421zM156 766q0 -168 59 -334q78 -219 215 -219q100 0 175 88t75 191q0 109 -57 184 q-63 80 -170 80q-74 0 -115 -53.5t-41 -129.5q0 -182 133 -182q109 0 109 107q0 121 -78 120q-16 0 -42 -17t-26 -32l25 -41h14l33 31l18 -20l-55 -58q-29 2 -48.5 25.5t-19.5 52.5q0 43 31 71.5t74 28.5q104 0 104 -159q0 -154 -145 -154q-80 0 -123 70q-35 57 -35 143 q0 96 48 165t143 69q119 0 192 -88q68 -84 68 -205q0 -104 -68 -191q-29 -37 -123 -119q-66 -57 -65 -100l10 -43l49 -33l19 9l92 -27q35 0 143 94q45 35 90 72q53 43 78 84q47 76 99.5 280.5t52.5 300.5q0 279 -103 459l-67 14q-119 0 -204 -92t-85 -211q0 -197 151 -196 q78 0 135.5 52t57.5 130q0 47 -33 83t-80 36q-39 0 -71.5 -32t-32.5 -71q0 -12 16.5 -30.5t28.5 -18.5t34.5 14.5t28.5 24.5l-18 29l18 20l37 -45q0 -74 -98 -73q-84 0 -84 69q0 57 45 105.5t102 48.5q53 0 98.5 -45t45.5 -99q0 -102 -64.5 -170.5t-167.5 -68.5 q-90 0 -141 71q-45 63 -45 158q0 104 66 195q39 51 118 119q66 53 66 77l-35 60q-70 35 -168 35q-115 0 -215 -70l-12 6q-109 -53 -191 -289q-72 -205 -71 -356zM193 846q0 33 24 33q49 0 49 -41q0 -37 -39 -37q-35 0 -34 45zM225 1018q0 14 15.5 34.5t29.5 20.5 q31 0 31 -41q0 -12 -15.5 -30.5t-27.5 -18.5q-8 0 -20.5 13.5t-12.5 21.5zM289 1178q0 -10 28 -31q50 24 50 63q0 31 -29 31q-16 0 -32.5 -22.5t-16.5 -40.5zM369 1731q0 63 44 103t109 40q84 0 84 -86q0 -66 -76 -107q-14 -8 -22 -28.5t-12 -24.5l-23 -2q-104 -10 -104 105 zM401 1321q0 14 18.5 35.5t33.5 21.5q26 1 26 -28q0 -16 -16.5 -42t-30.5 -26q-31 0 -31 39zM408 1710q0 -8 8 -22q14 0 26 20q-35 18 -34 45v-43zM416 1778q25 35 40 44t56 9h12q31 -41 31 -49q0 -16 -15.5 -32.5t-31.5 -16.5q-8 0 -19 10q2 6 31 22v19q-18 16 -31 16 q-14 0 -28.5 -12t-14.5 -25q0 -12 21.5 -32.5t34.5 -20.5q69 0 69 74q0 55 -57 55q-80 0 -98 -61zM666 1735q0 63 45 103t110 40q84 0 84 -86q0 -66 -76 -106q-14 -8 -22 -29t-12 -25h-23q-106 0 -106 103zM705 1757q2 2 2 4v-47q0 -8 8 -22q14 0 26 20q-37 18 -36 45z M715 1782q25 35 40 44t56 9h12q31 -41 31 -49q0 -14 -16.5 -31.5t-30.5 -17.5q-8 0 -19 10q2 6 31 22v19q-18 16 -31 16q-14 0 -28.5 -12t-14.5 -25q0 -12 21.5 -32.5t34.5 -20.5q69 0 69 74q0 55 -57 55q-80 0 -98 -61zM770 240q0 12 11.5 29.5t23.5 17.5q47 0 47 -41 q0 -37 -47 -37q-35 0 -35 31zM862 403q0 47 35 48q51 -1 51 -56q0 -37 -35 -37q-51 0 -51 45zM922 571q0 14 16 36t31 22q14 0 26.5 -13.5t12.5 -27.5q0 -16 -16.5 -33.5t-33.5 -17.5l-18 6q-18 29 -18 28z" />
<glyph unicode="&#xd7;" horiz-adv-x="804" d="M78 479q0 10 6 13l63 24q37 12 103 74l94 90q-92 115 -160 164q-31 0 -69 8q4 16 14 29q3 26 23 24q10 8 22 35q12 2 27.5 13.5t25.5 11.5t21 -33q16 -55 59 -111l84 -96q35 29 101 88q57 55 65 111l27 6q31 -27 92 -82v-10q-12 -14 -27 -15q-31 0 -211 -153 q33 -39 95.5 -114t121.5 -85l4 -27q-27 -31 -84 -88l-12 -2q-12 14 -12 29q0 29 -72 123q-41 53 -94 121q-129 -106 -182 -187q0 -31 -6 -69q-16 4 -29 14q-29 0 -27 21q-8 10 -35 20q-2 14 -15 28.5t-13 24.5z" />
<glyph unicode="&#xd8;" horiz-adv-x="1185" d="M55 766q0 348 113 567q145 285 461 285q86 0 194.5 -49t112.5 -49q43 0 111 53q12 0 69 -74l-94 -106q98 -160 123 -252q22 -84 22 -283q0 -285 -145 -571q-172 -338 -420 -338q-106 0 -166 26q-49 23 -131 95l-4 22l-104 -102l-74 47q74 125 74 160q0 -133 -71 180 t-71 389zM147 788q0 -127 33 -280q41 -190 107 -246q121 88 239 352q4 10 205 480q113 264 193 327q-123 162 -310 162q-139 0 -237 -63q-117 -74 -117 -205l14 -35h41q23 0 74 18.5t78 18.5q76 0 142.5 -59.5t66.5 -133.5q0 -102 -81 -191t-183 -89q-66 0 -121 48t-55 112 q0 55 58 105t116 50q131 0 131 -72q0 -31 -32 -69.5t-63 -38.5q-27 0 -71 29v20q0 16 22 16l52 -26l49 67q-4 35 -84 35q-47 0 -91 -33.5t-44 -78.5q0 -49 40.5 -88t90.5 -39q90 0 156.5 76.5t66.5 168.5q0 61 -55.5 107.5t-116.5 46.5q-4 0 -121 -25l-12 -10 q-180 -119 -181 -457zM289 428q0 47 49 47q43 0 43 -39q0 -14 -18.5 -30.5t-32.5 -16.5q-41 0 -41 39zM356 170q139 -113 246 -113q59 0 107 17q70 23 69 67q0 33 -55 52q-86 29 -102 40q-55 37 -56 107q0 74 73 143.5t146 69.5q41 0 81 -37t40 -78q0 -133 -139 -133 q-27 0 -53.5 23.5t-26.5 50.5q0 37 29 37l16 -4l-2 -13q0 -51 49 -51q82 0 82 88q0 27 -27.5 50.5t-54.5 23.5q-59 0 -111.5 -56.5t-52.5 -115.5q0 -53 54 -82q41 -25 100 -25q70 0 111 37q61 55 135 318q69 245 69 356q0 250 -92 379q-45 -12 -96 -107q-25 -45 -66 -137 q-84 -188 -184 -393q-104 -168 -289 -514zM371 596q0 43 61 43q41 0 41 -31q0 -18 -21.5 -36.5t-39.5 -18.5q-12 0 -26.5 15.5t-14.5 27.5zM473 764q0 45 51 45q8 0 22.5 -12.5t14.5 -20.5q0 -45 -47 -45q-41 0 -41 33zM707 696q0 18 18 33.5t37 15.5q12 0 26.5 -11 t14.5 -23q0 -18 -18.5 -35t-36.5 -17q-41 0 -41 37zM807 903q0 43 49 43q43 0 43 -35q0 -43 -49 -43q-43 0 -43 35zM895 1098q0 10 19.5 25.5t31.5 15.5q51 0 51 -33q0 -14 -18 -31.5t-33 -17.5q-14 0 -32.5 14t-18.5 27z" />
<glyph unicode="&#xd9;" horiz-adv-x="1695" d="M37 1253q0 244 385 244h178l33 -10l-21 -53q-141 -78 -141 -351q0 -47 5 -142t5 -142q0 -45 -2 -136.5t-2 -136.5q0 -260 68 -387q94 -176 336 -176q240 0 309 209q35 106 35 422v377q0 188 -27 284q-43 154 -160 207v21q82 29 416 28q86 0 150.5 -83t64.5 -171 q0 -70 -37 -115.5t-106 -45.5q-184 0 -185 133q0 61 40 98t102 37q45 0 77.5 -25.5t32.5 -68.5q0 -51 -47 -86h-39l-45 6l-20 43l14 37h27l4 -31q4 -14 24 -14q41 0 41 43q0 39 -73 61q-41 -4 -72 -37l-25 -71q0 -80 113 -80q133 0 133 108q0 53 -33 113q-39 68 -88 68 q-115 0 -157 -13q-31 -27 -31 -129q0 -291 29 -526l73 -45q55 -35 47 -51q-135 -61 -135 -174q0 -41 13.5 -130.5t13.5 -136.5q0 -150 -154 -254q-137 -94 -291 -94q-227 0 -432 70q-29 16 -71 67q-27 63 -41 258q-10 150 -9 271l-98 82q88 57 111 133q14 49 14 174l-2 348 q-16 16 -33 74q-16 51 -65 94l-49 -2l-7 -6q-160 -37 -159 -166q0 -45 73 -90h46l71 12l19 41q0 35 -21.5 64.5t-54.5 27.5l-23 -2l-28 -51l34 -29l41 27l7 -14l-56 -50q-16 0 -39.5 21.5t-23.5 38.5q0 39 32.5 69.5t71.5 30.5q57 -31 68 -43q23 -25 22 -72 q0 -113 -123 -112q-55 0 -100 26q-53 31 -53 84zM514 1796q20 35 80.5 79t81.5 69h24q2 -20 11 -60q6 -18 100 -160q74 -110 74 -159q-2 0 -11.5 -4.5t-13.5 -4.5q-14 0 -55 72q-57 100 -86 135q-59 72 -115 72q-20 0 -63 -43zM600 131q0 14 10.5 32.5t22.5 18.5 q49 0 49 -45q0 -47 -45 -47q-37 0 -37 41zM741 39q0 14 26 30.5t42 16.5q23 0 37 -12q2 -5 2 -13q0 -16 -18.5 -42.5t-34.5 -26.5q-8 0 -31 20.5t-23 26.5zM920 29q0 16 27.5 45.5t43.5 29.5q25 0 25 -51q0 -20 -22.5 -38.5t-43.5 -18.5q-31 0 -30 33zM1051 170 q0 20 21.5 38.5t41.5 18.5q29 0 29 -37q0 -20 -17.5 -36.5t-38.5 -16.5q-37 0 -36 33z" />
<glyph unicode="&#xda;" horiz-adv-x="1695" d="M37 1253q0 244 385 244h178l33 -10l-21 -53q-141 -78 -141 -351q0 -47 5 -142t5 -142q0 -45 -2 -136.5t-2 -136.5q0 -260 68 -387q94 -176 336 -176q240 0 309 209q35 106 35 422v377q0 188 -27 284q-43 154 -160 207v21q82 29 416 28q86 0 150.5 -83t64.5 -171 q0 -70 -37 -115.5t-106 -45.5q-184 0 -185 133q0 61 40 98t102 37q45 0 77.5 -25.5t32.5 -68.5q0 -51 -47 -86h-39l-45 6l-20 43l14 37h27l4 -31q4 -14 24 -14q41 0 41 43q0 39 -73 61q-41 -4 -72 -37l-25 -71q0 -80 113 -80q133 0 133 108q0 53 -33 113q-39 68 -88 68 q-115 0 -157 -13q-31 -27 -31 -129q0 -291 29 -526l73 -45q55 -35 47 -51q-135 -61 -135 -174q0 -41 13.5 -130.5t13.5 -136.5q0 -150 -154 -254q-137 -94 -291 -94q-227 0 -432 70q-29 16 -71 67q-27 63 -41 258q-10 150 -9 271l-98 82q88 57 111 133q14 49 14 174l-2 348 q-16 16 -33 74q-16 51 -65 94l-49 -2l-7 -6q-160 -37 -159 -166q0 -45 73 -90h46l71 12l19 41q0 35 -21.5 64.5t-54.5 27.5l-23 -2l-28 -51l34 -29l41 27l7 -14l-56 -50q-16 0 -39.5 21.5t-23.5 38.5q0 39 32.5 69.5t71.5 30.5q57 -31 68 -43q23 -25 22 -72 q0 -113 -123 -112q-55 0 -100 26q-53 31 -53 84zM600 131q0 14 10.5 32.5t22.5 18.5q49 0 49 -45q0 -47 -45 -47q-37 0 -37 41zM741 39q0 14 26 30.5t42 16.5q23 0 37 -12q2 -5 2 -13q0 -16 -18.5 -42.5t-34.5 -26.5q-8 0 -31 20.5t-23 26.5zM836 1585q2 0 11 -4t13 -4 q14 0 55 72q57 100 86 135q59 72 115 71q20 0 64 -43l26 5q-20 37 -81.5 81t-80.5 66h-24q-2 -20 -10 -59q-6 -18 -101 -160q-73 -111 -73 -160zM920 29q0 16 27.5 45.5t43.5 29.5q25 0 25 -51q0 -20 -22.5 -38.5t-43.5 -18.5q-31 0 -30 33zM1051 170q0 20 21.5 38.5 t41.5 18.5q29 0 29 -37q0 -20 -17.5 -36.5t-38.5 -16.5q-37 0 -36 33z" />
<glyph unicode="&#xdb;" horiz-adv-x="1695" d="M37 1253q0 244 385 244h178l33 -10l-21 -53q-141 -78 -141 -351q0 -47 5 -142t5 -142q0 -45 -2 -136.5t-2 -136.5q0 -260 68 -387q94 -176 336 -176q240 0 309 209q35 106 35 422v377q0 188 -27 284q-43 154 -160 207v21q82 29 416 28q86 0 150.5 -83t64.5 -171 q0 -70 -37 -115.5t-106 -45.5q-184 0 -185 133q0 61 40 98t102 37q45 0 77.5 -25.5t32.5 -68.5q0 -51 -47 -86h-39l-45 6l-20 43l14 37h27l4 -31q4 -14 24 -14q41 0 41 43q0 39 -73 61q-41 -4 -72 -37l-25 -71q0 -80 113 -80q133 0 133 108q0 53 -33 113q-39 68 -88 68 q-115 0 -157 -13q-31 -27 -31 -129q0 -291 29 -526l73 -45q55 -35 47 -51q-135 -61 -135 -174q0 -41 13.5 -130.5t13.5 -136.5q0 -150 -154 -254q-137 -94 -291 -94q-227 0 -432 70q-29 16 -71 67q-27 63 -41 258q-10 150 -9 271l-98 82q88 57 111 133q14 49 14 174l-2 348 q-16 16 -33 74q-16 51 -65 94l-49 -2l-7 -6q-160 -37 -159 -166q0 -45 73 -90h46l71 12l19 41q0 35 -21.5 64.5t-54.5 27.5l-23 -2l-28 -51l34 -29l41 27l7 -14l-56 -50q-16 0 -39.5 21.5t-23.5 38.5q0 39 32.5 69.5t71.5 30.5q57 -31 68 -43q23 -25 22 -72 q0 -113 -123 -112q-55 0 -100 26q-53 31 -53 84zM582 1657q86 35 239 285l-22 20q-12 2 -39 6l6 21l4 6h6q18 14 19 26q16 6 18 15l12 2q6 -39 17 -64q6 14 4 41l8 2q20 -14 59 -49l2 -6l-6 -2q-20 0 -43 -29q33 -49 101 -147q78 -111 112 -115l2 -10q-16 -23 -51 -64h-4 q-2 2 -2 17q0 23 -76 147q-70 113 -100 152q-201 -207 -201 -309v-11q-6 -2 -26 19q-10 14 -21 14q-8 18 -16 18zM600 131q0 14 10.5 32.5t22.5 18.5q49 0 49 -45q0 -47 -45 -47q-37 0 -37 41zM741 39q0 14 26 30.5t42 16.5q23 0 37 -12q2 -5 2 -13q0 -16 -18.5 -42.5 t-34.5 -26.5q-8 0 -31 20.5t-23 26.5zM920 29q0 16 27.5 45.5t43.5 29.5q25 0 25 -51q0 -20 -22.5 -38.5t-43.5 -18.5q-31 0 -30 33zM1051 170q0 20 21.5 38.5t41.5 18.5q29 0 29 -37q0 -20 -17.5 -36.5t-38.5 -16.5q-37 0 -36 33z" />
<glyph unicode="&#xdc;" horiz-adv-x="1695" d="M37 1253q0 244 385 244h178l33 -10l-21 -53q-141 -78 -141 -351q0 -47 5 -142t5 -142q0 -45 -2 -136.5t-2 -136.5q0 -260 68 -387q94 -176 336 -176q240 0 309 209q35 106 35 422v377q0 188 -27 284q-43 154 -160 207v21q82 29 416 28q86 0 150.5 -83t64.5 -171 q0 -70 -37 -115.5t-106 -45.5q-184 0 -185 133q0 61 40 98t102 37q45 0 77.5 -25.5t32.5 -68.5q0 -51 -47 -86h-39l-45 6l-20 43l14 37h27l4 -31q4 -14 24 -14q41 0 41 43q0 39 -73 61q-41 -4 -72 -37l-25 -71q0 -80 113 -80q133 0 133 108q0 53 -33 113q-39 68 -88 68 q-115 0 -157 -13q-31 -27 -31 -129q0 -291 29 -526l73 -45q55 -35 47 -51q-135 -61 -135 -174q0 -41 13.5 -130.5t13.5 -136.5q0 -150 -154 -254q-137 -94 -291 -94q-227 0 -432 70q-29 16 -71 67q-27 63 -41 258q-10 150 -9 271l-98 82q88 57 111 133q14 49 14 174l-2 348 q-16 16 -33 74q-16 51 -65 94l-49 -2l-7 -6q-160 -37 -159 -166q0 -45 73 -90h46l71 12l19 41q0 35 -21.5 64.5t-54.5 27.5l-23 -2l-28 -51l34 -29l41 27l7 -14l-56 -50q-16 0 -39.5 21.5t-23.5 38.5q0 39 32.5 69.5t71.5 30.5q57 -31 68 -43q23 -25 22 -72 q0 -113 -123 -112q-55 0 -100 26q-53 31 -53 84zM598 1690q0 63 44 103t110 40q84 0 84 -86q0 -66 -76 -107q-14 -8 -22.5 -28.5t-12.5 -24.5l-23 -2q-104 -10 -104 105zM600 131q0 14 10.5 32.5t22.5 18.5q49 0 49 -45q0 -47 -45 -47q-37 0 -37 41zM637 1669q0 -8 8 -22 q15 0 27 20q-35 18 -35 45v-43zM645 1737q25 35 40 44t56 9h13q31 -41 30 -49q0 -16 -15 -32.5t-32 -16.5q-8 0 -18 10q2 6 31 22v19q-18 16 -31 16q-14 0 -28.5 -12t-14.5 -25q0 -12 21.5 -32.5t33.5 -20.5q70 0 70 74q0 55 -58 55q-80 0 -98 -61zM741 39q0 14 26 30.5 t42 16.5q23 0 37 -12q2 -5 2 -13q0 -16 -18.5 -42.5t-34.5 -26.5q-8 0 -31 20.5t-23 26.5zM895 1694q0 63 45 103t111 40q84 0 84 -86q0 -66 -76 -106q-14 -8 -22.5 -29t-12.5 -25h-23q-106 0 -106 103zM920 29q0 16 27.5 45.5t43.5 29.5q25 0 25 -51q0 -20 -22.5 -38.5 t-43.5 -18.5q-31 0 -30 33zM934 1716q2 2 2 4v-47q0 -8 8 -22q15 0 27 20q-37 18 -37 45zM944 1741q25 35 40 44t56 9h13q31 -41 30 -49q0 -14 -16 -31.5t-31 -17.5q-8 0 -18 10q2 6 31 23v18q-18 16 -31 16q-14 0 -28.5 -12t-14.5 -25q0 -12 21.5 -32.5t33.5 -20.5 q70 0 70 74q0 55 -58 55q-80 0 -98 -61zM1051 170q0 20 21.5 38.5t41.5 18.5q29 0 29 -37q0 -20 -17.5 -36.5t-38.5 -16.5q-37 0 -36 33z" />
<glyph unicode="&#xdd;" d="M29 1192q0 313 370 313q23 0 68 -2t68 -2q51 0 61 12l104 -14l11 -22l-25 -27l-59 -12l-64 -78q8 -80 103 -223q37 -10 63 -11q16 0 29 4l47 -24q-12 -23 -24.5 -75t-22.5 -68l82 -117l18 -6q39 0 129 196l-47 82l14 25l58 -2q61 -2 112 110q45 100 45 193q0 20 -4 35 l29 20l51 -8q201 0 346 -10q14 -6 15 -17q0 -4 -2 -10q-96 -27 -244 -86q-98 -61 -230 -272l66 -123l-16 -19q-78 41 -119 43q-121 -227 -162 -413q-37 -168 -37 -449q0 -96 70 -143q18 -12 82 -47q-23 -25 -262 -25q-141 0 -142 35l11 20q63 27 112 82q55 250 55 414 q0 150 -28 250q-10 39 -53 119q-39 74 -48 112h-10q-82 0 -82 31l29 82q-12 20 -119 219q-2 -164 -63.5 -230.5t-225.5 -66.5q-74 0 -118 68q-41 59 -41 137zM59 1202q0 -68 35 -117q39 -55 105 -55q127 0 178 33q67 43 67 162q0 59 -52 98t-113 39q-51 0 -98.5 -55.5 t-47.5 -108.5q0 -43 57 -70q45 -23 95 -22q39 0 64.5 26.5t25.5 65.5q0 10 -15 57q-45 18 -51 19q-23 0 -47 -18.5t-24 -38.5q0 -29 51 -29q6 0 33 26l6 -8v-12q-29 -45 -76 -45q-16 0 -32.5 19.5t-16.5 35.5q0 39 40 72t79 33q33 0 60.5 -30t27.5 -62q0 -59 -39 -102.5 t-97 -43.5q-61 0 -112 29q-59 33 -60 90q0 63 60.5 137t122.5 74q80 0 159 -66q-61 123 -139 123q-113 0 -179.5 -71.5t-66.5 -184.5zM885 1538q2 0 11 -4t13 -4q14 0 56 72q57 100 86 135q59 72 114 71q20 0 64 -43l26 4q-20 37 -81.5 81t-79.5 67h-25q-2 -20 -10 -59 q-6 -18 -101 -160q-73 -111 -73 -160zM909 158q0 12 15.5 24.5t27.5 12.5q35 0 35 -45q0 -47 -26 -48q-12 0 -46 33q-6 33 -6 23zM926 348q0 33 32 33q41 -1 41 -64q0 -29 -20 -28q-53 0 -53 59zM932 524q0 47 35 47q32 0 32 -47q0 -14 -10 -30.5t-22 -16.5q-35 0 -35 47z M944 719q0 39 31 39q35 0 35 -47q0 -10 -9.5 -26.5t-19.5 -16.5q-14 0 -25.5 17t-11.5 34z" />
<glyph unicode="&#xde;" horiz-adv-x="862" d="M27 229q41 55 55 84q20 39 51 455q29 381 29 475q0 66 -6 90q-10 39 -45 76l14 18q49 4 147 11l50 -2l8 -6l-6 -13q-55 -68 -72 -205q0 -6 -21 -227q106 98 281 98q119 0 211 -57q106 -65 106 -178q0 -127 -90 -207t-219 -80h-104l-39 2q-18 16 -80 45q-53 25 -98 92 q-18 -166 -19 -276q0 -86 19 -119q33 -41 65 -84q-43 -8 -43 -18q-10 -2 -36.5 4t-37.5 6q-18 0 -32 -10q-29 12 -45 12q-8 0 -15 -2zM260 858q0 -68 55.5 -107.5t124.5 -39.5q57 0 101.5 27.5t44.5 82.5q0 72 -86 72q-88 0 -88 -55q0 -20 18 -35h14q2 0 6.5 4t22.5 4 q10 0 10 -12q0 -33 -47 -33q-68 0 -67 72q0 47 49 71q39 20 90 21q121 0 121 -96q0 -80 -56.5 -121t-138.5 -41q-33 0 -74 6l-12 -12q49 -49 127 -50q158 0 215 113q41 82 41 111q0 94 -78 145q-66 43 -166 43q-72 0 -145 -49q-82 -53 -82 -121z" />
<glyph unicode="&#xdf;" horiz-adv-x="1052" d="M20 -31q0 -28 39 -28l207 4l31 114q-25 23 -39 88q-12 55 -8 99l47 592l8 -2q18 0 19 84q0 39 -14.5 119.5t-14.5 121.5q0 197 53 260q59 72 250 72q92 0 160 -86q39 -49 88 -162q-10 -57 -17 -96q-12 -70 -43 -70l-65 39q-8 125 -21 160q-29 84 -120 84 q-207 0 -207 -193q0 -123 131 -122q113 0 106 98l-2 31q-6 6 -33 36q-18 20 -38 21l-37 -16v-21l18 -8l17 4l38 -55q0 -23 -22.5 -38.5t-44.5 -15.5q-100 0 -100 101q0 82 49 110q29 16 125 31l67 -31q35 -55 35 -129q0 -76 -33 -170q-49 -141 -53 -166l109 5 q133 4 215 -132q72 -115 71 -256q0 -195 -73 -194q-47 0 -82 72q-57 121 -70 137q-55 72 -164 71q-88 0 -144.5 -64.5t-56.5 -154.5q0 -59 74 -129q104 -14 96 -14q55 0 90 44t35 99l-6 35l-61 49l-23 -22q33 -20 53 -68q0 -35 -26.5 -65.5t-61.5 -30.5q-55 0 -94 27 q-45 31 -45 84q0 80 55.5 125t137.5 45q74 0 129 -93q51 -82 51 -159q0 -16 -19.5 -68.5t-30 -66t-44.5 -39.5l-35 -29q0 -31 78 -76q135 109 200 207q78 123 78 274q0 129 -69 265q-82 158 -199 159l-4 4q168 102 168 256q0 233 -142 328q-94 63 -294 74q-225 12 -259 24 q-27 -14 -45 -14q-8 0 -14 2l-14 -43q45 -25 53 -108v-129q0 -283 -18 -324q-10 -23 -45 -39q-43 -18 -50 -25v-14q96 -35 97 -78q0 -172 -29 -413q-39 -324 -102 -347l-23 -8q-23 -25 -23 -43z" />
<glyph unicode="&#xe0;" horiz-adv-x="1050" d="M33 362q0 205 102 416q123 254 311 254l33 -12q53 6 99 6q47 0 90 -6l22 8q63 -14 103 -14l4 -27l-19 -16q-109 -23 -108 -207q0 -94 10 -283.5t10 -283.5q0 -80 31 -154q41 -98 110 -98q61 0 121 80q55 74 56 137q0 35 -35 59.5t-72 24.5q-35 0 -66.5 -32t-31.5 -67 q0 -18 16.5 -32.5t34.5 -14.5q14 0 33.5 11.5t23.5 23.5l-26 25v22l18 8q49 0 49 -53q0 -78 -96 -78q-35 0 -64.5 22.5t-29.5 55.5q0 51 42 104.5t93 53.5q57 0 102 -38t45 -95q0 -100 -59 -170q-12 -14 -65 -68q-190 -29 -545 -28q-51 0 -146 28q-61 59 -149 172 q-47 100 -47 266zM80 322q0 -154 72 -256q82 -115 229 -115q156 0 203 123q26 70 26 260q0 645 -139 645q-31 0 -92 -16q-70 -18 -86 -33q-88 -78 -154 -285q-59 -186 -59 -323zM195 1411q20 35 80.5 79t80.5 69h25q2 -20 10 -60q6 -18 101 -160q73 -110 73 -159 q-2 0 -11 -4.5t-13 -4.5q-14 0 -56 72q-57 100 -86 135q-59 72 -114 72q-20 0 -64 -43zM461 223q0 8 39 60h24q15 -60 15 -56q0 -41 -31 -41q-12 0 -29.5 12.5t-17.5 24.5zM465 727l29 41h34q0 -4 7.5 -16.5t7.5 -18.5q0 -51 -43 -51q-10 0 -22.5 17.5t-12.5 27.5zM483 496 q0 45 43 45q27 0 27 -35q0 -55 -39 -55q-31 0 -31 45z" />
</font>
</defs>
</svg>
