<?xml version="1.0" standalone="no"?>
<!DOCTYPE svg PUBLIC "-//W3C//DTD SVG 1.1//EN" "http://www.w3.org/Graphics/SVG/1.1/DTD/svg11.dtd" >
<svg xmlns="http://www.w3.org/2000/svg">
<metadata></metadata>
<defs>
<font id="miss_smarty_pants_skinnskinny" horiz-adv-x="1024" >
<font-face units-per-em="2048" ascent="1638" descent="-410" />
<missing-glyph horiz-adv-x="614" />
<glyph horiz-adv-x="2048" />
<glyph horiz-adv-x="2048" />
<glyph unicode="&#xd;" horiz-adv-x="681" />
<glyph unicode=" "  horiz-adv-x="614" />
<glyph unicode="&#x09;" horiz-adv-x="614" />
<glyph unicode="&#xa0;" horiz-adv-x="614" />
<glyph unicode="!" horiz-adv-x="204" d="M63 1413q-2 14 6.5 25.5t21.5 13.5t24.5 -7.5t13.5 -19.5q14 -104 23.5 -204.5t9.5 -229.5v-194q0 -63 -6 -230.5t-6 -201.5q0 -12 -10.5 -21.5t-25 -9.5t-22.5 10t-8 25q0 35 6 201.5t6 228.5v188q0 129 -8 228.5t-25 197.5zM84 84q0 14 9 23.5t22.5 9.5t24 -9.5 t10.5 -23.5t-10.5 -23.5t-24 -9.5t-22.5 9.5t-9 23.5z" />
<glyph unicode="&#x22;" horiz-adv-x="397" d="M92 1346q0 14 9.5 23t23.5 9t23.5 -9t9.5 -23q0 -55 4 -167t4 -167q0 -14 -9.5 -23.5t-23.5 -9.5t-23.5 9t-9.5 24q0 55 -4 166.5t-4 167.5zM252 1331q-2 14 6 24.5t22.5 12.5t24.5 -6.5t12 -22.5q6 -49 11 -102l6 -121l6 -104q2 -12 -7 -22.5t-22.5 -12.5t-24 7 t-12.5 24q-2 35 -5 100.5t-7 120.5t-10 102z" />
<glyph unicode="#" horiz-adv-x="1433" d="M123 571q-2 12 7 22.5t22.5 12.5t23.5 -7t12 -24l5 -40q141 35 315 47q-2 63 -12 256l-4 77q-139 6 -291 25l-11 -22q-4 -14 -16 -18.5t-25.5 0.5t-18.5 17.5t1 24.5q10 29 19 41q4 8 4 14v15q0 29 2 51q0 14 10 23.5t23.5 8.5t22.5 -10.5t9 -23.5q-2 -23 -2 -57 q139 -16 268 -23q-4 176 -2 315h-32q-14 2 -23.5 12.5t-8.5 22.5t11 22.5t23 8.5l47 -4h12h4l45 14q12 4 24.5 -2t16.5 -18.5t-2 -24.5t-20 -16l-31 -11q-4 -139 4 -323q172 -6 328 8v102q4 186 4 232l-39 -4q-12 -2 -22.5 8t-11.5 22.5t8 22.5t24 12q68 4 117 6q14 0 24 -9 t10 -22.5t-8 -22.5t-37 -13q0 -43 -4 -234v-94q164 23 309 68l-16 43q-4 12 2 24.5t19.5 16.5t25.5 -2t17 -17q16 -51 32 -108q4 -14 -3 -25.5t-19 -15.5q-20 -8 -41 20q-150 -47 -324 -69q0 -51 4 -82q12 -125 39 -258q188 4 314 -19l-15 31q-2 12 6.5 23.5t21.5 13.5 t24.5 -7.5t13.5 -19.5l6 -45q4 -18 4 -22v-27v-43q0 -14 -10 -23.5t-23.5 -9.5t-22.5 9.5t-9 23.5v33q-106 18 -295 16q66 -260 178 -446l20 4q12 2 23.5 -6.5t12.5 -22.5t-7 -24.5t-21 -12.5q-14 -2 -25 -3l-11 -1h-9h-12q-4 -4 -5 -4t-13 -4l-27 -10q-12 -4 -24.5 2 t-17.5 18.5t1 24.5t19 16l28 8q-115 203 -178 459h-37q-4 0 -166 1t-162 -17q2 -63 3 -133q27 -4 36 -13.5t9 -21.5q0 -14 -10.5 -23.5t-22.5 -9.5q-59 0 -119 4q-12 2 -21.5 12.5t-8.5 23.5t11.5 22.5t24.5 7.5l35 -4q0 72 -4 149q-176 -12 -313 -49q-2 -23 -11.5 -31 t-21.5 -8q-14 0 -23.5 9t-9.5 24q0 47 -6 110zM557 911l4 -67q8 -190 10 -260q88 2 124 2t104.5 -1t103.5 -1h23q-25 135 -37 256l-6 80q-152 -12 -326 -9z" />
<glyph unicode="$" horiz-adv-x="1009" d="M88 216q4 13 16 20q27 14 85.5 42.5t86.5 45.5q12 6 25.5 2t21 -15.5t3.5 -25t-17 -19.5l-55 -30q25 -98 106.5 -148.5t186.5 -50.5q109 -2 187.5 45t94.5 127q20 100 -69 227q-53 70 -224 244t-231 268q-98 162 -63 312q29 119 133 159q92 33 203 -6q100 -39 173 -125 t85 -223l55 12q12 2 23.5 -6t13.5 -21.5t-6.5 -24.5t-20.5 -13q-70 -10 -180 -51q-12 -4 -24.5 1t-17.5 18t0 25.5t19 16.5l74 25q-6 117 -67.5 194.5t-149.5 110t-159.5 5t-90.5 -113.5q-29 -121 55 -260q55 -90 222 -256q176 -178 231 -254q106 -150 82 -276 q-23 -111 -124 -169.5t-224 -56.5q-119 0 -216.5 56.5t-137.5 179.5l-60 -29q-10 -6 -22.5 -2t-19.5 15.5t-3 24.5zM451 1606q0 12 8 22t22.5 12t24.5 -7t10 -23l6 -68q2 -12 -7 -22.5t-22.5 -12.5t-23.5 7.5t-12 23.5zM547 -117q0 12 8 22.5t21.5 12.5t24.5 -7.5t11 -23.5 q6 -70 13 -127q2 -12 -7.5 -22t-22.5 -12t-23.5 7t-12.5 23q-6 68 -12 127z" />
<glyph unicode="%" horiz-adv-x="1314" d="M100 158.5q0 13.5 10.5 22.5t23.5 9t22 -10l37 -39q174 313 376.5 592t489.5 625l-43 65q-8 12 -5 25.5t14 21t24.5 4t19.5 -13.5q59 -94 129 -151q8 -8 10 -21.5t-7 -24t-22.5 -12.5t-25.5 9q-18 18 -51 49q-291 -354 -496 -637t-368 -584l20 -29q8 -12 6 -25.5 t-13 -21.5t-24.5 -6t-19.5 14l-25 31q-10 12 -11 17.5t-11 13.5l-8 10l-17 14q-12 12 -23.5 25.5t-11.5 27zM219 1077q-2 59 31 122t90 99q10 6 23.5 3t19.5 -11q0 -2 6 -14q45 -18 68.5 -56t27.5 -81q8 -55 -16.5 -105.5t-79.5 -68.5q-78 -29 -125 8q-45 35 -45 104z M285 1079q0 -39 19.5 -54t64.5 3q63 23 53 105q-10 76 -78 88q-61 -68 -59 -142zM745 162q-2 59 31 121.5t90 99.5q10 6 23.5 3t19.5 -11q0 -3 6 -15q45 -18 69 -56t28 -81q8 -55 -16.5 -105t-80.5 -69q-78 -29 -124 8q-45 35 -46 105zM811 164q0 -39 19.5 -54.5t64.5 3.5 q63 23 53 104q-10 76 -78 88q-61 -68 -59 -141z" />
<glyph unicode="&#x26;" horiz-adv-x="966" d="M63 788q2 45 21 107q35 131 109 252q86 139 182 190q125 63 233 -34q68 -61 88 -177l23 13q12 2 23.5 -4.5t15.5 -19.5t-2 -24.5t-19 -15.5q-59 -16 -135 -33q-12 -4 -23.5 3.5t-14.5 20.5t4 24.5t22 13.5l43 10q-18 90 -70 139q-74 70 -157 25q-82 -41 -158 -166 q-70 -115 -103 -235q-14 -53 -16 -93q0 -10 1 -18t1 -10v-8q20 -20 47 -21q35 2 84 25q29 12 60 28q29 14 59.5 34t40.5 26q4 4 15.5 10t26.5 15t23 16q20 12 27 16l8 4q4 2 10 0q16 0 27 -10q10 -14 6 -31l-8 -14l-4 -2l-4 -6q-68 -51 -155 -153.5t-144 -209.5 q-147 -268 12 -366q25 -14 94 -11q131 6 240 166q70 102 125 281q-63 -10 -96 -10q-14 0 -23.5 9t-9.5 23.5t9.5 23.5t23.5 9q37 0 70.5 6t86 20.5t76.5 18.5q12 4 23.5 -3t14.5 -20.5t-4 -24.5t-22 -13q-16 -4 -69 -21q-10 -10 -10 -16q-51 -188 -142 -322 q-125 -182 -291 -192q-90 -6 -133 22q-59 37 -87.5 91.5t-23.5 116t23.5 121.5t55.5 122q41 76 133 199q-104 -41 -144 -43q-63 -2 -100 43q-20 29 -19 83z" />
<glyph unicode="'" horiz-adv-x="204" d="M33 1511q0 14 9 23.5t23.5 9.5t23.5 -9.5t9 -23.5q0 -213 21 -335q2 -14 -6.5 -25.5t-21.5 -13.5t-24.5 6t-13.5 20q-20 131 -20 348z" />
<glyph unicode="(" horiz-adv-x="348" d="M79 974.5q30 278.5 111 522.5q2 12 15.5 18.5t26 2t18.5 -16.5t2 -26q-80 -233 -107.5 -506t8 -555.5t144.5 -493.5q6 -12 2 -24.5t-16.5 -18.5t-24.5 -2t-18 14q-113 219 -152 513t-9 572.5z" />
<glyph unicode=")" horiz-adv-x="354" d="M42 -98.5q-5 12.5 1 24.5q96 229 141 500.5t25.5 554.5t-111.5 498q-6 14 -1 26.5t17.5 17.5t25 1t18.5 -17q96 -227 117.5 -522t-25.5 -572.5t-148 -510.5q-6 -14 -18 -18.5t-24.5 0.5t-17.5 17.5z" />
<glyph unicode="*" horiz-adv-x="751" d="M86 1225.5q-2 13.5 5 26t20.5 14.5t25.5 -6l197 -134q-4 66 -12 125l-13 90q-2 14 6.5 24.5t21.5 12.5t24.5 -6t13.5 -22q2 -27 11 -93.5t15 -136.5q88 84 134 146q8 10 21 12t23.5 -6t12.5 -22.5t-6 -24.5q-53 -72 -146 -160q113 -57 205 -90q14 -6 19.5 -18.5t0 -25.5 t-17.5 -18.5t-24 -1.5q-94 35 -213 97q0 -154 -33 -250q-4 -12 -16.5 -18.5t-25.5 -2.5t-19.5 16.5t-2.5 26.5q27 76 31 203q-90 -74 -174 -131q-10 -8 -24.5 -6t-21.5 13t-5 25.5t12 20.5q105 74 197 150l-230 151q-10 6 -12 19.5z" />
<glyph unicode="+" horiz-adv-x="630" d="M66.5 666.5q3.5 13.5 14.5 20.5t23 3q80 -16 168 -18q-4 100 -2 172q0 12 10.5 21t24.5 9t22.5 -10t8.5 -24q-2 -68 2 -166q84 10 158 35q14 4 26.5 -2.5t16.5 -18.5t-2.5 -24.5t-18.5 -16.5q-84 -29 -180 -39q2 -76 8 -182q2 -12 -7 -21.5t-23.5 -11.5t-23.5 8.5 t-11 24.5q-6 98 -9 180q-92 2 -180 23q-14 2 -21.5 13t-4 24.5z" />
<glyph unicode="," horiz-adv-x="260" d="M52 -108.5q1 14.5 9 22.5q51 45 62 76q12 37 -10 96q-4 12 2 24.5t19 16.5t25.5 -2.5t16.5 -18.5q27 -80 8 -137q-14 -47 -78 -104q-10 -8 -23 -8t-22.5 10t-8.5 24.5z" />
<glyph unicode="-" horiz-adv-x="542" d="M73 605q1 13 11.5 22.5t24.5 7.5q96 -8 348 10q14 2 24.5 -7t11.5 -22.5t-7.5 -23.5t-22.5 -12q-260 -18 -361 -11q-12 2 -21 12.5t-8 23.5z" />
<glyph unicode="." horiz-adv-x="204" d="M82 67.5q0 14.5 9 23.5t23.5 9t23.5 -9t9 -23.5t-9 -23.5t-23.5 -9t-23.5 9t-9 23.5z" />
<glyph unicode="/" horiz-adv-x="948" d="M40 24.5q-3 14.5 3 24.5l346 619q268 481 430 731q6 10 20.5 13t24.5 -4t14.5 -20.5t-4.5 -23.5q-162 -252 -428 -732t-346 -616q-6 -12 -19 -15t-25.5 3t-15.5 20.5z" />
<glyph unicode="0" horiz-adv-x="966" d="M72 768q18 274 121 459q121 215 307 221h6q12 2 20 -4q102 -63 179 -160.5t119 -207t61.5 -234.5t13.5 -244q-4 -117 -29 -229q-18 -88 -59 -164t-104.5 -139.5t-145.5 -83t-186 11.5q-168 53 -252 295q-70 209 -51 479zM137 764q-16 -258 49 -457q72 -207 207 -252 q152 -47 264.5 53.5t151.5 272.5q23 106 27 219t-13.5 227.5t-56.5 216t-105.5 190.5t-160.5 148q-152 -8 -250 -186q-94 -172 -113 -432z" />
<glyph unicode="1" horiz-adv-x="567" d="M98.5 1135.5q2.5 13.5 14.5 21.5l41 47l79 88q59 63 78 82q20 20 31 29q10 6 16 10q18 8 37 0q4 -2 9.5 -9t5.5 -9l2 -4q2 -8 4 -17q2 -14 4 -39q2 -37 2 -102q0 -96 -2 -170q-6 -209 -4 -488q4 -313 -2 -503h49q12 0 22.5 -9.5t10.5 -23.5t-10.5 -23.5t-22.5 -9.5 q-141 0 -168 -2q-14 -2 -24.5 7t-11.5 22.5t8 24t25.5 12.5t55.5 2q6 164 3 505t3 490q2 70 2 166v92l-73 -78l-78 -88q-43 -45 -55 -55q-12 -8 -24.5 -6t-21 13t-6 24.5z" />
<glyph unicode="2" horiz-adv-x="880" d="M94 68l2 6q0 8 2 18q4 14 13 37q12 41 39 109q53 133 75 172q25 47 105 184q90 154 123 217q139 270 120 399q-14 90 -63 129q-45 31 -109 15q-57 -18 -105 -69.5t-71 -145.5l35 -4q14 -2 22.5 -12.5t6.5 -25t-12.5 -22.5t-24.5 -6q-47 6 -125 10q-14 2 -23.5 11.5 t-8.5 22.5t10.5 22.5t23.5 9.5h33q18 109 80.5 179.5t140.5 90.5q92 25 162 -24q78 -51 94 -172q23 -152 -129 -437q-41 -82 -123 -221q-84 -143 -104 -180q-18 -39 -72 -168q-27 -63 -39 -104l-8 -25q41 -4 72 -8q76 -6 194 -8q190 0 338 10q-4 33 -4 50t9 27.5t22.5 10.5 t23.5 -9.5t10 -21.5q2 -68 2 -121q0 -14 -9 -23t-23 -9q-20 0 -35 28q-145 -8 -334 -8q-123 2 -199 8q-47 4 -73 10q-39 8 -54 25q-4 6 -7 15z" />
<glyph unicode="3" d="M50 340q-1 14 7.5 24.5t20.5 12.5q49 4 162 33q12 4 24 -3.5t15.5 -20.5t-4 -24.5t-19.5 -13.5l-59 -16q-4 -135 65 -211q74 -76 201 -84q129 -8 240.5 56.5t148.5 180.5q35 109 -7 230t-132 196q-74 61 -152 66q-8 2 -49 2q-16 0 -25 2q-10 4 -18 12q-10 12 -8 25 q0 14 10 24l2 3h4q2 2 4 2q2 2 0 2l15 4l36 14q49 20 70 31q211 121 166 299q-16 68 -70.5 111.5t-124.5 52.5q-68 8 -122 -23t-78 -110l73 -27q12 -4 18.5 -16.5t2.5 -24.5t-16.5 -18.5t-26.5 -2.5q-43 14 -174 66q-12 4 -18.5 15.5t-1 24.5t17.5 18t24 1l39 -14 q35 106 109 146t162 30q88 -12 159 -67q70 -57 90 -146q29 -115 -24 -205q-53 -92 -182 -176q82 -31 129 -71q104 -88 153 -226.5t8 -269.5q-45 -143 -178 -218t-278 -65q-154 10 -244 105q-82 88 -84 241l-43 -6q-14 -2 -25.5 6.5t-12.5 22.5z" />
<glyph unicode="4" d="M105 1398.5q-1 14.5 7.5 25t22.5 12.5l72 8q8 4 16 4q2 0 6 -2l78 8q12 2 22.5 -7t11.5 -22.5t-7 -23.5t-23 -12l-55 -7q6 -356 -33 -587q-6 -29 -14 -94.5t-14 -98.5q-2 -8 -21 -41q51 -8 90 -10q90 -6 234 -4q55 0 129 2q-20 471 2 864l-58 -8q-14 -2 -24 6t-12.5 22.5 t6 24.5t22.5 12q76 10 150 17q14 2 24.5 -7.5t11.5 -22.5t-7.5 -23.5t-22.5 -12.5h-25q-23 -393 -2 -870q113 4 180 12v31q0 14 9.5 23.5t23 9.5t23.5 -9.5t10 -23.5v-33v-14v-6v-6l6 -21q4 -10 8 -26.5t-3 -27.5t-19 -15.5t-24.5 2t-16.5 22.5l-10 29q-68 -8 -185 -13 q12 -209 31 -434v-24l59 6q14 2 25.5 -6.5t12.5 -22.5t-7 -24.5t-20 -12.5q-35 -4 -93 -6q-63 -4 -86 -6q-14 -2 -24 7t-11 22.5t8 23.5t23 12q12 2 47 3v20q-18 231 -30 440q-72 -2 -129 -2q-145 -2 -240 4q-51 2 -84 9q-16 4 -31 8q-18 6 -26 18q-20 27 -2 66q2 6 5 10 t5 8t2 10q8 35 16.5 99.5t12.5 91.5q39 221 30 571l-45 -6q-14 -2 -25.5 6t-12.5 22.5z" />
<glyph unicode="5" horiz-adv-x="1003" d="M43 434.5q0 14.5 9.5 23.5t23.5 9q55 0 119 6q12 2 22 -7t12 -22.5t-7 -23.5t-23 -12l-37 -5q16 -172 105 -267t208 -107q123 -12 231.5 66.5t149.5 246.5q20 80 16 206t-36 236q-82 264 -273 289q-35 4 -64.5 -7t-48 -26.5t-59.5 -52.5q-2 -4 -10 -12q-12 -23 -14 -25 q-14 -16 -25 -24q-25 -16 -49 -2q-41 18 -25 73l4 17q2 8 2 10t2.5 5t2.5 9q0 14 -1.5 41t-1.5 37q0 6 -1 24.5t-3 51.5t-4 55q-4 51 -4 80v31q0 6 2 12q0 8 4 14q8 16 27 21q10 4 22 4q23 2 64 2q63 0 180 -6q61 -2 163.5 -9t143.5 -7v24q0 14 9.5 23.5t24 9.5t23.5 -9.5 t9 -23.5q0 -84 6 -135q2 -14 -6 -24.5t-22.5 -12.5t-24.5 6t-12 23l-7 49q-39 4 -144 11t-169 9q-113 6 -174 7h-53q0 -43 4 -97q2 -20 4 -53t3 -52.5t1 -27.5q0 -2 4 -84q72 70 117 92.5t108 14.5q123 -16 204 -107.5t122 -226.5q37 -119 41 -253t-20 -226 q-45 -188 -172.5 -283.5t-276.5 -79.5q-145 18 -249.5 129t-123.5 309h-20q-14 0 -23.5 9.5t-9.5 24z" />
<glyph unicode="6" d="M61 700q8 188 64.5 359.5t148.5 269.5q94 98 193 113q94 14 170 -47q61 -51 98 -136.5t37 -191.5h27q14 0 24.5 -9t10.5 -22.5t-9.5 -24t-21.5 -10.5q-55 -2 -58.5 -2t-19.5 -4l-45 -10q-14 -2 -26.5 6t-14.5 20.5t6 25t19 14.5l43 6q2 94 -28 170t-83 114 q-55 43 -119 35q-78 -10 -158 -94q-80 -86 -132 -245.5t-59 -340t34 -331t157 -263.5q-18 375 168 560q43 43 105.5 71.5t124.5 30.5q72 2 125 -37q55 -35 76 -115q35 -125 -13 -268q-43 -141 -141 -240q-106 -109 -234 -124q-143 -18 -274 94q-106 92 -154 258 q-49 172 -41 368zM383 68q76 -31 141 -23q102 10 193 102q88 90 127 216t12 233q-31 104 -137 102q-49 -2 -100.5 -24.5t-86.5 -57.5q-180 -182 -145 -520q0 -5 -4 -28z" />
<glyph unicode="7" horiz-adv-x="847" d="M41 1399q-2 14 6 24.5t23 12.5q25 2 36 -31q45 0 103 2l143 6l133 4q125 4 189 4q41 0 63 -4q12 0 21 -4q10 -2 12 -4q14 -8 18 -20q4 -16 -2 -43l-16 -46q-16 -45 -49 -114l-92 -189q-68 -139 -129 -303q104 2 151 0q10 0 20.5 -10t10.5 -23.5t-10 -22.5t-25 -9 q-41 0 -170 2q-92 -283 -129 -568h62q12 0 22 -9t10 -23.5t-10 -23.5t-22 -9h-183q-14 0 -23 9t-9 23.5t9 23.5t23 9h56q35 276 127 568q-80 0 -127 4q-12 2 -21.5 12t-8.5 23.5t11 22.5t25 7q57 -4 141 -4q61 170 137 328l95 190q31 68 47 111l16 31h-51q-63 0 -189 -4 l-127 -4q-80 -4 -137 -6.5t-108 -2.5v-43q0 -14 -10.5 -23t-23.5 -9t-22.5 9t-9.5 23q0 57 -6 103z" />
<glyph unicode="8" horiz-adv-x="751" d="M63.5 336.5q-0.5 103.5 29.5 189.5t89 187q41 70 113 180l-25 16q-39 31 -73 95q-37 63 -41 112q-6 84 39 162t118 119q78 43 156 22q88 -20 141 -114q6 -12 3 -25.5t-15 -20t-25.5 -3t-19.5 15.5q-41 70 -100 86q-51 14 -109 -19q-57 -31 -92 -92t-31 -127q2 -33 32 -84 t58 -75l21 -13l20 31q100 150 133 227q6 14 18.5 18.5t26 -0.5t17.5 -17.5t0 -24.5q-35 -84 -141 -242l-19 -31q66 -39 96 -67q143 -133 203 -322q72 -221 -31 -381q-45 -70 -129 -114q-82 -45 -164 -37q-164 14 -247 157q-51 88 -51.5 191.5zM129 338q0 -86 43 -160 q66 -115 195 -125q66 -6 133 31q68 35 102 92q84 133 25 322q-55 174 -187 295q-27 24 -90 63q-74 -109 -110 -176q-55 -96 -84 -177t-27 -165z" />
<glyph unicode="9" horiz-adv-x="962" d="M61 829q-29 123 23.5 263.5t155.5 236.5q113 104 239 113q145 12 269 -107q106 -96 146 -282.5t15.5 -395t-105.5 -381t-204 -245.5q-100 -53 -179 -40t-140 77q-49 55 -75 131.5t-20 169.5q-53 12 -90 24q-14 4 -20 16.5t-2 24.5t16.5 18.5t24.5 2.5q82 -25 204 -39 q12 -2 20.5 -12.5t7.5 -24.5t-12 -22.5t-24 -6.5q-23 4 -59 8q-4 -156 78 -243q98 -106 237 -27q106 61 179 220t98 356q23 195 -12 363.5t-150 283.5q-4 -233 -45 -332q-25 -68 -75 -136.5t-111 -117.5q-47 -35 -95.5 -51.5t-105.5 -9t-111 46.5q-27 20 -49 54t-29 64z M125 842q4 -16 21.5 -41t31.5 -37q109 -80 232 14q53 39 98 101.5t70 124.5q10 31 18 59.5t12 66t5 57t3 72t2 66.5q1 5 5 23q-74 35 -140 30q-104 -8 -198 -96q-92 -84 -138.5 -208t-21.5 -232z" />
<glyph unicode=":" horiz-adv-x="262" d="M94 192.5q0 14.5 9.5 23.5t23.5 9t23.5 -9t9.5 -23.5t-9.5 -23.5t-23.5 -9t-23.5 9t-9.5 23.5zM106 868.5q0 14.5 9.5 23.5t24 9t23.5 -9t9 -23.5t-9 -23.5t-23.5 -9t-24 9t-9.5 23.5z" />
<glyph unicode=";" horiz-adv-x="243" d="M18 -109.5q2 13.5 13 19.5q47 33 59 57q16 25 23 74q0 14 10 23.5t24.5 7.5t22.5 -12.5t8 -22.5q-6 -66 -33 -107q-20 -31 -75 -71q-12 -8 -25.5 -6t-21 13t-5.5 24.5zM94 868.5q0 14.5 9.5 23.5t22.5 9t23.5 -9t10.5 -23.5t-10.5 -23.5t-23.5 -9t-22.5 9t-9.5 23.5z" />
<glyph unicode="&#x3c;" horiz-adv-x="819" d="M55 582q0 8 1 13t3 9l2 8l7 2q4 8 10 15l43 37l129 102q188 141 285 201q12 8 25 5t20.5 -14.5t4 -25t-13.5 -19.5q-104 -63 -282 -202l-127 -99l-35 -30q33 -29 63 -47q59 -37 172 -91q156 -74 320 -139q12 -2 17.5 -14t1 -25.5t-16.5 -18.5t-27 -1q-172 66 -323 137 q-113 55 -180 98q-39 23 -64 45q-31 29 -35 54z" />
<glyph unicode="=" horiz-adv-x="817" d="M83 523.5q-1 13.5 8.5 23.5t21.5 12q301 33 579 6q14 -2 22.5 -12t7.5 -23.5t-11.5 -22.5t-24.5 -7q-262 25 -565 -6q-14 -2 -25.5 7t-12.5 22.5zM93 742.5q1 13.5 11.5 22.5t24.5 7q229 -18 578 45q12 2 23 -6t13 -20.5t-5 -24.5t-21 -14q-356 -63 -594 -45 q-12 2 -21.5 12t-8.5 23.5z" />
<glyph unicode="&#x3e;" horiz-adv-x="759" d="M97.5 964.5q-5.5 12.5 0.5 24.5t18.5 16.5t24.5 0.5q135 -66 310 -172q106 -68 167 -115q39 -31 58 -51q29 -33 31 -60q2 -12 -7 -22l-8 -8q-8 -8 -16 -17q-16 -12 -51 -33q-53 -35 -158 -96q-221 -131 -279 -160q-12 -4 -24 0t-18.5 16.5t-1 25t17.5 20.5q66 31 272 153 l156 95l45 30q-27 33 -57 56q-57 47 -162 110q-170 104 -301 166q-12 8 -17.5 20.5z" />
<glyph unicode="?" horiz-adv-x="878" d="M67.5 1068q-4.5 13 3 24.5t19.5 15.5t39 -10q49 84 128 149.5t165 104.5q113 51 205 34q113 -16 170 -124q94 -172 -101 -383q-27 -29 -153 -150q-88 -82 -115 -127q-63 -106 -41 -328q37 4 55 7q14 2 24.5 -7.5t11.5 -22.5t-8 -23.5t-21 -12.5q-76 -6 -179 -27 q-14 -2 -25.5 6.5t-13.5 20.5t5.5 24.5t19.5 14.5q29 4 68 10q-27 246 47 371q35 53 127 141q125 117 151 150q53 53 80 100t34 102.5t-24 104.5q-43 78 -123 90q-74 10 -167 -33q-80 -35 -152 -96q-70 -61 -113 -133l37 -29q12 -10 13.5 -23.5t-8 -23.5t-21.5 -12t-25 6 l-37 31q-8 8 -11 10t-50 29q-10 6 -14.5 19zM338 69.5q0 14.5 10 23.5t23.5 9t22.5 -9t9 -23.5t-9 -23.5t-22.5 -9t-23.5 9t-10 23.5z" />
<glyph unicode="@" horiz-adv-x="1583" d="M84 382.5q-39 147.5 16 344.5q49 150 170 307q119 158 267 250q170 109 327 96q184 -14 318 -186q43 -53 72.5 -129t39.5 -145q14 -104 -24 -234q-49 -160 -154 -184q-61 -14 -116.5 20.5t-96.5 122.5l-16 -33q-59 -123 -154 -184q-37 -27 -72.5 -37t-79.5 0t-83 45 q-115 106 -70 289q41 152 162 270q131 127 239 97q127 -33 127 -273q0 -10 -10 -24q0 -8 2 -27q2 -57 23 -113q14 -43 54 -71.5t77 -20.5q68 16 104 144q35 113 23 204q-10 61 -37 129t-62 113q-117 152 -272 162q-133 10 -287 -84q-137 -88 -250.5 -235.5t-156.5 -288.5 q-37 -115 -30 -214.5t44 -175.5q37 -74 107 -131q98 -84 245 -120q143 -33 310 -7q248 41 544 420q-18 35 -28 56q-8 12 -4 24t16 18.5t25.5 2t19.5 -16.5q12 -23 25.5 -44t37 -54t33.5 -45q6 -10 4 -23.5t-12 -21.5t-24.5 -6t-22.5 14l-29 43q-309 -389 -575 -432 q-176 -29 -337 8t-273 133q-117 100 -156 247.5zM494 709q-37 -145 47 -224q70 -63 155 -4q80 55 129 156q18 39 33 96v8l-2 7v16q-2 41 35 61q-4 184 -80 205q-72 18 -176 -82q-106 -106 -141 -239z" />
<glyph unicode="A" horiz-adv-x="1552" d="M96 30.5q0 14.5 9.5 23.5t23.5 9h113l123 338l-148 -24v-19q0 -14 -9 -23t-23.5 -9t-23.5 9t-9 23q0 51 -5 129q0 14 9.5 23.5t23 10.5t22.5 -8t11 -24l4 -47l172 29l195 600l63 184q23 76 41 119q10 27 17 41l8 12l6 11q10 8 25 8h6q14 -2 26 -19q4 -6 10 -16 q8 -18 17 -47q14 -47 35 -129q10 -43 20 -91t18.5 -81t8.5 -37q43 -178 74.5 -290.5t87 -265.5t129 -276.5t174.5 -232.5l84 59q12 8 24 6t20 -14q7 -10 7 -19q-1 -3 -1 -5q-2 -12 -14 -21q-29 -20 -196 -149q-8 -6 -19 -6h-5q-14 2 -22.5 12t-6.5 24.5t12 22.5l65 49 q-195 209 -319 547q-219 -2 -541 -55q-63 -178 -129 -349h76q14 0 23.5 -9t9.5 -23.5t-9.5 -23.5t-23.5 -9h-121h-2h-2h-131q-14 0 -23.5 9t-9.5 23.5zM461 483q287 43 493 49q-61 182 -131 476q-2 6 -9 39.5t-19 82.5l-21 89q-8 39 -31 118l-36 -102q-53 -156 -62 -182z " />
<glyph unicode="B" horiz-adv-x="1120" d="M42 104q0 12 7 21q57 70 84 151q6 12 17.5 18.5t24.5 2.5t19.5 -16.5t2.5 -24.5q-14 -39 -39 -84q68 -49 159 -74q11 53 11 92v28q0 30 -1 66q-1 56 -1 81q0 477 -68 880q-47 -23 -61 -37q-10 -10 -23.5 -8t-23 12.5t-8.5 23.5t12 21q29 25 92 58l-15 74q-6 14 3 24 q8 9 21 13l8 2q9 0 17 -6q12 -8 13 -21l12 -58q90 35 158 52q63 13 113 13q38 0 69 -7q98 -18 129 -98q13 -31 13 -64q0 -78 -72 -166q-41 -47 -156 -139q43 5 82 5q217 0 342 -144q84 -98 84 -255v-14q-4 -147 -111.5 -266t-265.5 -182q-122 -52 -264 -52h-26 q-156 5 -275 89l-25 -31q-8 -10 -21 -12t-25 6q-12 9 -12 26zM319 1278q33 -190 52 -414l137 111q115 92 156 141q58 68 58 125q0 19 -7 37q-20 47 -84 59q-24 5 -53 5q-44 0 -101 -11q-72 -16 -158 -53zM377 795q14 -213 14 -430q0 -18 1 -76q0 -29 0.5 -54t-0.5 -46 q-1 -42 -7 -99h11q141 0 270 51q143 55 237 160q96 104 98 229v8q0 132 -67 212q-108 127 -265 127q-46 0 -96 -11q-70 -14 -141 -51q-20 -8 -41 -20h-14z" />
<glyph unicode="C" d="M58 370q-11 72 -11 150q0 186 64 408q37 127 114.5 263t157.5 202q47 37 92 45q9 1 18 1q44 0 78 -32q76 -70 99 -322q47 2 73 2q14 0 23.5 -9t9.5 -23.5t-9 -23.5t-24 -9q-4 0 -194 -10q-12 -2 -21.5 8t-11.5 23.5t7 22.5t24 11q16 0 55 4q-16 225 -76 279 q-16 16 -39 14q-29 -4 -61 -33q-72 -59 -145.5 -186t-108.5 -248q-59 -197 -59 -372t43 -287.5t116 -165.5q51 -36 106 -36q66 0 138 50q158 113 297 434q-47 31 -74 52q-12 10 -13 23t8 23.5t22.5 12.5t23.5 -6q55 -47 189 -123q12 -6 15 -20q1 -4 1 -7q0 -9 -5 -18 q-7 -12 -19.5 -15t-24.5 3l-68 41q-145 -334 -315 -451q-82 -59 -166 -62h-9q-79 0 -145 48q-137 95 -175 339z" />
<glyph unicode="D" horiz-adv-x="1042" d="M63 1214.5q0 14.5 11 22.5q51 53 76.5 95t60.5 124q1 12 15 18q7 3 15 3q6 -1 11 -3q12 -4 17 -17t1 -25l-20 -56q51 16 92 31q83 28 168 28q15 0 31 -1q100 -6 186 -40t156 -106q70 -76 106 -182q37 -100 37 -200q0 -26 -2 -51q-12 -126 -59 -233.5t-131 -207.5 q-109 -133 -262.5 -238t-329.5 -168q25 -41 37 -63q4 -12 -0.5 -25.5t-16.5 -18.5q-7 -3 -14 -3q-6 0 -12 2q-14 4 -19 16q-12 31 -30.5 57.5t-51.5 66.5t-45 58q-8 8 -6 22.5t12 23t24.5 6t22.5 -14.5l31 -31q1 296 1 521q0 451 -3 622l-53 -55q-8 -10 -22.5 -10t-24 9 t-9.5 23.5zM238 1266q3 -143 3 -624q0 -240 -1 -564q168 63 305 158q137 98 237 219q179 216 179 438q0 95 -33 192q-63 178 -223 246q-90 38 -188 38q-76 0 -157 -23q-66 -20 -86 -35q-18 -12 -36 -45z" />
<glyph unicode="E" horiz-adv-x="903" d="M80 662q16 434 55 671q-4 2 -4 -2q-2 16 6 26.5t23 12.5q51 6 198 35q131 25 213 33l-6 43q-2 14 6.5 24.5t22.5 12.5h5q11 0 19 -6q10 -8 13 -23l16 -133q2 -14 -6 -24.5t-22.5 -12.5t-24.5 6t-12 21v28q-80 -8 -211 -33q-123 -25 -174 -32q-37 -254 -52 -672 q70 12 122 26.5t124 37t125 36.5q-10 18 -10 29v20q0 14 9 24.5t22.5 10.5t23.5 -9t10 -21v-23q0 -12 1 -16t1 -7v-4v-2q0 -4 5 -18l14 -45q4 -14 -2 -25.5t-19.5 -15.5t-24.5 2t-16 16v21q-43 -10 -125.5 -36t-138 -41t-123.5 -26q-1 -62 -2 -116q0 -109 6 -187 q4 -86 17 -137q10 -49 22 -57q28 -26 96 -26h6q72 1 173 26q152 35 297 104l-10 33q-4 12 2 24.5t18 16.5t24.5 -2t16.5 -19q23 -68 49 -125q2 -6 2 -12t-2 -13q-4 -13 -16.5 -18.5t-25.5 -1t-19 16.5l-17 39q-152 -70 -305 -107q-105 -26 -179 -26h-5h-9q-93 0 -141 41 q-27 23 -41 94q-12 55 -18 145q-6 86 -6 199q0 91 4 199z" />
<glyph unicode="F" horiz-adv-x="679" d="M22 -10q-1 4 -2 9q0 9 6 17q8 12 21 13l59 14q0 143 10 599q6 279 5 480q0 126 -2 221q0 27 28 35q4 2 9 2q66 6 198 29q131 23 213 29l-8 43q0 14 8 25q7 10 21 12h6q12 0 20 -6q12 -8 11 -23l16 -133v-5q0 -11 -6 -19q-8 -10 -21.5 -12.5t-24.5 5.5t-14 21v28 q-70 -6 -208 -31q-109 -18 -181 -26q1 -84 1 -187q0 -206 -5 -487q66 14 116 27.5t116 34.5l106 34v35q0 14 9.5 24.5t22.5 10.5t23.5 -9t10.5 -22v-22q0 -12 1 -16.5t1 -6.5v-4v-2q0 -4 6 -18l14 -45q4 -14 -3 -25.5t-20.5 -16t-24.5 2t-15 18.5l-8 29q-35 -6 -113 -31 t-128 -38t-114 -25q-10 -344 -10 -525q55 6 90 6q14 0 23.5 -9t9.5 -23.5t-9.5 -23.5t-23.5 -9q-74 0 -203 -27q-4 -1 -9 -1q-7 0 -14 4q-10 6 -14 20z" />
<glyph unicode="G" horiz-adv-x="942" d="M20 586q-2 30 -2 61q0 125 27 248q31 154 92 266q111 201 244 256q50 21 103 21q108 0 229 -88q29 35 49 53q8 10 22.5 10t23.5 -9t9 -23.5t-10 -22.5q-43 -45 -111 -150q-6 -10 -19 -13t-24.5 4t-14.5 20.5t5 23.5l33 53q-104 76 -192 76q-41 0 -78 -16 q-113 -47 -211 -228q-57 -102 -89 -247q-23 -115 -23 -234q0 -28 1 -57q8 -158 58.5 -286t144.5 -202q79 -65 158 -65q44 0 87 20q109 47 197 197q80 139 100 285q5 37 5 66q0 77 -35 100q-14 12 -54 10q-35 -2 -90 -19q-37 -10 -96 -34l-76 -29l15 -68q2 -14 -6.5 -26.5 t-20.5 -14.5t-24.5 6.5t-14.5 20.5q-25 127 -49 178q-4 12 0 25.5t16.5 18.5t25.5 1t19 -16q10 -25 23 -60l70 27q57 20 100 33q59 18 106 22q8 1 16 1q48 0 77 -21q62 -44 62 -160q0 -33 -5 -72q-20 -156 -109 -307q-98 -168 -225 -225q-58 -25 -115 -25q-100 0 -198 78 q-106 88 -162.5 229.5t-63.5 307.5z" />
<glyph unicode="H" horiz-adv-x="1146" d="M18 713q-2 12 7.5 22t22.5 12.5t23.5 -7t12.5 -23.5q6 -61 6 -84q100 20 199 35q12 211 11.5 387.5t-11.5 318.5l-76 4q-12 2 -21.5 12.5t-8.5 23.5t11.5 22.5t24.5 7.5q46 -4 92 -4q74 0 150 10q12 2 23.5 -6t12.5 -22.5t-7.5 -25t-20.5 -12.5q-49 -6 -115 -8 q12 -142 11.5 -317t-11.5 -381q238 27 512 29q-16 229 -16 669q-26 -1 -49 -1t-43 1q-14 0 -22.5 10.5t-8.5 23.5t10.5 22.5t24.5 9.5q23 -1 46 -1q90 0 165 13h5q12 0 20 -6q10 -8 12 -21.5t-5.5 -24.5t-21.5 -13q-27 -4 -68 -9q0 -262 4.5 -402t20.5 -330.5t53 -360.5 t107 -373l65 29q12 4 25 -1q12 -6 17 -18q2 -6 3 -12q0 -8 -3 -14q-5 -14 -17 -15q-115 -47 -182 -90q-7 -6 -16 -6q-4 0 -8 1q-14 3 -22 14.5t-3.5 24.5t14.5 19q27 18 67 39q-127 373 -168 756q-283 -2 -520 -31q-29 -530 -33 -608l48 -6q14 -2 21 -13.5t5 -24.5 t-12 -21.5t-25 -6.5q-102 17 -158 17h-16q-14 -2 -24.5 7t-11.5 22.5t8.5 23.5t21.5 12q16 1 35 1t43 -1q6 106 31 590q-115 -16 -205 -37q-10 -2 -14 -4q-12 -2 -23.5 7.5t-11.5 21.5z" />
<glyph unicode="I" horiz-adv-x="968" d="M43 1413q0 14 9 24.5t22.5 10.5t24 -9t10.5 -22l2 -57q195 2 661 51l-6 55q-2 12 7 22.5t23 12.5h4q11 0 19 -7q10 -9 12 -24q6 -70 13 -118q2 -14 -6.5 -24.5t-22.5 -12.5q-25 -2 -39 31q-250 -27 -311 -33q16 -217 39.5 -616.5t40.5 -612.5q16 0 325 33l-6 49 q-2 12 7.5 22.5t22.5 12.5t23.5 -7.5t12.5 -23.5q8 -86 12 -117v-5q0 -12 -6 -20q-8 -10 -23 -12q-27 -2 -41 35q-485 -51 -673 -53q-6 -39 -31 -41h-5q-11 0 -19 6q-10 8 -13 23q-6 51 -16 114q-2 14 6 25.5t21.5 13.5t24.5 -6t13 -20l6 -50q133 2 293 15 q-16 217 -39.5 616.5t-40.5 614.5q-154 -12 -286 -15q-6 -37 -31 -39q-14 0 -24.5 9.5t-10.5 21.5q-2 57 -4 127z" />
<glyph unicode="J" horiz-adv-x="1058" d="M62 297q0 88 61 184q49 76 211 174l-37 62q-6 12 -3 25.5t15.5 19.5t25.5 3t19 -15q27 -47 123 -168q8 -10 6 -24.5t-12 -23t-24.5 -6.5t-22.5 13l-51 67l-17 -16q-137 -82 -180 -148q-51 -78 -51 -151q0 -67 43 -129q39 -57 110.5 -94t155.5 -41q13 -1 25 -1 q187 0 291 140q100 131 118 371q4 55 4 111q0 160 -34 321q-45 223 -131 362l-289 -71l12 -43q6 -14 1 -26.5t-18.5 -17t-25.5 1t-16 17.5q-25 61 -43 121q-4 14 2 26.5t18 16.5t24.5 -2t16.5 -15v-22q39 12 107 29l92 22q27 6 84 23l92 24q33 8 81 22.5t90 30t101 37.5 q-16 27 -13 39.5t15 19.5q8 5 18 5h5q12 -2 20 -17l72 -102q8 -8 8 -19v-5q-2 -13 -13 -21t-24.5 -6t-21.5 14l-27 37q-133 -51 -303 -100q88 -162 133 -386q33 -164 33 -320q0 -55 -4 -109q-20 -260 -129 -408q-128 -167 -349 -167q-13 0 -26 1q-98 4 -182 47 q-84 45 -133 119q-53 76 -53 168z" />
<glyph unicode="K" horiz-adv-x="1284" d="M31 1361q-1 5 -1 9q0 8 4 16q7 12 19 15q16 4 35 14l29 10q14 6 35 19l26 16l35 19q27 14 35 20q7 4 15 4q5 0 9 -1q14 -3 20.5 -14t2.5 -25.5t-16 -20.5l-46 -27q45 -326 72 -710q78 129 164 239q162 209 344 383l-29 41q-8 10 -6 23.5t12.5 21.5t24 6t21.5 -14 q18 -23 108 -158q6 -12 4 -24.5t-13 -20.5t-24.5 -6t-21.5 14l-39 62q-182 -180 -330 -369q-104 -135 -158 -231q-42 -81 -42 -128q0 -15 4 -26q10 -39 69 -80q51 -41 137 -78q147 -70 275 -92q78 -15 164 -15q102 0 215 21l14 58q4 12 15.5 18t24.5 2q12 -4 20 -15 q5 -7 5 -16q0 -5 -1 -10q-33 -111 -41 -174q0 -14 -11.5 -22.5t-25 -6t-21.5 12.5t-8 24q2 18 12 60q-109 -17 -204 -17q-90 0 -168 15q-135 27 -291 96q-92 43 -152 88l-33 21q6 -197 7 -383q31 0 106 6q14 2 24.5 -7.5t11.5 -22.5t-8 -23.5t-22 -12.5q-152 -12 -209 -22 h-5q-9 0 -18 6q-11 8 -13.5 20.5t5 24.5t21.5 14l41 6q0 717 -88 1366q-61 -31 -100 -41q-14 -4 -25.5 2.5t-15.5 19.5z" />
<glyph unicode="L" horiz-adv-x="884" d="M35 1416.5q0 13.5 10.5 22.5t24.5 9q59 -2 178 -2q14 0 23.5 -9.5t9.5 -23.5t-9.5 -23.5t-23.5 -9.5h-19h-34q-63 -348 -64 -944q0 -121 6 -200q6 -66 17 -109q12 -43 22 -55q30 -26 98 -26h6q72 1 173 26q158 37 303 108l-19 58q-4 12 2 24t18.5 16.5t25 -2t16.5 -18.5 q23 -68 49 -125q2 -6 2 -12.5t-2 -12.5q-4 -14 -16.5 -19t-24.5 -1t-25 31q-154 -72 -315 -111q-105 -26 -179 -26h-5h-9q-93 0 -141 41q-27 25 -43 90q-10 47 -18 118q-6 80 -6 205q0 584 63 942q-43 4 -59.5 4t-25.5 10.5t-9 24z" />
<glyph unicode="M" horiz-adv-x="1433" d="M25 -34v6q0 10 5 19q7 11 21 13l70 10v19q0 227 10 675.5t10 684.5h-67q-14 0 -23.5 9t-9.5 23.5t9.5 23.5t23.5 9q106 0 188 8h5q11 0 19 -7q10 -9 11.5 -22.5t-6.5 -23.5t-23 -12l-61 -6q0 -172 -6 -437l59 101q61 88 127 115q25 10 50 10q58 0 114 -54 q78 -74 137 -299q51 283 170 439q76 102 164 141q43 18 83 17q72 0 136 -56q86 -76 102 -293q4 -55 4 -121q0 -133 -16 -315q-12 -115 -55 -455q-29 -209 -35 -317q51 6 86 8q14 0 24.5 -9t10.5 -22.5t-9.5 -23.5t-21.5 -10q-96 -2 -203 -45q-6 -2 -12 -2q-7 0 -14 3 q-12 5 -17.5 18t0 25.5t17.5 14.5q35 14 74 27q4 100 34 342q43 338 56 452q16 175 16 304q0 67 -4 122q-14 191 -82 249q-44 38 -93 37q-27 0 -54 -11q-72 -29 -140 -117q-131 -180 -159 -457q-6 -47 -12.5 -147.5t-15.5 -185.5t-28 -160q0 -6 -1 -7.5t-3 -3.5 q-2 -8 -10 -12q-10 -8 -25 -6q-12 2 -20 10q-4 8 -6 15v8v28q0 10 2 35t2 33q0 16 6 76q2 47 2 76q-2 176 -23 292q-33 182 -110 254q-35 34 -71 34l-27 -5q-47 -16 -95 -90q-80 -119 -116 -275q0 -2 -2 -6q-10 -473 -11 -716q39 4 62 4q12 0 22.5 -9.5t10.5 -23.5 t-10.5 -23.5t-22.5 -9.5q-53 0 -185 -22q-14 -2 -25 5.5t-13 21.5z" />
<glyph unicode="N" horiz-adv-x="966" d="M16 1449q10 9 23 9q13 -1 27 -1q73 0 174 18h5q11 -1 19 -7q10 -8 12.5 -21t-5 -24.5t-19.5 -13.5l-47 -6q0 -152 -4 -395q68 150 108 215q155 255 326 255q23 0 47 -5q109 -23 164 -142q23 -51 37 -127q14 -72 18 -110l8 -121q4 -125 4 -191.5t-2 -204t-2 -208.5 q0 -346 64 -551q55 18 108 35q12 4 24.5 -2.5t16.5 -18.5q2 -5 2 -10q0 -6 -4 -14q-6 -12 -18 -17q-158 -49 -264 -104q-7 -4 -15 -4q-5 0 -11 2q-14 4 -20 16t-1.5 24.5t16.5 18.5q45 25 104 47q-67 214 -67 568v10q0 72 2 206l2 203v36q0 60 -4 151q-4 84 -8 122 q-4 41 -16.5 104.5t-35.5 111.5q-41 90 -116 104q-17 4 -35 4q-133 0 -271 -223q-57 -96 -102 -210t-63 -202q-12 -506 -13 -739h41q14 0 23.5 -9.5t9.5 -23.5t-9 -23.5t-24 -9.5q-66 0 -143 -4q-12 -2 -21.5 8.5t-11.5 23.5t7.5 22.5t25.5 11.5l37 4q0 233 12 729l-4 10 l4 4q8 381 8 613q-30 -1 -56.5 -1t-47.5 1q-11 2 -21 11q-9 8 -9 20q0 15 11 25z" />
<glyph unicode="O" horiz-adv-x="948" d="M72 768q18 274 121 459q121 215 307 221h6h6q8 0 14 -4q102 -63 179 -160.5t119 -207t62 -234.5q15 -96 15 -188q0 -28 -2 -56q-4 -117 -29 -229q-18 -88 -59 -164t-104.5 -139.5t-145.5 -83.5q-32 -8 -67 -7q-56 0 -119 19q-168 53 -252 295q-55 164 -55 366q0 55 4 113 zM137 764q-3 -51 -3 -100q0 -198 52 -357q72 -207 207 -252q48 -15 93 -15q96 0 172 68q112 100 151 273q23 106 27 219q1 21 1 42q-1 92 -15 186q-18 114 -56.5 215.5t-105 190.5t-160.5 148q-152 -8 -250 -186q-94 -172 -113 -432z" />
<glyph unicode="P" horiz-adv-x="841" d="M8 1278q0 14 10 22q66 68 212.5 117t285.5 51h10q155 0 238 -63q76 -60 76 -162q0 -38 -11 -82q-35 -160 -266 -366q-150 -133 -319 -238q2 -344 6 -539l94 -4q14 -2 23.5 -12t7.5 -24q-3 -13 -13 -22q-9 -7 -18 -7h-4q-41 3 -97.5 3t-127.5 -3q-14 0 -24.5 9t-10.5 22.5 t9 23.5t22 10q33 2 73 2q-4 190 -6 506q-25 8 -31 19.5t-1.5 25t16.5 19.5l14 10q-4 457 -10 725q-74 -37 -103 -66q-8 -10 -22 -10t-23.5 9.5t-9.5 23.5zM231 1331q6 -248 11 -698q162 106 276 211q215 190 250 330q8 34 8 63q0 75 -51 114q-68 52 -197 52h-10 q-135 -2 -287 -53v-19z" />
<glyph unicode="Q" horiz-adv-x="1116" d="M72 768q18 274 121 459q121 215 307 221h6h6q8 0 14 -4q102 -63 179 -160.5t119 -207t62 -234.5q14 -96 14 -188q0 -28 -1 -56q-4 -119 -29 -229q-27 -121 -100 -230q141 -121 295 -141l22 65q2 10 15.5 16.5t26 2.5t18.5 -16q4 -8 4 -16q0 -5 -2 -11q-51 -154 -62 -191 q-2 -14 -13 -21q-8 -5 -17 -5q-3 0 -7 1q-14 3 -21 14t-3 24q6 27 18 76q-170 27 -313 151q-114 -112 -246 -112q-53 0 -110 18q-168 53 -252 295q-55 164 -55 366q0 55 4 113zM137 764q-3 -51 -3 -100q0 -197 52 -357q72 -207 207 -252q44 -14 86 -14q107 0 203 90 q-51 53 -121 135q-31 -23 -53 -35q-12 -6 -25.5 -2t-19.5 15.5t-2 25t14 19.5q78 43 150 104q12 10 25.5 8t22.5 -12t7 -23.5t-10 -21.5l-56 -43l109 -119q61 98 86 199q23 106 27 219q1 21 1 42q0 92 -15 186q-17 114 -56 215.5t-105.5 190.5t-160.5 148q-152 -8 -250 -186 q-94 -172 -113 -432z" />
<glyph unicode="R" horiz-adv-x="1204" d="M27 1278q0 14 10 22q66 68 212 117t286 51h10q155 0 237 -63q76 -60 77 -163q0 -38 -11 -81q-35 -160 -266 -366q-127 -113 -279 -213q131 -219 349 -362.5t460 -153.5v34q0 14 9 24.5t22.5 10.5t23 -9.5t11.5 -23.5l12 -144q0 -10 -6 -18q-8 -12 -22 -14h-4q-10 0 -20 8 q-12 10 -14 21l-6 45q-244 6 -465 141t-391 381q2 -319 6 -504l94 -4q14 -2 23.5 -12t7.5 -23.5t-12 -22.5t-23 -7q-41 3 -97.5 3t-127.5 -3q-14 0 -24.5 9t-10.5 22.5t9.5 23.5t21.5 10q33 2 74 2q-4 190 -6 506q-25 8 -31 19.5t-2 25t16 19.5l15 10q-4 457 -11 725 q-74 -37 -102 -66q-8 -10 -22.5 -10t-23.5 9.5t-9 23.5zM250 1331q6 -248 10 -698q162 106 277 211q215 190 249 330q8 34 8 63q0 75 -50 114q-67 52 -197 52h-10q-135 -2 -287 -53v-19z" />
<glyph unicode="S" horiz-adv-x="907" d="M45 216q4 13 16 20q27 14 85.5 42.5t86.5 45.5q12 6 25.5 2t21 -15.5t3.5 -25t-17 -19.5l-55 -30q25 -98 106.5 -148.5t186.5 -50.5h9q103 0 179 45q78 47 94 127q4 18 4 38q0 86 -73 189q-53 70 -224 244t-231 268q-72 119 -72 232q0 40 9 80q29 119 133 159 q42 15 88 15q55 0 115 -21q100 -39 173 -125t85 -223l55 12q12 2 24 -6q11 -7 13 -21v-6q-1 -11 -7 -19q-8 -11 -20 -13q-70 -10 -180 -51q-12 -4 -24.5 1t-17.5 18t0 25.5t19 16.5l74 25q-6 117 -67 195q-62 78 -150 110q-48 18 -90 17q-36 -1 -70 -13q-72 -28 -90 -113 q-7 -31 -7 -63q0 -93 62 -197q55 -90 222 -256q176 -178 231 -254q86 -122 87 -229q0 -24 -5 -47q-23 -111 -124 -169q-98 -57 -216 -57h-8q-119 0 -216.5 56.5t-137.5 179.5l-60 -29q-10 -6 -22.5 -2t-19.5 16q-4 7 -4 15q0 4 1 9z" />
<glyph unicode="T" horiz-adv-x="954" d="M8 1343q-2 4 -2 9q0 6 4 14q6 14 18.5 18.5t25 -2t18.5 -18.5q10 -29 20 -70q393 121 856 142q-6 33 -6 47t9.5 24.5t22.5 10.5t23.5 -9.5t10.5 -21.5q2 -82 28 -152q2 -5 2 -10q0 -7 -4 -15q-6 -12 -19.5 -16t-25.5 2.5t-16 18.5q-8 23 -15 57q-215 -10 -421 -41 q10 -227 14 -642t14 -632q59 8 115 13q14 2 24.5 -7.5t11.5 -22.5t-8.5 -23.5t-21.5 -12.5q-160 -12 -264 -49q-5 -2 -10 -2q-6 0 -14 4q-12 6 -17.5 18.5t0.5 24.5t18 18q43 12 99 27v14q-8 205 -12.5 619t-12.5 643q-197 -37 -367 -90q2 -31 3 -48.5t-8 -27.5t-23.5 -10 t-24.5 9t-10 22q-2 78 -35 167z" />
<glyph unicode="U" d="M36 1269q0 12 8 20q10 9 24 11q135 6 200 31q12 4 24.5 -2t17.5 -18.5t-1 -24.5t-18 -18q-33 -10 -86 -21q-18 -163 -17.5 -330t17.5 -337q23 -209 74 -347q57 -152 145 -190q41 -19 79 -19q75 0 138 74q61 74 125 238q76 203 119 528q21 163 21 293q0 123 -19 215 q-43 0 -80 2q-12 2 -21.5 12.5t-8.5 23.5t11.5 22.5t24.5 7.5q20 -2 41 -2q71 0 141 22q5 2 10 2q7 0 15 -4q12 -6 16 -18q2 -5 2 -10q0 -7 -4 -15q-6 -12 -20 -16q-23 -8 -62 -17q19 -99 19 -226q0 -134 -21 -300q-43 -326 -125 -541q-68 -180 -135 -260q-86 -98 -187 -98 q-51 0 -106 25q-113 53 -180 229q-53 143 -76 362q-19 168 -19 338q0 161 17 326q-35 0 -69 -2q-12 -2 -22 8q-12 11 -12 26z" />
<glyph unicode="V" horiz-adv-x="1155" d="M25 1380q78 61 137 103q10 8 24.5 6t21.5 -13.5t5 -25.5t-12 -20l-60 -41q20 -10 21 -9q156 -301 301 -903l80 -338l20 62q51 180 66 221q57 166 148 355.5t165 316.5l199 342l-56 47q-10 8 -11 21.5t8.5 23.5t22.5 12h4q10 0 19 -8l148 -127q10 -7 11 -21v-3 q0 -12 -7 -21q-8 -10 -21.5 -12t-23.5 8l-45 35l-197 -338q-72 -127 -160 -309.5t-141 -342.5q-8 -23 -65 -219l-33 -110l-12 -35l-4 -12q0 -2 -3 -5q0 -4 0 -2q0 -2 -4 -4q-6 -10 -14 -12q-6 -2 -12 -2q-10 0 -21 6q-6 4 -10 12q-6 8 -14 23l-17 55l-14 78l-68 287 q-143 588 -301 895l-34 -29q-12 -8 -26 -6t-22 12q-7 8 -7 20q0 18 14 27z" />
<glyph unicode="W" horiz-adv-x="1427" d="M10 1326q4 14 15 20q131 86 165 112q10 8 24.5 6t22 -13t5.5 -24.5t-13 -19.5l-51 -39q143 -575 187 -903q8 -72 24 -266q80 264 180 536l70 183l14 36q2 8 3 10l1 3q2 4 5 6q4 6 10 8q12 8 26 2q4 -2 8 -5l5 -3l2 -4q2 -2 3 -4l3 -6q4 -6 8 -17l23 -49q29 -68 34 -84 q35 -104 105 -254q117 -258 119 -260l43 -107q14 231 26 314q70 442 252 940l-45 8q-12 2 -19.5 14.5t-4.5 24.5q2 13 13 21q9 7 20 6h5q104 -20 201 -29q11 -3 21 -13q9 -10 9 -21q1 -15 -11 -25q-10 -10 -25 -7l-98 11q-182 -496 -252 -942q-14 -84 -25 -291 q-6 -92 -8 -121v-23l76 19q12 4 23.5 -3t15.5 -20.5t-4.5 -25t-20.5 -13.5l-102 -28q-66 -18 -92 -25q-12 -4 -24.5 2t-15.5 19.5t4 25.5t19 15l33 10q0 14 -2 35v8q-31 98 -74 196q-2 4 -117 256q-78 168 -108 260q-2 8 -31 80l-57 -153q-150 -408 -219 -670v-4v-4v-8v-9 q-2 -6 -2 -24l34 -10q12 -6 19.5 -18.5t2.5 -25.5q-6 -12 -18 -18q-8 -4 -14 -4q-5 0 -10 2q-127 45 -172 53q-14 2 -21.5 13.5t-5.5 25t12.5 21.5t24.5 6q23 -4 68 -18v24l-8 113q-18 252 -25 297q-43 326 -176 874l-64 -39q-10 -8 -24.5 -5t-21.5 15q-5 8 -5 16z" />
<glyph unicode="X" horiz-adv-x="1167" d="M16 52q-1 3 0 6q0 10 6 18q8 10 21.5 12t26.5 -6l57 -45l410 629q-137 299 -287 702q-49 -10 -72 -14q-14 -2 -25.5 6t-13.5 21.5t5.5 24.5t21.5 13q31 4 90 17l92 18q12 2 23.5 -6t13.5 -21.5t-5 -24.5t-22 -13l-43 -9q131 -358 265 -647q219 358 368 664h-35 q-10 2 -18 13t-6 24.5t13 21.5q9 6 20 6h6q66 -10 139 -18q12 -2 20.5 -12.5t7.5 -24.5t-12.5 -22.5t-25.5 -6.5l-41 6q-160 -330 -406 -720q203 -422 404 -682q0 -12 22 -13l51 29q12 6 25.5 2t21.5 -16q5 -8 4 -15q0 -4 -1 -9q-4 -13 -17 -19q-33 -20 -176 -91 q-7 -3 -14 -3q-6 -1 -12 1q-14 4 -19.5 16.5t-1.5 25t16 18.5l54 26q-203 262 -396 662l-383 -582l-14 -14l27 -25q10 -8 10 -22t-10.5 -23.5t-23.5 -9.5t-23 10q-16 16 -35 30.5t-49.5 36t-40.5 32.5q-11 9 -13 23z" />
<glyph unicode="Y" horiz-adv-x="942" d="M83 1428q3 14 15 21q8 4 16 4q5 0 9 -1q162 -39 252 -49q14 -2 22.5 -12.5t7 -24.5t-12.5 -22.5t-25 -6.5q-45 6 -109 17q-6 -31 -13 -95.5t-11.5 -107.5t-6.5 -111q-3 -44 -3 -83q0 -19 1 -37q4 -143 42 -217q37 -72 116 -72h4q94 2 193 182q78 141 114 295q4 23 8 55 q8 57 9 64l20 90l-86 24q-12 4 -19.5 15.5t-3 25t15.5 19.5t26 2q158 -45 245 -66q14 -2 21 -13q5 -7 5 -15q0 -5 -1 -9q-4 -14 -14.5 -21t-24.5 -3q-33 6 -88 18v-127q-2 -154 -4 -196q-1 -13 -1 -28q0 -84 19 -251q29 -244 35 -344q3 -36 3 -72q0 -48 -5 -96 q-6 -88 -22.5 -161.5t-58.5 -136t-105 -99.5q-84 -42 -171 -42h-11q-93 3 -179 38q-186 80 -223 221q-9 34 -9 67q0 90 64 179q47 66 118 108.5t153 53.5q13 1 26 1q71 0 148 -47l12 37q4 14 15.5 20.5t24.5 2.5t20.5 -15.5t2.5 -25.5q-41 -139 -55 -197q-4 -12 -15 -19 t-24.5 -4t-20.5 14t-3 26q8 39 24 92q-66 49 -137 49q-31 0 -62 -9q-106 -30 -174 -125q-49 -69 -49 -140q0 -26 7 -52q29 -111 182 -176q78 -33 156 -34h4q75 0 141 34q160 90 160 425q0 38 -2 79q-6 82 -35 342q-18 160 -19 324q-63 -162 -100 -228q-117 -213 -248 -217 h-8q-117 0 -172 113q-43 84 -49 237q-1 24 -1 49q0 38 2 81q3 71 8 121.5t12 111.5t12 90l-87 23q-12 2 -19 13q-5 8 -5 17q0 3 1 7z" />
<glyph unicode="Z" horiz-adv-x="1171" d="M8 53q0 4 2 10l2 5l2 2v4l2 2l11 20l36 62l97 164q94 160 225 360q-131 -10 -215 -29q-14 -2 -26.5 6.5t-14.5 20.5t6 24.5t21 14.5q121 25 272 33l190 288q8 12 152 226l68 100q-100 -2 -314.5 -9t-345.5 -7q-10 -39 -18 -64q-4 -12 -16.5 -18t-25 -2t-18.5 17t-2 24 q25 68 27 180q0 12 10 21.5t23.5 9.5t22.5 -10.5t9 -24.5q0 -33 -4 -68q135 0 347 7.5t301 9.5h2q4 0 11 2t15 4q9 2 17 2q30 0 45 -25q2 -4 3 -12t1 -10l-2 -7q0 -2 -2 -4l-6 -14q-8 -12 -23 -37l-72 -102l-151 -225l-162 -248q141 0 272 -6q14 -2 23.5 -11.5t8.5 -23 t-10 -22.5t-24 -9q-113 5 -215 5q-51 0 -98 -1q-147 -225 -250 -399l-115 -197q57 25 68 27q39 8 97 8h24q76 -4 124 -10t120.5 -16.5t111.5 -14.5q79 -11 164 -11q24 0 48 1q110 4 204 43q-8 41 -14 76q-4 14 3 24t20 13.5t24.5 -4t13.5 -21.5q25 -106 47 -174q2 -6 2 -11 q0 -8 -4 -16q-7 -12 -19 -16q-5 -2 -9 -2q-7 0 -15 4q-12 6 -16 16l-15 49q-109 -43 -229 -47q-27 -1 -52 -1q-88 0 -157 11q-51 4 -123 17l-112 16q-43 5 -114 9q-15 1 -29 1q-51 0 -85 -10q-6 0 -61 -26q-28 -14 -52.5 -13.5t-43.5 13.5q-14 8 -15 26z" />
<glyph unicode="[" horiz-adv-x="409" d="M45 1384q2 27 6 41q4 25 17 37q14 16 51 25q23 6 59 8q20 2 53 4t41 2q14 2 24.5 -7t12.5 -22.5t-7 -23.5t-21 -12q-6 0 -42 -2t-57 -4q-31 -2 -49 -7q-4 0 -20 -8q0 -16 -2 -31q-2 -37 2 -96q0 -29 4 -104q4 -55 4 -72q-2 -143 4 -415.5t4 -397.5q0 -12 -2 -35.5 t-4 -58.5q-2 -31 -4 -60q-4 -53 -4 -84q2 -35 4 -47q12 -23 71 -24q23 0 62 4q43 4 55 4q14 0 23.5 -9t9.5 -23.5t-9 -24t-24 -9.5q-8 0 -49 -4q-43 -4 -70 -2q-102 0 -129 64q-8 23 -10 69q0 35 4 88q4 43 4 62q2 31 4 54.5t2 35.5q2 127 -4 399.5t-4 413.5q0 14 -2 68 q-6 76 -6 104q-4 66 -2 100z" />
<glyph unicode="\" horiz-adv-x="915" d="M75 1411.5q5 13.5 17 19t24.5 1t18.5 -16.5q127 -289 381 -764q260 -485 326 -618q8 -12 4 -24.5t-16.5 -18.5t-26 -2t-17.5 14l-329 625q-258 489 -381 759q-6 12 -1 25.5z" />
<glyph unicode="]" horiz-adv-x="409" d="M39 1466.5q0 14.5 9 23.5t24 9q8 0 51 4q41 2 67 2q102 -4 129 -65q8 -23 11 -70q0 -35 -4 -88q-4 -43 -4 -61q-2 -31 -4.5 -54.5t-2.5 -36.5q-2 -123 4.5 -353t6.5 -333v-43q0 -39 1 -93t1 -101q0 -94 -2 -148q0 -33 -2 -49q-2 -12 -2 -20q0 -2 -3 -6q-4 -10 -10 -19 q-14 -14 -51 -22q-23 -4 -57 -9q-20 0 -58 -2q-31 -2 -39 -2q-14 -2 -24 7.5t-12 22.5t7 23.5t21 12.5q8 0 43 2q35 0 58 2q29 2 59 8q4 27 4 53q2 53 2 146q0 47 -1 101t-1 93v43q0 102 -6 333t-4 353q0 12 2 36t4 59q2 31 4 59q4 53 4 84q-2 35 -4 47q-12 23 -72 25 q-23 0 -61 -2q-43 -4 -55 -4q-14 0 -23.5 9t-9.5 23.5z" />
<glyph unicode="^" horiz-adv-x="491" d="M56 1114.5q-5 12.5 1 24.5l80 166l47 98l17 33q4 6 8 10q2 4 2 6q8 10 20 12q8 2 14.5 0t8.5 -4l6 -6q4 -2 6 -4q-4 4 -4 2q2 -2 2 -4l6 -6l2 -4l13 -27l41 -86l94 -203q6 -12 1 -25.5t-17.5 -18.5t-25.5 -1t-18 17l-92 200l-30 66l-43 -84l-78 -164q-6 -14 -18.5 -18 t-25 2t-17.5 18.5z" />
<glyph unicode="_" horiz-adv-x="819" d="M31 -156.5q0 13.5 10 22.5t8 9q0 -4 344 -2l328 2q14 0 23.5 -9t9.5 -23.5t-9.5 -23.5t-23.5 -9q-74 0 -208 -1.5t-243.5 -1.5t-208.5 3q-12 0 -21 10t-9 23.5z" />
<glyph unicode="`" horiz-adv-x="317" d="M-20 1495q0 14 9 23.5t23.5 9.5t22.5 -10q104 -106 188 -224q8 -12 6 -25.5t-13 -21.5t-25.5 -6t-22.5 14q-80 115 -178 218q-10 8 -10 22z" />
<glyph unicode="a" horiz-adv-x="933" d="M61 313q12 84 66.5 164t130.5 123q83 43 163 43q33 1 67 -7q114 -26 227 -157q-8 96 -17 135q-33 193 -98 275q-45 56 -105 56q-35 1 -73 -17q-108 -50 -211 -187l25 -24q8 -8 7 -21.5t-10.5 -23.5t-23.5 -8t-25 12l-90 96q-8 8 -8 22.5t9 23.5t22.5 9t23.5 -10l25 -24 q113 143 225 194q57 26 106 25q89 0 154 -82q76 -94 111 -301q30 -176 30 -397q0 -97 -6 -203q43 12 59.5 16t28.5 -2q13 -7 16 -21q1 -5 1 -9q0 -9 -4 -16q-6 -11 -21 -13q-57 -14 -178 -64q-6 -2 -12 -2t-14 3q-12 5 -17.5 18.5t0.5 25.5t17 15l59 24v37v84 q-4 125 -16 201q-115 -123 -179 -174q-128 -98 -240 -98q-21 0 -42 3q-106 18 -156 95q-31 51 -31 115q0 22 4 46zM127 303q-3 -20 -4 -38q0 -45 22 -77q31 -51 109 -65q17 -3 35 -3q90 0 196 85q54 40 195 190q-55 121 -168 164q-48 18 -94 18q-64 0 -125 -34 q-63 -37 -109.5 -103.5t-56.5 -136.5z" />
<glyph unicode="b" horiz-adv-x="866" d="M24 1300q-3 6 -3 12q-1 7 3 13q6 12 19 18q100 35 182 76q7 4 15 4q4 0 10 -2q14 -4 20 -16t2 -24.5t-16 -18.5l-57 -31q6 -14 6 -16q18 -279 24 -774q68 207 113 278q82 123 193 129h14q81 0 145 -42q68 -46 105 -124q35 -76 38 -160v-13q0 -76 -30 -146 q-141 -303 -578 -365q0 -41 -2 -61l-4 -39q37 0 53 -2q14 -2 23.5 -12.5t8.5 -23.5q-1 -12 -11 -22q-8 -8 -20 -8h-5q-74 6 -211 7q-12 0 -22 9t-10 23.5t10 23.5t22 9h99v41q0 20 1 54t2 56.5t1 28.5q1 47 1 116.5t-1 162.5q-6 532 -23 846l-75 -27q-12 -4 -24 2t-18 18z M238 164q387 63 507 328q27 53 27 119v9q-2 72 -33 134q-63 129 -191 129h-11q-76 -4 -140 -101q-57 -86 -98 -245q-38 -158 -61 -373z" />
<glyph unicode="c" horiz-adv-x="819" d="M38 551q24 194 93 319q66 111 133 144q29 14 56 14q40 0 77 -31q88 -72 101 -272l73 10q14 2 24.5 -6t12.5 -22.5t-6 -24.5t-22 -12q-82 -10 -195 -49q-12 -4 -24.5 2t-16.5 18t2 24.5t19 16.5l69 23q-2 92 -24.5 154.5t-55.5 86.5q-18 14 -36 14q-12 0 -25 -6 q-51 -25 -105 -116q-66 -112 -86 -294q-7 -66 -7 -127q0 -107 22 -196q37 -143 121 -168q16 -5 34 -5q90 0 224 122l45 41q18 18 34 37l25 26l37 39l53 62l-26 35q-8 10 -7.5 24.5t12 22.5t26 6t22.5 -12q10 -12 45 -59.5t55 -72.5q8 -8 8 -19q0 -14 -12 -26 q-10 -10 -23.5 -8t-21.5 13l-37 43l-53 -62l-33 -37q-6 -8 -24 -24l-37 -35l-45 -43q-150 -137 -267 -137q-28 0 -55 8q-119 33 -164 213q-24 95 -24 206q0 67 9 140z" />
<glyph unicode="d" horiz-adv-x="880" d="M66 707q43 186 184 239q38 14 75 15q135 0 244 -199q49 -90 119 -303q6 147 10 248.5t4 134.5q4 120 4 224q0 145 -8 259q-51 14 -84 18q-10 2 -18 14.5t-6 25t14 20.5q10 6 21 6h6l127 -29q78 -20 121 -26q14 -2 22 -14q6 -8 6 -17q0 -3 -1 -7q-3 -13 -14 -21.5 t-26 -6.5q-33 6 -98 21q7 -105 6 -236q0 -109 -4 -235q-14 -397 -14 -480q0 -6 1 -29.5t2 -59.5t3 -64v-96v-46q35 10 63 17q12 2 24.5 -6t14.5 -20.5t-5 -25t-21 -14.5q-72 -12 -108 -24.5t-81 -40.5q-8 -6 -18 -6h-5q-14 2 -22 14t-6 24.5t16 20.5q27 20 64 37q0 10 2 20 q0 31 -4 97q-141 -78 -255 -78q-69 0 -128 28q-145 70 -207 259q-36 105 -36 207q0 68 16 135zM129 692q-14 -60 -14 -121q0 -92 32 -188q57 -162 177 -217q49 -23 105 -23q96 0 214 68q4 2 27 8q-23 123 -35 182q-47 190 -123 330q-90 163 -190 163q-23 0 -48 -9 q-109 -41 -145 -193z" />
<glyph unicode="e" horiz-adv-x="972" d="M24 555q-3 6 -3 11q-1 8 3 14q6 12 19.5 16t24.5 0q27 -16 75 -27q20 133 64 228q94 211 262 225q10 1 20 1q56 0 93 -30q39 -31 49 -88q7 -30 7 -59q0 -68 -38 -133q-57 -100 -161.5 -158.5t-235.5 -58.5q-2 -30 -2 -57t2 -50q10 -209 106 -293q44 -39 102 -39 q76 0 175 66q33 25 67.5 57.5t48.5 50.5l66 84l-31 41q-6 10 -4 23.5t12.5 22t25 6t22.5 -14.5q31 -45 125 -147q8 -10 8 -23.5t-10.5 -23t-23.5 -9.5t-24 11l-55 61q-115 -141 -192 -192q-117 -79 -211 -79q-80 0 -144 56q-115 102 -129 340q-2 24 -2 53t2 62 q-57 14 -96 33q-11 8 -17 20zM209 561q115 2 201 51.5t133 132.5q30 50 30 101q0 22 -6 45q-6 33 -24 49q-21 17 -56 17q-7 0 -14 -1q-129 -10 -207 -188q-37 -86 -57 -207z" />
<glyph unicode="f" horiz-adv-x="819" d="M33 502l8 73q0 14 11 22.5t24.5 6.5t21.5 -12t6 -39q76 -12 144 -21q-2 47 -2 74q0 6 -5 117t-5 192q2 80 10 158q33 328 211 416q32 17 74 17q16 0 34 -3q98 -12 152 -117q39 -84 41 -212v-31q0 -183 -66 -340l72 -23q12 -4 18 -16q3 -7 3 -13t-2 -11q-5 -13 -16 -19 t-26 -2l-47 14q-35 12 -54 18.5t-48 19.5t-53 30q-10 6 -14.5 19.5t4 24.5t20.5 14t26 -5q18 -10 56 -29q63 145 63 320v26q-4 115 -37 185q-37 74 -100 82q-15 2 -28 2q-25 0 -42 -8q-145 -74 -176 -365q-8 -78 -10 -154q0 -78 5 -185t5 -118q0 -33 2 -84q98 0 203 17v35 q0 14 9.5 23t22.5 9t23.5 -9t10.5 -23q0 -68 2 -123q0 -14 -9.5 -24.5t-22.5 -10.5t-23.5 9t-10.5 22v26q-106 -16 -203 -16q2 -205 2 -434q41 -4 70 -9q14 -2 22.5 -12t6.5 -24.5t-12 -22.5q-9 -6 -18 -6h-5q-82 11 -159 11q-22 0 -44 -1q-14 0 -23.5 9.5t-10.5 22.5 t8.5 22.5t21.5 11.5q33 2 78 2q0 231 -4 434q-70 8 -150 24q-16 -27 -39 -24q-12 2 -20 12q-6 8 -6 19v6z" />
<glyph unicode="g" horiz-adv-x="790" d="M61 575q27 201 113 304q77 91 180 91q12 0 25 -1q119 -14 244 -178l-19 176q-35 4 -50 6t-24.5 12t-8.5 23.5t13 22.5q9 7 20 7h5q25 -2 92 -14q53 -8 88 -10q12 0 21.5 -10.5t9.5 -23.5t-10 -22.5t-26.5 -9.5t-61.5 8q32 -331 32 -570q0 -145 -12 -257 q-33 -283 -135 -403q-76 -91 -191 -91q-75 0 -167 39l-25 -32q-6 -10 -20 -12q-4 -1 -7 -1q-11 0 -19 7q-11 8 -12 22t7 25q43 53 72 129q4 12 16 17t25.5 1t18.5 -16.5t-1 -26.5q-8 -23 -23 -55q73 -30 132 -30q88 0 145 67q90 106 119 366l8 92q-80 -92 -131 -118 q-67 -31 -130 -31q-39 0 -77 12q-82 27 -145 117q-53 76 -78 177q-17 68 -17 131q0 31 4 60zM127 567q-3 -25 -3 -51q0 -55 14 -115q20 -90 67 -159q51 -70 114 -92q25 -8 51 -8q50 0 103 28q35 14 66.5 49t50.5 64l49 82q0 86 -2 182q-4 6 -4 10q-29 152 -103.5 245 t-156.5 101q-7 1 -15 1q-73 0 -138 -74q-70 -80 -93 -263z" />
<glyph unicode="h" horiz-adv-x="872" d="M16 1450q0 14 9.5 23.5t23.5 9.5h193q14 0 23 -9.5t9 -23.5t-9 -23.5t-23 -9.5h-82q18 -682 18 -801q57 119 84 166q66 121 129 172q41 33 82 39q8 1 15 1q40 0 73 -27q57 -49 96 -187q33 -115 54 -276q25 -212 25 -404q0 -43 -1 -86l62 -6q12 -2 21 -12q7 -8 7 -19 q0 -16 -12 -27q-8 -7 -20 -7h-5l-157 16q-14 2 -23.5 12.5t-7.5 23.5t12.5 22.5t22.5 7.5l35 -5q1 36 1 72q0 189 -26 404q-20 164 -49 266q-35 119 -76 151q-20 18 -39 15q-20 -2 -47 -25q-53 -43 -115 -151q-47 -88 -86.5 -184.5t-50.5 -137.5q0 -2 -4 -6 q-2 -199 -12 -381q63 -2 92 -2q14 0 23.5 -9t9.5 -23.5t-9.5 -24t-23.5 -9.5q-29 0 -102 5q-39 3 -68 3q-15 0 -27 -1q-14 0 -24 9t-10 22.5t9 23.5t21 10h43q8 143 12 275q3 91 4 193q0 45 -1 93q-2 154 -4 250t-8.5 285.5t-8.5 273.5h-45q-14 0 -23.5 9.5t-9.5 23.5z" />
<glyph unicode="i" horiz-adv-x="323" d="M76 44q10 9 24 7q16 -2 52 -2q0 315 -13 873l-43 4q-12 2 -21 12t-8 23.5t12 22.5t23 7q59 -6 64 -6h6h6h66q12 0 22 -9t10 -23.5t-10 -23.5t-22 -9h-39q12 -555 12 -873h45q12 0 22.5 -9t10.5 -23.5t-10.5 -23.5t-22.5 -9q-104 0 -168 4q-12 2 -22 12q-8 9 -8 20 q0 15 12 26zM143 1190q0 14 9.5 23.5t22.5 9.5t23.5 -9.5t10.5 -23.5t-10.5 -23.5t-23.5 -9.5t-22.5 9.5t-9.5 23.5z" />
<glyph unicode="j" horiz-adv-x="299" d="M-202 -284q-8 27 -8 50q0 26 9 48q14 49 52 88t83 49q29 7 65 7q52 0 120 -15q20 227 20 450q0 33 -1 67q-3 255 -19 494q0 12 8 22.5t22.5 12.5t24.5 -7t12 -24q18 -246 18 -509q1 -5 1 -10q0 -258 -25 -515q84 -31 158 -74l18 21q8 14 21.5 16t25 -6t13.5 -21v-6 q0 -9 -4 -18q-45 -68 -90 -125q-8 -12 -20.5 -14t-24 6t-13.5 21.5t6 23.5l33 47q-63 35 -133 64q-29 -109 -70 -166q-41 -59 -96 -76q-24 -9 -50 -9q-42 0 -87 25q-53 29 -69 83zM-139 -203q-6 -20 -6 -36q0 -46 47 -70q31 -19 58 -19q13 0 24 4q35 12 61 54q36 53 61 149 q-64 15 -109 15q-25 0 -44 -5q-31 -8 -55.5 -34.5t-36.5 -57.5zM92 1165.5q0 14.5 10.5 23.5t23.5 9t22.5 -9t9.5 -23.5t-9.5 -23.5t-22.5 -9t-23.5 9t-10.5 23.5z" />
<glyph unicode="k" horiz-adv-x="964" d="M15 1427q1 12 9 21q10 10 21 12q61 4 119 10h4q10 0 20 -7q12 -9 12.5 -21t-6 -22.5t-32.5 -16.5q27 -352 28 -916q47 86 76 125q84 125 246 324l-29 37q-8 10 -7 24.5t12.5 22.5t25 6t21.5 -12q12 -14 22 -27l10 -18q4 -4 11 -8l6 -11l12 -10l20 -20q10 -8 10.5 -22.5 t-10 -24t-23.5 -9.5t-36 23q-154 -186 -235 -309q-76 -115 -107 -189q-14 -37 -14 -59v-13q39 -16 114 -16q74 0 187 12q125 16 321 52l-18 30q-6 10 -1 23.5t17.5 18.5t25.5 1t17 -16q39 -88 62 -143q3 -7 3 -13t-2 -12q-5 -12 -17.5 -17.5t-25 0t-18.5 17.5l-18 45h-14 q-195 -35 -326 -49q-115 -14 -193 -14q-66 0 -125 14v-227v-21l58 6q14 2 25.5 -6t12.5 -22.5t-7.5 -24.5t-20.5 -12q-106 -12 -186 -13q-14 0 -23.5 9.5t-9.5 23.5t9 23.5t24 9.5h53v27v219v241q0 63 -1 213t-4 240t-8.5 213t-15.5 250l-45 -4q-15 -2 -25 7q-12 10 -11 25z " />
<glyph unicode="l" horiz-adv-x="299" d="M39 1404q0 13 9 23.5t22 10.5q53 2 125 2q14 0 23 -9.5t9 -23.5q0 -12 -8 -21.5t-35 -13.5q6 -299 6 -1347l31 4q14 2 24.5 -6.5t12.5 -22.5v-5q0 -11 -6 -19q-8 -10 -23 -13q-53 -6 -112 -6q-14 0 -23.5 9t-9.5 24q0 12 7 21t34 16q0 1048 -6 1349l-45 -4 q-14 0 -24.5 9.5t-10.5 22.5z" />
<glyph unicode="m" horiz-adv-x="1228" d="M20 1024q0 14 9.5 23.5t23.5 9.5h127q14 0 23.5 -9.5t9.5 -23.5q0 -12 -8 -21.5t-37 -13.5q8 -82 14 -194q66 80 113 94q23 9 47 8q40 0 84 -23q84 -43 123 -184q2 -8 18 -86q31 113 45 152q78 219 219 252q36 9 69 10q63 0 112 -35q78 -55 106 -205q21 -104 21 -266v-29 q-2 -100 -15 -309q-8 -142 -8 -209v-24h33q14 0 23.5 -9.5t9.5 -23.5t-9.5 -23.5t-23.5 -9.5h-49h-17q-6 0 -11 -1t-19 -5l-31 -6h-6q-10 0 -20 6q-12 8 -14.5 20.5t5.5 24.5t21 14l43 9v27q0 74 8 216q12 207 14 303v31q0 154 -18 254q-25 123 -80 162q-32 23 -76 23 q-24 0 -51 -7q-106 -27 -174 -213q-49 -127 -68 -307q-1 -10 -1 -30.5t1 -51.5q1 -17 1 -32q0 -38 -7 -66q0 -2 -1 -5t-5 -5q-4 -10 -12 -15q-18 -8 -35 6q-6 2 -10 13q-2 2 -2 8q-2 8 -3 28q-2 57 -2 60q-12 139 -12 143q-20 147 -33 195q-31 111 -88 143q-30 16 -57 16 q-14 0 -27 -4q-31 -12 -59 -51q-51 -70 -61 -172q6 -201 6 -524v-23h67q14 0 23.5 -9t9.5 -23.5t-9 -23.5t-24 -9q-121 0 -188 -4q-10 -2 -20.5 8t-12.5 22.5t8 22.5t25.5 12t54.5 2v25q0 311 -6 502q-2 8 -2 16q0 2 2 6q-8 203 -25 385h-49q-14 0 -23.5 9.5t-9.5 23.5z" />
<glyph unicode="n" horiz-adv-x="759" d="M6 998v6q0 10 6 19q8 11 21 13q53 8 106 15h5q10 -1 20 -7q12 -8 13 -22t-7 -24.5t-20 -12.5h-19q10 -125 16 -305l54 111q55 104 118 157q64 54 133 54q17 0 35 -3q55 -10 96.5 -48t61.5 -89q61 -141 66 -469q0 -55 -1 -241v-68q0 -125 3 -158l30 -6q13 -2 21 -13 q5 -8 6 -17q0 -4 -1 -8q-3 -14 -15 -20q-7 -4 -14 -4q-4 0 -9 1q-57 10 -117 16q-12 2 -21 12.5t-8 23.5t11 22.5t25 7.5h28q-5 45 -5 176v46q1 169 1 228q-4 317 -59 447q-35 82 -113 96q-12 2 -23 2q-44 0 -88 -37q-54 -47 -104 -139q-78 -143 -108 -305q-2 -190 -13 -410 l35 4q12 2 23.5 -6t12.5 -22.5t-7 -24.5t-21 -12q-59 -6 -123 -7q-14 0 -23 9.5t-9 24t9 23.5t38 9q10 213 12 399q-2 8 -2 13l2 4q0 262 -16 520l-25 -8q-12 -2 -23.5 5.5t-13.5 21.5z" />
<glyph unicode="o" horiz-adv-x="722" d="M41 545q14 113 55 212t117 173t170 84q8 0 18 -2q10 0 19 -4q102 -53 166.5 -164t85.5 -232q11 -67 11 -135q0 -55 -7 -110q-27 -199 -125 -301q-79 -86 -181 -86q-49 0 -104 20q-94 37 -150 127q-57 91 -73 197q-9 57 -9 116q0 51 7 105zM104 537q-6 -49 -6 -94 q0 -111 35 -207q49 -134 154 -173q44 -16 83 -16q76 1 134 61q88 92 108 267q5 47 5 93q0 126 -40 244q-55 162 -184 236q-115 -16 -191.5 -132t-97.5 -279z" />
<glyph unicode="p" horiz-adv-x="778" d="M12 -324v5q0 10 6 19q7 11 21 13q23 4 63 11q12 188 15 399h-49q-14 0 -23.5 9t-9.5 23.5t9 23.5t24 9h49q0 291 -19 799q0 14 8.5 24.5t22.5 10.5t24.5 -9t10.5 -22l4 -176q133 164 256 178q11 1 21 1q66 0 125 -32q67 -38 112 -108t58 -156q4 -32 4 -64q0 -54 -14 -110 q-21 -88 -94 -174t-192 -145q-115 -57 -262 -76q-2 -207 -14 -397l59 8q12 2 22.5 -6t12.5 -22.5t-6 -25t-23 -12.5q-154 -20 -184 -26h-5q-9 0 -18 6q-12 8 -14 22zM174 696q8 -276 8 -501q135 18 232 67q106 55 170.5 129t83.5 152q11 49 11 95q0 27 -4 54q-11 70 -48 125 q-72 112 -177 112q-9 0 -18 -1q-139 -12 -252 -221q0 -4 -6 -11z" />
<glyph unicode="q" horiz-adv-x="753" d="M39 541q-5 40 -5 78q0 83 24 155q36 103 104 166q57 51 120 64q17 3 35 3q47 0 99 -24q74 -41 164 -186q0 123 -2 184q0 12 9 22.5t22.5 10.5t23.5 -9.5t10 -23.5v-40q0 -145 -10 -599q-2 -84 -2 -168q41 12 67 23q12 4 23.5 -1.5t16.5 -18.5q2 -7 2 -13t-2 -12 q-5 -11 -19 -15q-43 -18 -90 -31v-85q0 -168 6 -314l47 4q14 2 24.5 -7t12.5 -22.5t-7.5 -23.5t-23.5 -12q-16 -2 -30.5 -3t-18.5 -1t-14.5 -1t-12.5 -2t-16 -5.5t-31 -6.5q-4 -1 -8 -1q-8 0 -15 4q-12 8 -16 21t4.5 24.5t22.5 13.5l18 6q-8 147 -8 326v73q-13 -1 -27 -1 q-70 0 -137 18q-76 14 -150.5 70.5t-119.5 117.5q-74 113 -90 242zM104 550q13 -114 80 -212q37 -57 101.5 -103.5t126.5 -62.5q55 -12 110 -12q21 0 41 2q2 86 4 182q2 20 4 116.5t4 155.5q-2 2 -2 0q-72 248 -188 308q-34 19 -68 19q-55 0 -110 -50q-57 -55 -87 -142 q-21 -60 -21 -133q0 -33 5 -68z" />
<glyph unicode="r" horiz-adv-x="669" d="M55 928q0 14 7.5 26.5t20.5 14.5t24.5 -6.5t15.5 -20.5q37 -190 55 -522q66 180 115 268q119 211 278 275v16q-12 16 -9 29q4 14 16 21q9 5 17 5l7 -1q12 -3 21 -13l20 -33q10 -18 12 -20t6.5 -9.5t4.5 -8.5t8 -20.5t14 -31.5q3 -7 3 -14q0 -5 -2 -11q-5 -14 -17.5 -19 t-25.5 -1t-17 16l-17 39q-150 -51 -262 -252q-98 -172 -135 -368q-2 -10 -10 -121q-2 -51 -4 -76q0 -6 -11 -31h33q12 2 22.5 -8t11.5 -22.5t-8 -22.5t-24 -12q-16 0 -32.5 -1t-18.5 -1t-13 -1t-13.5 -2t-17.5 -5t-34 -9q-4 -1 -9 -1q-9 0 -17 6q-12 8 -14.5 21t5 25.5 t21.5 14.5l43 6v29v28v21q-4 70 -10 223q-16 373 -60 580z" />
<glyph unicode="s" horiz-adv-x="696" d="M45 119.5q0 13.5 12.5 25t24.5 23.5t16 13t11.5 10.5t9.5 11.5t12 16l23 29q10 10 23 12t23.5 -7t12.5 -22.5t-6 -23.5l-29 -35q38 -68 102 -100q56 -28 115 -27h15q61 4 96 43q37 39 37 106v7q-2 43 -16.5 77.5t-49.5 67.5t-59 51q-14 12 -80 58q-51 33 -79 56.5 t-64.5 63t-50.5 87.5q-9 34 -9 73q0 17 2 35q14 110 96 174q77 61 166 60h11q104 -4 158 -82q36 -52 37 -134q0 -40 -9 -88q31 -8 46 -11q14 -3 22 -14q5 -8 6 -17q0 -4 -1 -8q-3 -14 -14.5 -20.5t-25.5 -2.5q-88 20 -156 22q-12 0 -21.5 10.5t-9.5 23.5t10.5 22.5t28 9.5 t47.5 -4q9 46 9 82q0 59 -23 94q-37 49 -106 51h-6q-72 0 -130 -47q-62 -49 -69 -129q-1 -14 -1 -26q0 -66 34 -110q40 -54 139 -118q6 -4 16 -10q47 -33 75 -54.5t64.5 -59.5t56 -82t21.5 -97v-13q0 -93 -55 -149q-53 -55 -141 -63h-16q-66 0 -133 28q-75 32 -134 115 l-29 -29q-10 -8 -23.5 -8t-22.5 10t-9 23.5z" />
<glyph unicode="t" horiz-adv-x="774" d="M10 768q-2 12 7.5 22.5t21.5 12.5q20 2 39 -29l291 70v108q0 39 2 119q1 53 1 98v41q-1 60 -7 133q-39 -6 -64 -8q-14 -2 -24.5 7.5t-11.5 22.5t8.5 23.5t23.5 12.5q72 8 182 33q4 1 8 1q9 -1 17 -5q12 -8 15 -20.5t-4 -24t-19 -13.5l-68 -16q8 -72 9 -136v-46 q0 -48 -1 -104q-2 -85 -2 -118v-98q131 20 244 25v24q-2 14 7 24.5t22.5 12.5t23.5 -7.5t12 -23.5l7 -88q0 -12 -8.5 -22.5t-22.5 -12.5q-23 -2 -35 27q-115 -2 -250 -25q0 -96 -1 -350t-1 -409l86 12q12 2 23.5 -6t13.5 -21.5t-6 -25t-21 -13.5l-221 -32h-5q-10 0 -20 6 q-12 8 -13 22.5t7.5 24.5t20.5 12q27 2 70 8q0 156 1 416t1 340q-39 -4 -285 -63v-19q0 -14 -8 -24.5t-22.5 -12.5t-25 7.5t-10.5 23.5z" />
<glyph unicode="u" horiz-adv-x="716" d="M48 998q9 8 19 8h5q61 -6 116 -7q12 0 22.5 -9t10.5 -23.5t-10 -23.5t-23 -9h-26q-31 -215 -31 -391q0 -60 4 -115q8 -170 53 -271.5t131 -111.5q8 -1 15 -1q88 0 145 89q55 86 86 260q25 151 25 337q0 90 -6 188l-37 4q-12 2 -21.5 12t-8.5 23.5t11.5 22.5t24.5 7 q82 -6 137 -14q12 -1 20 -13q7 -9 7 -20v-5q-2 -13 -13.5 -21.5t-23.5 -6.5l-31 6q6 -103 6 -196q0 -187 -24 -336q-31 -184 -96 -285q-75 -118 -193 -118q-13 0 -27 2q-125 12 -188 153q-45 106 -57 293q-4 58 -4 121q0 179 30 393h-30q-12 2 -22 12q-9 10 -8 22 q0 14 12 24z" />
<glyph unicode="v" horiz-adv-x="966" d="M20 928q4 14 15 20q55 33 104 58q12 6 25.5 2t17.5 -17q12 -20 -10 -45q33 -123 135 -465l96 -305l21 -61q37 154 65 223q164 426 379 676l-16 16q-8 12 -7 25.5t11 22.5q8 7 19 7h5q14 -2 21 -10l86 -96q8 -10 8 -23.5t-10 -22.5t-23.5 -9t-23.5 10l-25 29 q-205 -244 -364 -650q-25 -68 -72 -252l-2 -14q-2 -12 -6 -18q-6 -16 -14 -27q-12 -13 -25 -13q-10 0 -22 7q-8 4 -13 12l-4 4q-2 6 -4 11q-4 12 -12 32l-35 101l-94 305q-90 295 -135 454l-43 -24q-10 -6 -24 -3q-12 3 -20 14q-5 8 -6 17q1 4 2 9z" />
<glyph unicode="w" horiz-adv-x="1378" d="M27 844q66 57 98 90q10 10 23.5 10t23.5 -9t10 -23.5t-10 -22.5l-39 -39q18 -47 76.5 -179t93.5 -219t64 -173l24 -72q41 129 96 235q37 76 70 117q20 25 39 37q29 20 57 14q45 -10 84 -69q25 -43 49 -117q20 -57 64 -236q20 74 22 82q160 436 342 721l-24 25 q-8 8 -8 22.5t9 23.5t22.5 9t23.5 -10l25 -25l14 -14l8 -8q10 -10 12 -10t11 -5l20 -18q10 -9 11 -23v-3q0 -12 -7 -21q-8 -10 -21.5 -12t-25.5 6l-20 18q-176 -276 -328 -698q-10 -29 -27 -137l-10 -68l-10 -18q45 -12 45 -37q0 -14 -10.5 -23.5t-22.5 -9.5q-61 0 -113 6 q-14 2 -22 12.5t-7 24.5t12 22.5t44 4.5v28v8v5q-23 88 -35 133q-2 8 -11 48t-20.5 80t-23.5 76q-20 63 -45 103q-16 25 -37 45q-20 -16 -33 -33q-29 -35 -63 -104q-72 -137 -82 -195q-2 -6 -12 -106l-9 -80h23q12 2 23.5 -6.5t13.5 -21.5t-6.5 -24.5t-22.5 -13.5 q-55 -8 -108 -12h-5q-12 0 -20 7q-10 9 -10 24q-2 25 37 39l-4 24l-3 12q-47 162 -59 201q-20 61 -49 136t-49 124l-60 135l-63 146q-41 -27 -57 -6q-9 11 -9 23q0 15 11 24z" />
<glyph unicode="x" horiz-adv-x="925" d="M45 93q0 13 9 23.5t22.5 10.5t36.5 -18q117 139 243 333q-86 166 -202 453l-45 -29q-10 -6 -23.5 -3t-21 14.5t-4.5 24.5t16 22q16 10 32.5 19t26.5 15l17 11q4 4 10 7t9 5t9 5t13 5l18 10l25 13q12 4 24 0t18.5 -16.5t2 -24.5t-18.5 -21l-51 -24q104 -252 188 -422 q164 260 236 446h-27q-12 2 -20 13.5t-6 25t14 21.5q10 6 20 6h5q70 -14 137 -31q12 -2 19 -13t4 -24.5t-14 -20.5t-26 -3l-43 8q-76 -205 -264 -498q162 -309 365 -510l30 25q12 10 25.5 8t23.5 -12q8 -8 7 -19q0 -16 -11 -26l-126 -107q-8 -6 -18 -6h-6q-14 2 -23 12.5 t-7 23.5t13 23l43 37q-195 193 -357 490q-127 -186 -233 -314l41 -32q8 -8 10 -21.5t-7 -24t-22.5 -12.5t-25.5 9q-53 45 -101 92q-10 8 -10 21z" />
<glyph unicode="y" horiz-adv-x="753" d="M64 457q6 125 28.5 228t69.5 224l-35 9q-14 2 -21.5 13t-4.5 24.5t14.5 20.5t23.5 3q57 -12 119 -29q14 -2 20.5 -14t3.5 -25.5t-15.5 -19.5t-26.5 -2h-17q-43 -111 -66.5 -212.5t-27.5 -214.5v-26q0 -98 27 -176q39 -109 136 -144q33 -12 64 -12q63 0 121 46 q80 63 156 215q0 190 -33 593l-33 5q-14 2 -23 12t-7 23.5t12 22.5q8 7 18 7h4l123 -10q14 -2 24 -12q7 -9 7 -20q0 -15 -13 -26q-10 -10 -24 -8h-22q32 -370 32 -573v-12q2 -6 -2 -15q0 -125 -12 -223q-31 -283 -131 -403q-77 -91 -192 -91q-76 0 -168 39l-25 -32 q-6 -10 -20 -12q-4 -1 -7 -1q-10 0 -18 7q-10 8 -12 22t6 25q43 53 71 129q4 12 16.5 17t26 1t18.5 -16.5t-1 -26.5q-6 -23 -23 -55q73 -30 132 -30q88 0 145 67q90 106 119 368q0 10 12 84q-74 -90 -115 -125q-82 -58 -161 -58h-8q-83 3 -153.5 58.5t-103.5 143.5 q-30 78 -30 179q0 18 2 38z" />
<glyph unicode="z" horiz-adv-x="874" d="M55 49q2 4 3 8t3 9l13 16l43 61l137 191l102 143q-48 -2 -86 -2t-65 2q-14 2 -23.5 12.5t-8.5 22.5t11.5 22.5t22.5 8.5q38 -3 80 -3q57 0 123 5l122 172q61 88 82 125q20 35 33 80h-39q-41 -2 -57 -2q-71 -4 -134 -4q-137 0 -237 18l-10 -35q-4 -12 -15.5 -19.5 t-24.5 -4t-20.5 14.5t-3.5 25q14 55 27 129q3 12 15 20q10 7 20 7h5q13 -2 20.5 -14.5t5.5 -26.5l-9 -31q98 -17 232 -17q59 0 125 3q16 0 57 2h41h14h9h-2q14 -4 20 -8q22 -22 22 -56q0 -13 -3 -28q-6 -37 -33 -84q-23 -43 -84 -131l-94 -125q98 14 157 27q14 2 26.5 -6.5 t14.5 -20.5t-6 -24.5t-18 -14.5q-115 -20 -224 -33l-137 -188l-139 -189l-16 -34q176 10 198 10q89 4 163 4q134 0 222 -12l4 32q2 14 12.5 23.5t23.5 7.5t22.5 -12.5t7.5 -22.5q-4 -49 -10 -108q1 -12 -11 -22q-10 -8 -21 -7h-5q-10 2 -18.5 10.5t-10.5 32.5 q-83 12 -214 12q-73 0 -161 -4l-112 -4q-70 -4 -74 -4q-41 -2 -59 -2h-19q-8 2 -14 2q-12 4 -19 21q-4 6 -4 12q0 4 2 8z" />
<glyph unicode="{" horiz-adv-x="614" d="M49 700q-10 18 2 37q2 6 8 13l27 20l53 45q63 72 80 211q6 49 -2 158t-2 153q8 86 61 133q59 51 189 66v27q0 14 9 23t22.5 9t23.5 -9t10 -23v-109q0 -14 -10 -23.5t-23.5 -9.5t-22.5 8.5t-9 40.5q-104 -12 -146 -47q-33 -31 -38 -94q-6 -37 2 -143q8 -109 2 -168 q-18 -162 -99 -246q-10 -10 -39 -37q18 -18 27 -20q94 -55 98 -168q2 -70 -22 -215q-23 -133 -21 -187q2 -86 50 -129q57 -53 210 -69l5 39q0 12 11 21t24.5 7t21.5 -12t8 -25q-6 -55 -6 -108q0 -14 -10.5 -23.5t-23.5 -9.5t-22.5 9.5t-11.5 33.5q-176 20 -252 90 q-66 63 -69 174q-2 57 22 201q23 131 21 199q-2 80 -66 114q-20 12 -47 21q-6 2 -18 4h-4q-4 2 -6 2l-5 2q-8 4 -12 14z" />
<glyph unicode="|" horiz-adv-x="204" d="M66 33q12 535 12 1353q0 14 9 23.5t23.5 9.5t23.5 -9t9 -24q0 -819 -12 -1357q0 -12 -10 -21.5t-23.5 -9.5t-22.5 10.5t-9 24.5z" />
<glyph unicode="}" horiz-adv-x="616" d="M43 -133q0 57 6 117q2 12 12.5 21t23.5 7t22.5 -12t7.5 -27v-20q106 10 149 47q35 31 45 90q6 39 2 139q-6 111 2 170q23 164 105 244q10 12 47 39q-27 14 -33 18q-92 57 -92 172q0 72 29 213q27 135 26 187q0 84 -47 131q-53 53 -196 72v-41q0 -14 -9.5 -23.5t-24 -9.5 t-23.5 9t-9 24v108q0 14 9 23.5t24 9.5q25 0 35 -33q168 -25 239 -94q68 -61 68 -176q0 -59 -29 -199q-27 -133 -26 -201q0 -80 63 -116q20 -12 45 -21l14 -4h7h2h-15q0 -2 19 -2q10 -4 16 -16q10 -18 0 -35q-4 -8 -10 -14l-29 -23q-47 -37 -55 -43q-66 -63 -84 -207 q-8 -55 -2 -158q4 -111 -2 -153q-12 -84 -68 -131q-61 -50 -198 -64v-16v-2q0 -14 -9.5 -23.5t-24 -9.5t-23.5 9.5t-9 23.5z" />
<glyph unicode="~" horiz-adv-x="874" d="M60 1195.5q-3 13.5 3 25.5q90 152 199 137q31 -4 67 -23.5t55 -33t54 -44.5q102 -84 152 -92q74 -14 147 92q8 12 22.5 14.5t25 -6t12.5 -21.5t-4 -25q-98 -139 -215 -117q-63 12 -181 104q-98 82 -143 86q-68 10 -133 -104q-6 -12 -18.5 -15.5t-26 3t-16.5 20z" />
<glyph unicode="&#xa1;" horiz-adv-x="262" d="M78 1368q0 14 9 23.5t23.5 9.5t23.5 -9.5t9 -23.5t-9 -23.5t-23.5 -9.5t-23.5 9.5t-9 23.5zM84 1090q-2 14 6 25t21.5 13t25 -7t13.5 -19q14 -104 23 -204.5t9 -229.5v-195q0 -63 -6 -230t-6 -202q0 -12 -10 -21.5t-23.5 -9.5t-23 10.5t-9.5 24.5q0 35 6.5 202t6.5 228 v189q0 129 -8.5 228t-24.5 198z" />
<glyph unicode="&#xa2;" horiz-adv-x="741" d="M56.5 372.5q-21.5 147.5 45.5 311.5q27 57 76 109.5t107 74.5q68 27 123 2t94 -106q27 10 39 6t18 -16t2 -24.5t-16 -18.5q-49 -25 -94 -52q-12 -6 -25.5 -1.5t-21 15.5t-2 24.5t15.5 19.5l26 16q-29 61 -63 76q-31 16 -72 -2q-45 -16 -85 -59t-62 -93 q-57 -150 -40 -274.5t93 -194.5q74 -70 168 -49q106 23 213 160l-23 27q-8 10 -8 23t10.5 22.5t24 9.5t23.5 -10l88 -97q8 -10 8 -23t-10.5 -22.5t-24.5 -9.5t-22 10l-21 21q-121 -150 -244 -174q-127 -27 -227 65q-92 86 -113.5 233.5zM299 987q0 53 2 113q0 12 10.5 21 t23.5 9t22.5 -10t9.5 -24q-2 -55 -2 -109q0 -14 -10.5 -23.5t-24 -9.5t-22.5 9.5t-9 23.5zM356 -12q-2 14 7.5 24.5t21.5 12.5t23.5 -7.5t13.5 -21.5q2 -14 3 -28.5t2 -20.5t1 -8v-21q-2 -27 -2 -37q0 -12 -10 -21.5t-24.5 -9.5t-23 10.5t-8.5 24.5q0 10 2 37v12 q0 6 -1 10.5t-2 16.5t-3 27z" />
<glyph unicode="&#xa3;" horiz-adv-x="1228" d="M2 702.5q0 14.5 9 23.5t24 9q57 0 244 -6q4 37 6 66q25 274 86 436q23 55 62.5 107.5t88.5 78.5q59 35 119 23q66 -10 117 -78q37 -49 73 -199l29 4q12 4 23.5 -3t14.5 -20.5t-4 -24.5t-22 -13q-10 -4 -17 -5t-13 -2t-8 -2l-3 -1h-8q-6 -4 -7 -5t-13 -8l-27 -18 q-12 -8 -25.5 -5t-20.5 14t-4 24.5t13 19.5l29 17v14q-2 12 -8 33.5t-8 32t-9.5 29t-11.5 28.5t-10 25.5t-16 23.5q-37 47 -76 55q-35 8 -74 -16q-37 -20 -70.5 -63.5t-52.5 -90.5q-61 -156 -82 -413q-2 -25 -2 -66q182 -2 297 16q14 2 25.5 -6t13.5 -21.5t-6 -24.5t-21 -13 q-123 -18 -317 -16q-12 -209 -27 -310q-12 -66 -49 -176q115 41 234 -4l82 -33q53 -23 83.5 -35t73.5 -24t80 -17q156 -20 262 119l-14 23q-10 10 -8 23.5t13 21.5t24.5 6t19.5 -14q51 -66 84 -105q10 -12 8 -25.5t-12 -22.5t-23.5 -7t-21.5 10l-29 37q-131 -156 -311 -131 q-39 6 -87 19.5t-81 25.5l-90 37q-55 23 -78 31q-127 49 -188 -9q-14 -10 -43 -49q-12 -18 -21 -26q-20 -16 -39.5 -16.5t-31.5 12.5q-12 14 -11 32q2 14 13 33q6 10 12 19.5t9 14.5t5 11q57 150 70 232q16 102 26 299q-193 6 -239 6q-14 0 -23.5 9t-9.5 23.5z" />
<glyph unicode="&#xa4;" horiz-adv-x="897" d="M133 406.5q0 13.5 10 25.5l72 76q-55 68 -68.5 136.5t15 145t114.5 152.5l-73 88q-8 10 -6 24.5t12 22.5t24.5 6t22.5 -12l74 -92q117 63 206 50t171 -87l81 80q8 10 22.5 10t24 -9t9.5 -23.5t-10 -22.5l-86 -88q57 -84 56 -185.5t-73 -193.5q49 -43 50 -44t36 -42 q10 -12 8 -25.5t-12 -22.5t-23.5 -7t-21.5 10l-18 22q-4 6 -5 7l-12 14l-6 6q-4 2 -14.5 10t-28.5 27q-117 -78 -220.5 -75t-201.5 73l-74 -78q-8 -10 -21 -10t-23.5 9t-10.5 22.5zM212 652.5q13 -54.5 50 -99.5q66 -78 168 -93.5t207 50.5q61 47 84.5 110.5t13.5 126 t-47 117.5q-41 51 -94 80t-123 19.5t-137 -64.5q-7 -4 -15 -6q-72 -57 -96 -121.5t-11 -119z" />
<glyph unicode="&#xa5;" horiz-adv-x="1153" d="M49 1402q4 13 14 19l68 39q53 33 84 47q12 6 25.5 2t19.5 -16t2 -24.5t-16 -18.5l-45 -25q125 -268 239 -630q82 12 160 22q133 352 344 635l-55 25q-14 6 -19.5 18t-0.5 24.5t17.5 17.5t24.5 1q37 -14 174 -84q12 -6 16.5 -18.5t-1.5 -24.5t-19.5 -16t-25.5 2l-54 26 q-193 -258 -329 -598q127 12 221 15q14 0 24.5 -9.5t10.5 -22.5t-8.5 -23.5t-22.5 -10.5q-119 -4 -252 -18q-45 -129 -78 -236q0 -4 -4 -45q117 10 185 12q14 0 24 -9t10 -22.5t-8 -23.5t-22 -10q-72 -2 -185 -12q10 -186 -4 -326q68 0 139 -2q14 0 22.5 -10.5t8.5 -23.5 t-10 -22.5t-25 -9.5q-219 6 -350 -39q-12 -4 -24.5 2.5t-17.5 18.5t1 24.5t19 18.5q76 25 174 37q12 135 2 328q-186 -16 -273 -21q-14 0 -24 9t-10 22.5t9 24t21 10.5q84 2 244 16q-18 53 -33 100l-43 154l-262 -53q-12 -4 -23.5 3t-14.5 20.5t4 24.5t22 13q127 31 256 55 q-111 348 -230 607l-49 -27q-12 -6 -24.5 -2t-19.5 15.5t-3 24.5zM459 733l51 -182q32 113 65 199q-63 -10 -116 -17z" />
<glyph unicode="&#xa6;" horiz-adv-x="262" d="M84 -106q39 328 25 575q-2 10 8 20.5t22.5 12.5t22.5 -8.5t12 -24.5q14 -250 -24 -584q-2 -14 -13.5 -22t-25 -6t-21.5 12t-6 25zM98 813q43 231 4 582q-2 14 6.5 24.5t21.5 12.5t24.5 -6.5t13.5 -22.5q41 -362 -4 -600q-2 -14 -14.5 -22.5t-24.5 -6.5t-20.5 14.5 t-6.5 24.5z" />
<glyph unicode="&#xa7;" horiz-adv-x="798" d="M42 339q-1 13 8.5 22.5t21.5 11.5q82 4 145 10q12 2 22.5 -7t12.5 -22.5t-7 -24t-24 -12.5l-51 -4q23 -74 75 -126t117 -76q70 -29 121 -11q53 20 76 95q18 70 -21.5 141.5t-129.5 163.5l-74 69q-53 51 -78 80q-86 88 -104 154q-23 74 -6.5 127t67.5 76q25 8 78 12 q-55 96 -47 184q8 102 75.5 148.5t149.5 25.5q74 -18 117 -87.5t26 -184.5l45 -12q14 -2 21.5 -13.5t4.5 -25t-14.5 -20.5t-23.5 -3q-16 2 -26.5 5t-16.5 4t-12 1h-4q-2 0 -17 2h-47q-14 0 -22 10.5t-8 24t10 22.5t24 9h19q18 94 -12.5 143t-79.5 64q-53 12 -95.5 -17.5 t-48.5 -99.5q-6 -78 39 -145q8 -12 105 -125q94 -115 135 -180q70 -113 59 -189q-10 -70 -104 -110q115 -154 78 -275q-31 -104 -117 -133q-74 -27 -164 6q-84 33 -150.5 101.5t-80.5 142.5v16h-33q-14 0 -23.5 9.5t-10.5 22.5zM213 823q16 -51 88 -129l80 -78l74 -71 l39 -41q82 18 90 65q6 51 -49 144q-45 70 -132 172l-18 22l-6 4q-80 57 -139 33q-55 -25 -27 -121z" />
<glyph unicode="&#xa8;" horiz-adv-x="409" d="M33 1341.5q0 14.5 9 23.5t23.5 9t23.5 -9t9 -23.5t-9 -23.5t-23.5 -9t-23.5 9t-9 23.5zM272 1339.5q0 14.5 9.5 23.5t23.5 9t23.5 -9t9.5 -23.5t-9.5 -23.5t-23.5 -9t-23.5 9t-9.5 23.5z" />
<glyph unicode="&#xa9;" horiz-adv-x="966" d="M72 768q18 274 121 459q121 215 307 221h6q12 2 20 -4q102 -63 179 -160.5t119 -207t61.5 -234.5t13.5 -244q-4 -117 -29 -229q-18 -88 -59 -164t-104.5 -139.5t-145.5 -83t-186 11.5q-168 53 -252 295q-70 209 -51 479zM137 764q-16 -258 49 -457q72 -207 207 -252 q152 -47 264.5 53.5t151.5 272.5q23 106 27 219t-13.5 227.5t-56.5 216t-105.5 190.5t-160.5 148q-152 -8 -250 -186q-94 -172 -113 -432zM259 659.5q-3 133.5 54 243.5q37 61 82 88t97 15q78 -20 116 -132q23 -4 31 -12q10 -8 10 -21.5t-10 -25.5l-43 -43q-8 -10 -21.5 -10 t-23.5 9t-10 22.5t12 27.5v13q-23 96 -80 110q-53 12 -102 -74q-49 -92 -45 -208q2 -117 47 -199q41 -78 92 -72q68 6 147 152l-16 16q-10 10 -10 23.5t9 23.5t22.5 10t23.5 -8l55 -51q10 -10 10.5 -23.5t-8.5 -23.5q-10 -10 -34 -10q-94 -162 -193 -172q-94 -10 -156 102 q-53 96 -56 229.5z" />
<glyph unicode="&#xaa;" horiz-adv-x="808" d="M26 1389.5q3 13.5 15 20.5t24.5 4t22.5 -15l25 -41q152 162 264 135q100 -25 166 -190q31 -78 55 -183q25 -106 45.5 -234t30.5 -171l39 14q12 4 24.5 -2t16.5 -18.5t-2.5 -24.5t-20.5 -16q-141 -43 -192 -50q-10 -2 -21.5 7.5t-12.5 23t7 23.5t23 12q29 2 77 16 q-10 25 -51 275q-72 -76 -112 -109q-102 -88 -199 -80q-113 10 -158 88q-39 68 -14 160q25 82 96.5 142.5t161.5 50.5q92 -12 199 -119q-33 121 -52 170q-55 135 -123 152q-82 20 -215 -136q6 -33 -18 -45q-12 -4 -25.5 0t-17.5 17q-20 43 -55 100q-6 10 -3 23.5zM141 1014 q-18 -61 6 -107q31 -49 109 -55q70 -6 154 63q37 33 96 99q-70 137 -178 147q-61 6 -114.5 -36t-72.5 -111z" />
<glyph unicode="&#xab;" horiz-adv-x="815" d="M57 582q4 14 15 24q8 8 18 17q14 14 41 34l49 35q23 18 29 24.5t31.5 29t33.5 30.5l31 29l33 31l29 30q16 18 30 35l25 31q8 12 21.5 14t23.5 -6t12 -22.5t-6 -24.5l-35 -43l-32 -37q-12 -12 -41 -39l-33 -33q-8 -8 -43 -39.5t-37 -33.5q-8 -8 -33 -29l-47 -35l-45 -37 q12 -25 25 -45l79 -116l152 -199q8 -10 7 -24.5t-12 -22.5t-24.5 -6t-21.5 12l-154 201l-84 120q-16 31 -24 50q-14 29 -13 45zM348 551q4 14 14 24q8 8 19 17q14 14 41 35l49 35q23 18 29 24t31.5 28.5t33.5 30.5l31 29l33 33l26 29q16 18 33 34l25 33q8 10 21.5 12.5 t23.5 -6t12 -23t-6 -24.5l-35 -43l-33 -37q-12 -12 -41 -39l-32 -34q-6 -6 -42 -38t-38 -34q-8 -8 -33 -29l-47 -35l-45 -36q12 -25 24 -45l80 -117l152 -199q8 -10 7 -24.5t-12.5 -22.5t-24.5 -6t-21 12l-154 201l-84 121q-16 31 -25 49q-14 29 -12 45z" />
<glyph unicode="&#xac;" horiz-adv-x="753" d="M55 677q0 13 10.5 22.5t27 9.5t284.5 20l172 12q39 2 59 2h21q6 -2 10 -2q8 -2 14 -6q29 -20 41 -76q14 -55 15 -153q0 -123 2 -148q2 -12 -7.5 -22t-22.5 -12t-23.5 7t-12.5 23q-2 25 -2 152q0 90 -10 137l-10 35q-33 0 -70 -2l-174 -12q-289 -20 -293 -21 q-12 0 -21.5 10.5t-9.5 23.5z" />
<glyph unicode="&#xad;" horiz-adv-x="542" d="M73 605q1 13 11.5 22.5t24.5 7.5q96 -8 348 10q14 2 24.5 -7t11.5 -22.5t-7.5 -23.5t-22.5 -12q-260 -18 -361 -11q-12 2 -21 12.5t-8 23.5z" />
<glyph unicode="&#xae;" horiz-adv-x="954" d="M72 768q18 274 121 459q121 215 307 221h6q12 2 20 -4q102 -63 179 -160.5t119 -207t61.5 -234.5t13.5 -244q-4 -117 -29 -229q-18 -88 -59 -164t-104.5 -139.5t-145.5 -83t-186 11.5q-168 53 -252 295q-70 209 -51 479zM137 764q-16 -258 49 -457q72 -207 207 -252 q152 -47 264.5 53.5t151.5 272.5q23 106 27 219t-13.5 227.5t-56.5 216t-105.5 190.5t-160.5 148q-152 -8 -250 -186q-94 -172 -113 -432zM266 369q4 10 16.5 17t41.5 3q14 170 -19 485l-12 11q-8 10 -8 23.5t10 23.5q59 53 120.5 74.5t109.5 12.5t85 -38t58 -74 q18 -39 10 -87t-45 -83q-59 -59 -207 -63q102 -184 248 -309l22 22q10 8 23.5 8t23 -10t9 -23.5t-10.5 -23.5l-94 -86q-10 -8 -23.5 -7t-22.5 10t-8 23.5t11 22.5l21 21q-123 104 -230 268q0 -131 -6 -203q0 -4 -12 -22l45 -17q12 -6 16 -18.5t-1 -25.5t-17 -17t-27 0 q-45 20 -106 41q-10 4 -17.5 16t-3.5 25zM367 907q14 -127 16 -168q150 -8 207 45q39 41 16 99q-14 31 -44 52t-81 19t-114 -47z" />
<glyph unicode="&#xaf;" horiz-adv-x="735" d="M62 1389.5q1 13.5 10.5 22.5t21.5 9q45 -8 281.5 -2t281.5 6q14 0 23.5 -9t9.5 -23.5t-9 -23.5t-24 -9q-43 0 -282.5 -6t-280.5 2q-14 2 -23.5 11t-8.5 22.5z" />
<glyph unicode="&#xb0;" horiz-adv-x="573" d="M68 991q-20 90 10 203q31 109 98 176q55 60 125 68q23 23 45 10q76 -45 118 -115.5t44 -141.5t-16 -142q-31 -106 -114 -169t-183 -30q-98 31 -127 141zM133 1008q18 -74 80 -97q68 -23 129 22.5t86 133.5q29 74 8.5 160t-92.5 143h-16q-53 12 -105 -43q-55 -57 -82 -151 q-29 -94 -8 -168z" />
<glyph unicode="&#xb1;" horiz-adv-x="894" d="M64.5 316.5q-1.5 13.5 8 22.5t21.5 11q119 6 359 51q252 47 370 52q14 0 24.5 -9.5t10.5 -22.5t-9 -23.5t-22 -10.5q-123 -4 -362 -49q-246 -47 -367 -53q-14 0 -23 9t-10.5 22.5zM64.5 740.5q-1.5 13.5 8 23.5t23.5 12q94 8 248 39q-14 172 21 287q6 12 18 18t24.5 2 t18.5 -16.5t2 -24.5q-31 -98 -16 -256q186 37 278 49q14 2 24.5 -6t12.5 -22.5t-6 -24.5t-23 -12q-90 -10 -278 -47q29 -143 82 -230q6 -10 3 -23t-15.5 -20.5t-24.5 -4.5t-21 16q-59 94 -90 248q-156 -29 -254 -37q-14 -2 -24 7t-11.5 22.5z" />
<glyph unicode="&#xb2;" horiz-adv-x="673" d="M17.5 1281.5q0.5 14.5 12 23t25 6.5t21.5 -13l20 -24q78 96 166 131q63 25 113 8q63 -18 88 -90q8 -31 -4 -82q-8 -39 -33 -96l-107 -232q-63 -141 -77 -206q-6 -27 -6 -62q59 -6 147 4q94 10 133 10l-4 35q-2 12 6 23.5t21.5 13.5t24 -7.5t14.5 -21.5l20 -141 q0 -12 -8 -23.5t-20.5 -13.5t-23.5 7.5t-14 21.5l-6 45q-39 -4 -135 -14q-100 -10 -155 -4q-51 6 -64 55q-8 33 6 86q14 72 84 221q96 213 103 227q23 53 32 91l4 36q-14 47 -45 56q-27 10 -69 -9q-41 -16 -81 -48.5t-67 -73.5q14 -18 13.5 -30.5t-11.5 -21.5 q-8 -10 -22.5 -8t-22.5 10l-71 86q-8 10 -7.5 24.5z" />
<glyph unicode="&#xb3;" horiz-adv-x="749" d="M56.5 1252.5q-3.5 13.5 4 24.5t21.5 14t24 -5l31 -18q61 109 156 149q59 25 108 10q61 -16 97 -79q45 -80 -47 -193q117 -23 165 -104q61 -102 38 -191.5t-107 -136.5q-70 -47 -176.5 -31.5t-208.5 105.5q-20 -18 -32.5 -18.5t-23 9t-10.5 22.5t10 26q8 8 15.5 15 t11.5 10t8 8t4 1t2 -4v19v-6l3 4l4 8t4 12l8 19q4 12 17.5 16t25.5 -1t17 -18.5t-1 -25.5l-20 -47q61 -55 118.5 -75.5t105.5 -16.5t85 26q61 35 76.5 95.5t-27.5 138.5q-49 80 -172 73q-4 -4 -9 -6t-7 -4q-12 -6 -23 -6q-29 -2 -43 21q-8 16 0 32l6 6l4 5q-2 -2 0 -2l9 10 l20 10q33 25 55 51q63 66 37 111q-20 41 -53 49q-31 10 -68 -8q-37 -16 -70.5 -49t-53.5 -70l-25 -25h35q6 -6 7 -19t-8 -22.5t-23.5 -11.5t-22.5 8l-29 25l-8 8q-4 2 -15 10l-34 23q-12 6 -15.5 19.5z" />
<glyph unicode="&#xb4;" horiz-adv-x="323" d="M18 1303q4 18 17 43q14 31 33 57q49 72 141 145q12 8 25.5 6t21.5 -12t6 -24.5t-10 -22.5q-86 -63 -129 -127q-6 -10 -29 -45q66 -6 82 -18q14 -6 19 -21q6 -16 -2 -33q-6 -14 -29 -26q-31 -14 -70 -13q-55 2 -74 41q-8 20 -2 50z" />
<glyph unicode="&#xb5;" horiz-adv-x="880" d="M38 1035.5q-1 13.5 8.5 23.5t21.5 12q139 10 196 23q14 2 25.5 -6.5t13.5 -20.5t-5 -24.5t-19 -14.5q-35 -6 -93 -12l29 -262q23 -207 31 -334l8 -92q2 -6 4 -13q6 -14 17.5 -43.5t18.5 -46t19.5 -40t22.5 -42.5q53 -78 131 -75q90 4 156 108q55 94 90 264q37 201 39 529 l-47 -11q-14 -4 -25.5 3.5t-16 20.5t4 24.5t18.5 13.5q88 20 150 39q14 4 25 -2t15.5 -19.5t-3 -25t-19.5 -15.5l-37 -12q0 -342 -41 -557q-35 -174 -98 -287l74 -86q8 -12 7 -25.5t-11.5 -22.5t-23.5 -7t-22 10l-65 76q-80 -80 -168 -84q-109 -6 -211 137v-53 q-4 -168 -41 -240q-4 -6 -18 -22l18 -23q6 -10 4 -23.5t-12 -21.5t-24.5 -6t-22.5 14q-37 53 -68 93q-10 10 -9 23.5t11 22.5t23.5 7t44.5 -31q27 90 29 209q4 129 -11 330q-10 125 -32 332l-29 258l-47 -2q-14 -2 -24.5 7t-11.5 22.5z" />
<glyph unicode="&#xb6;" horiz-adv-x="948" d="M35 969q-18 92 19.5 181t113.5 156.5t172 102.5q98 35 197 25q106 -10 194 -74q90 -68 148 -193q6 -12 0.5 -25.5t-17.5 -18.5t-24.5 -1t-19.5 20.5t-50 92.5q4 -223 2 -629q27 -4 35 -14t8 -23q-2 -12 -10 -20t-35 -12q-2 -322 6 -541h29q12 0 22.5 -9.5t10.5 -23.5 t-10.5 -23.5t-22.5 -9.5q-59 0 -121 7q-10 2 -19.5 12t-7.5 24q0 12 10.5 21.5t43.5 5.5q-9 219 -7 545q-78 10 -149 24q4 -285 12 -546q37 -6 41 -31q0 -14 -8 -24.5t-20 -12.5q-51 -6 -109 -12q-14 -2 -25.5 7t-12.5 22.5t8.5 23.5t19.5 12l41 4q-8 279 -13 574 q-55 16 -90 30q-319 135 -362 353zM100 979q37 -182 322 -301q20 -10 63 -23q-2 205 -2 402q0 27 6 160q5 87 5 153q-166 -8 -283 -110q-66 -59 -96.5 -132t-14.5 -149zM549 1057q0 -211 2 -422q68 -12 154 -23q3 477 -3 686q-59 45 -143 66q0 -70 -4 -154q-6 -125 -6 -153z " />
<glyph unicode="&#xb7;" horiz-adv-x="204" d="M59 798.5q0 14.5 9.5 23.5t23.5 9t23.5 -9t9.5 -23.5t-9.5 -23.5t-23.5 -9t-23.5 9t-9.5 23.5z" />
<glyph unicode="&#xb8;" horiz-adv-x="204" d="M-28 -138.5q1 13.5 12 23.5q41 37 51 73t10 108q0 14 9 23t22.5 9t24 -9t10.5 -23q0 -55 -4.5 -86t-22.5 -70t-57 -74q-8 -10 -22.5 -8t-24 11t-8.5 22.5z" />
<glyph unicode="&#xb9;" horiz-adv-x="448" d="M56.5 1275q3.5 13 15.5 19q14 6 67 52l39 26q6 6 12 8q6 6 6.5 6h2.5q12 6 20 5q33 -6 47 -48q10 -25 17 -67q8 -70 10 -189q0 -55 -4 -323h55q14 0 23.5 -9.5t9.5 -23.5t-9.5 -23.5t-23.5 -9.5q-145 0 -213 -14q-14 -2 -25.5 6t-13.5 20.5t5 25t20 14.5q43 8 106 14 q4 283 4 321q-2 117 -10 181q-2 14 -10 45l-25 -17q-59 -45 -78 -57q-12 -6 -24 -3t-19.5 15.5t-4 25.5z" />
<glyph unicode="&#xba;" horiz-adv-x="532" d="M82 1012q8 113 49 221q45 111 100 156q14 10 35 18q10 4 17 6h6l8 2q10 2 16 6q27 11 43 -18q57 -27 86 -92q41 -90 33 -230q-8 -129 -53 -231q-55 -119 -139 -127q-119 -12 -170 86q-43 76 -31 203zM145 1010q-8 -111 25 -170q31 -57 109 -52q43 6 81 91q41 88 50 208 q6 121 -27 195q-29 66 -80 66h-4q-20 -6 -27 -13q-43 -31 -79 -127q-39 -98 -48 -198z" />
<glyph unicode="&#xbb;" horiz-adv-x="874" d="M83 888.5q-1 14.5 7 24t22.5 10t24.5 -7.5l170 -153l99 -90q49 -47 61 -68q23 -39 4 -82l-6 -8l-4 -2l-4 -6h2l-10 -4l-29 -27l-92 -69q-137 -106 -162 -130q-8 -10 -22.5 -10t-23.5 9.5t-9 23.5t8 23q27 27 168 137l92 69l33 25v14q-10 16 -52 58l-96 90l-172 151 q-8 8 -9 22.5zM364.5 917.5q-2.5 12.5 8 22.5t23 12t24.5 -8q51 -47 188 -188q70 -70 111 -117q25 -29 35 -45q8 -12 14 -19q8 -14 6 -26q-2 -18 -18 -41q-10 -16 -29 -39l-88 -88l-90 -82q-55 -51 -66 -61q-8 -10 -22.5 -10.5t-23.5 9t-9 23.5t8 23q10 10 68 61l90 84 q55 51 84 86l29 35q-18 25 -37 45q-39 45 -109 119q-135 137 -186 182q-8 10 -10.5 22.5z" />
<glyph unicode="&#xbc;" horiz-adv-x="1435" d="M60.5 7q-3.5 13 4 24.5t21.5 14.5t25 -5l28 -18q61 80 129 184l127 196l609 908l-23 16q-10 8 -12 21.5t6 24.5t20.5 13t24.5 -6l29 -22q10 -6 12 -8t12 -9.5t11 -7.5t12.5 -7t25.5 -13q10 -6 14.5 -20.5t-3 -26t-20.5 -14.5t-26 3l-30 19l-606 -907l-127 -197 q-66 -98 -127 -180l14 -15q14 -10 16 -22t-5 -24.5t-20.5 -14.5t-23.5 6l-102 68q-12 6 -15.5 19zM82 1242.5q4 13.5 16 19.5q29 14 90 65l41 31q10 6 14.5 9t12.5 5q4 2 8 2q12 2 23 -6q12 -10 18 -27q4 -10 4 -24q6 -25 8 -70q6 -70 11 -188v-334h65q14 0 23.5 -9 t9.5 -23.5t-9 -24t-24 -9.5q-166 0 -213 -4q-14 -2 -24.5 7.5t-11.5 22.5t7.5 23.5t22.5 12.5q33 2 88 4v332q-4 117 -8 186q-2 10 -2 49q-90 -70 -125 -88q-10 -6 -22.5 -2t-19.5 15.5t-3 25zM823 307q4 10 17 23q14 12 12 10h4q6 12 10 18q35 51 43.5 73t18.5 44 q57 129 73 334q-43 -4 -57 -6q-12 -2 -23.5 6t-12.5 22.5t7.5 24.5t20.5 12q59 6 108 6q14 0 23.5 -9t9.5 -23q0 -12 -8 -25q-18 -227 -82 -371q-37 -76 -67 -127l131 15l143 12q-12 264 -33 469q-35 10 -35 35q2 14 11.5 24.5t23.5 8.5l70 -4q14 -2 23.5 -11.5t7.5 -21.5 q0 -23 -33 -37q18 -201 31 -459q59 6 81 6q14 0 24.5 -9t10.5 -22.5t-8 -23.5t-22 -10q-27 0 -84 -6q2 -98 6 -215v-25q37 4 51 4t24.5 -9t10.5 -22.5t-8.5 -23.5t-22.5 -10q-37 -2 -105.5 -7.5t-82.5 -5.5q-12 -2 -22.5 8.5t-11.5 22.5t8 22.5t26.5 12.5t78.5 6l-12 23 q-4 117 -6 215l-137 -13l-139 -14q-31 -2 -46 -4h-14h-6q-2 0 -6 1t-6 1q-6 2 -11 8q-18 20 -8 47z" />
<glyph unicode="&#xbd;" horiz-adv-x="1298" d="M73 7q-3 13 4 24.5t21.5 14.5t24.5 -5l29 -18q61 80 129 184l127 196l608 908l-23 16q-10 8 -12 21.5t6 24.5t20.5 13t24.5 -6l29 -22q10 -6 12 -8t12.5 -9.5t11.5 -7.5t12 -7t26 -13q10 -6 14 -20.5t-3 -26t-20.5 -14.5t-25.5 3l-31 19l-606 -907l-127 -197 q-66 -98 -127 -180l14 -15q14 -10 16.5 -22t-5 -24.5t-20.5 -14.5t-24 6l-102 68q-12 6 -15 19zM94.5 1242.5q4.5 13.5 16.5 19.5q29 14 90 65l41 31q10 6 14 9t12 5q4 2 8 2q12 2 23 -6q12 -10 18 -27q4 -10 5 -24q6 -25 8 -70q6 -70 10 -188v-334h66q14 0 23 -9t9 -23.5 t-9 -24t-23 -9.5q-166 0 -213 -4q-14 -2 -24.5 7.5t-11.5 22.5t7 23.5t22 12.5q33 2 88 4v332q-4 117 -8 186q-2 10 -2 49q-90 -70 -125 -88q-10 -6 -22.5 -2t-19.5 15.5t-2.5 25zM703.5 590q5.5 12 16.5 18t36 -2q43 82 101 122t116 40q66 2 101.5 -47t17.5 -131 q-18 -92 -131 -244l-91 -119q-39 -51 -77 -112q70 4 129 8q37 4 120 14q43 4 64 10q0 23 8 32t21 11q10 2 22 -6t14 -20q12 -68 27 -119q4 -12 -3 -24.5t-20.5 -15.5t-25.5 3t-14 21l-15 53q-31 -4 -69 -8q-84 -12 -121 -15q-78 -8 -123 -8q-27 0 -45 4q-31 4 -43 23 q-20 29 6 61q2 2 12 15l4 2q27 41 78 110l88 117q104 143 121 219q10 55 -8 82q-12 18 -45 18q-39 0 -83 -30.5t-75 -87.5v-9q4 -14 2 -24q-6 -12 -17 -18.5t-26 -2.5l-53 17q-12 6 -18.5 18.5t-1 24.5z" />
<glyph unicode="&#xbe;" horiz-adv-x="1552" d="M60 772q1 14 14 23l28 22h15q0 14 4 23l24 47q6 10 19.5 14t25 -2t15.5 -19.5t-2 -25.5q-12 -20 -23 -43v-10q23 -41 78 -70t115 -33q63 -2 103 24t48 81q8 72 -67 127q-18 12 -60 35q-16 10 -24 14q-20 12 -23 31q-8 27 17 45q6 6 22 8q2 0 7 2t14 2q90 84 39 178 q-23 37 -46 47q-20 10 -45 -2q-53 -20 -94 -100l12 -12q10 -10 11.5 -23.5t-8 -23t-22.5 -11.5t-24 8q-10 8 -20 19l-8 8q-2 2 -8.5 7t-9.5 6t-13 8l-24 18q-12 8 -14.5 20.5t6 24.5t20.5 14t22 -6l27 -16q55 94 123 123q49 16 94 2q45 -18 78 -78q35 -74 21.5 -136.5 t-83.5 -129.5q37 -20 52 -31q106 -76 94 -186q-12 -86 -80 -129q-55 -37 -139 -31q-66 2 -130.5 30.5t-113.5 90.5l-14 -15q-10 -8 -23.5 -6t-22 12.5t-7.5 24.5zM127 7q-4 13 4 24.5t21.5 14.5t23.5 -5l31 -18q59 80 127 184l127 196l608 908l-20 16q-12 8 -14.5 21.5 t6 24.5t21.5 13t23 -6l29 -22q12 -6 14 -8t11.5 -9.5t10.5 -7.5t13.5 -7t24.5 -13t15 -20.5t-3 -26t-20.5 -14.5t-24.5 3l-33 19l-606 -907l-127 -197q-66 -98 -127 -180l17 -15q12 -10 14 -22t-5 -24.5t-20.5 -14.5t-23.5 6l-103 68q-10 6 -14 19zM889 307q4 10 16 23 q14 12 13 10h6q6 12 8 18q35 51 43 73t18 44q59 129 74 334q-41 -4 -55 -6t-25.5 6t-12.5 22.5t7.5 24.5t22.5 12q57 6 108 6q12 0 22.5 -9t10.5 -23q0 -12 -10 -25q-16 -227 -82 -371q-35 -76 -68 -127l131 15l144 12q-10 264 -33 469q-35 10 -33 35q0 14 10 24.5t23 8.5 l69 -4q14 -2 23.5 -11.5t9.5 -21.5q-2 -23 -35 -37q20 -201 31 -459q59 6 84 6q14 0 24.5 -9t10.5 -22.5t-9.5 -23.5t-21.5 -10q-29 0 -84 -6q2 -98 6 -215v-25q35 4 51 4q14 0 24.5 -9t10.5 -22.5t-9 -23.5t-21 -10q-39 -2 -108 -7.5t-83 -5.5q-10 -2 -21.5 8.5t-12.5 22.5 t9.5 22.5t27 12.5t77.5 6l-10 23q-4 117 -6 215l-140 -13l-139 -14q-31 -2 -45 -4h-12h-6q-2 0 -6.5 1t-8.5 1q-4 2 -10 8q-18 20 -8 47z" />
<glyph unicode="&#xbf;" horiz-adv-x="909" d="M119 68q-127 150 18 395q23 37 121 178q68 98 86 147q41 111 -20 310h-27q-12 0 -21.5 10t-9.5 23.5t10.5 22.5t24.5 9q57 -2 64 -4q6 0 22 -4l43 -12q14 -2 21.5 -13.5t3.5 -23.5q-2 -12 -12.5 -20.5t-47.5 -4.5q53 -197 13 -313q-23 -57 -95 -164q-96 -141 -120 -176 q-37 -66 -55.5 -118t-11.5 -104t42 -97q59 -68 139 -64q74 2 158 64q66 47 120 115.5t95 160.5l-49 -10q-14 -2 -25.5 6t-13.5 20.5t5 24.5t19 14q106 20 187 27q14 2 24.5 -7t11.5 -22.5t-8.5 -24t-23.5 -12.5l-59 -6q-23 -94 -91.5 -186t-152.5 -154q-100 -72 -195 -75 q-113 -6 -190 88zM303 1345.5q0 14.5 10.5 23.5t23.5 9t22.5 -9t9.5 -23.5t-9.5 -23.5t-22.5 -9t-23.5 9t-10.5 23.5z" />
<glyph unicode="&#xc0;" horiz-adv-x="1470" d="M41 30.5q0 14.5 9 23.5t24 9h112l123 338l-147 -24v-19q0 -14 -9.5 -23t-23.5 -9t-23.5 9t-9.5 23q0 51 -4 129q0 14 9.5 23.5t22.5 10.5t22.5 -8t11.5 -24l4 -47l172 29l194 600l64 184q23 76 41 119q10 27 16 41l8 12l7 11q12 10 30 8q14 -2 27 -19q4 -6 10 -16 q8 -18 17 -47q14 -47 34 -129q10 -43 20.5 -91t18.5 -81t8 -37q43 -178 75 -290.5t87.5 -265.5t129 -276.5t173.5 -232.5l84 59q12 8 24.5 6.5t21 -14t6 -25t-14.5 -20.5q-29 -20 -196 -149q-10 -8 -24.5 -6t-23 12t-6.5 24.5t13 22.5l65 49q-195 209 -319 547 q-219 -2 -541 -55q-63 -178 -129 -349h76q14 0 23 -9t9 -23.5t-9 -23.5t-23 -9h-121h-2h-2h-131q-14 0 -23.5 9t-9.5 23.5zM406 483q287 43 493 49q-61 182 -131 476q-2 6 -9 39.5t-20 82.5l-20 89q-8 39 -31 118l-37 -102q-53 -156 -61 -182zM561 1651.5q0 13.5 9.5 24 t22.5 10t21 -10.5q121 -111 205 -166q10 -6 13.5 -19t-4 -24.5t-20.5 -14.5t-24 5q-90 57 -213 174q-10 8 -10 21.5z" />
<glyph unicode="&#xc1;" horiz-adv-x="1464" d="M23 30.5q0 14.5 9 23.5t23 9h113l123 338l-148 -24v-19q0 -14 -9 -23t-23.5 -9t-23.5 9t-9 23q0 51 -4 129q0 14 9 23.5t22.5 10.5t22.5 -8t11 -24l4 -47l172 29l195 600l63 184q23 76 41 119q10 27 17 41l8 12l6 11q12 10 31 8q14 -2 26 -19q4 -6 11 -16q8 -18 16 -47 q14 -47 35 -129q10 -43 20.5 -91t18.5 -81t8 -37q43 -178 75 -290.5t87 -265.5t129 -276.5t174 -232.5l84 59q12 8 24.5 6.5t20.5 -14t6 -25t-14 -20.5q-29 -20 -197 -149q-10 -8 -24.5 -6t-22.5 12t-6 24.5t12 22.5l66 49q-195 209 -320 547q-219 -2 -540 -55 q-63 -178 -129 -349h75q14 0 23.5 -9t9.5 -23.5t-9 -23.5t-24 -9h-121h-2h-2h-131q-14 0 -23 9t-9 23.5zM387 483q287 43 494 49q-61 182 -131 476q-2 6 -9.5 39.5t-19.5 82.5l-21 89q-8 39 -30 118l-37 -102q-53 -156 -62 -182zM553 1522.5q4 13.5 16 19.5q84 37 195 133 q12 10 25.5 8t22.5 -12t7 -23.5t-10 -21.5q-121 -102 -211 -145q-12 -4 -25.5 0t-18.5 16t-1 25.5z" />
<glyph unicode="&#xc2;" horiz-adv-x="1482" d="M35 30.5q0 14.5 9 23.5t24 9h112l123 338l-147 -24v-19q0 -14 -9.5 -23t-23.5 -9t-23.5 9t-9.5 23q0 51 -4 129q0 14 9 23.5t22.5 10.5t23 -8t11.5 -24l4 -47l172 29l194 600l64 184q23 76 41 119q10 27 16 41l8 12l6 11q12 10 31 8q14 -2 27 -19q4 -6 10 -16 q8 -18 16 -47q14 -47 35 -129q10 -43 20.5 -91t18.5 -81t8 -37q43 -178 75 -290.5t87 -265.5t129 -276.5t174 -232.5l84 59q12 8 24.5 6.5t20.5 -14t6 -25t-14 -20.5q-29 -20 -197 -149q-10 -8 -24 -6t-22.5 12t-6.5 24.5t12 22.5l66 49q-195 209 -319 547q-219 -2 -541 -55 q-63 -178 -129 -349h76q14 0 23 -9t9 -23.5t-9 -23.5t-23 -9h-121h-2h-2h-131q-14 0 -23.5 9t-9.5 23.5zM399 483q287 43 494 49q-61 182 -131 476q-2 6 -9.5 39.5t-19.5 82.5l-20 89q-8 39 -31 118l-37 -102q-53 -156 -61 -182zM516 1494.5q0 13.5 8 23.5l58 65l51 51 q49 51 88 47t84 -61l26 -35q12 -20 35 -53l41 -55q8 -12 6 -25.5t-13 -22t-25.5 -6.5t-22.5 15l-37 55l-39 53l-24 33q-14 23 -37 39l-35 -29q-14 -14 -49 -55l-58 -61q-10 -10 -23 -10.5t-23.5 9t-10.5 23z" />
<glyph unicode="&#xc3;" horiz-adv-x="1458" d="M35 30.5q0 14.5 9 23.5t24 9h112l123 338l-147 -24v-19q0 -14 -9.5 -23t-23.5 -9t-23.5 9t-9.5 23q0 51 -4 129q0 14 9 23.5t22.5 10.5t23 -8t11.5 -24l4 -47l172 29l194 600l64 184q23 76 41 119q10 27 16 41l8 12l6 11q12 10 31 8q14 -2 27 -19q4 -6 10 -16 q8 -18 16 -47q14 -47 35 -129q10 -43 20.5 -91t18.5 -81t8 -37q43 -178 75 -290.5t87 -265.5t129 -276.5t174 -232.5l84 59q12 8 24.5 6.5t20.5 -14t6 -25t-14 -20.5q-29 -20 -197 -149q-10 -8 -24 -6t-22.5 12t-6.5 24.5t12 22.5l66 49q-195 209 -319 547q-219 -2 -541 -55 q-63 -178 -129 -349h76q14 0 23 -9t9 -23.5t-9 -23.5t-23 -9h-121h-2h-2h-131q-14 0 -23.5 9t-9.5 23.5zM399 483q287 43 494 49q-61 182 -131 476q-2 6 -9.5 39.5t-19.5 82.5l-20 89q-8 39 -31 118l-37 -102q-53 -156 -61 -182zM485 1513.5q-4 12.5 2 24.5q68 131 140 123 q45 -4 110 -74q47 -53 66 -57q6 0 13 2t26.5 21.5t38.5 56.5q6 12 19 16t24.5 -2t15.5 -19.5t-2 -23.5q-68 -125 -143 -117q-43 6 -107 78q-47 51 -70 55q-35 -10 -73 -90q-6 -10 -18.5 -14t-25 2t-16.5 18.5z" />
<glyph unicode="&#xc4;" horiz-adv-x="1476" d="M35 30.5q0 14.5 9 23.5t24 9h112l123 338l-147 -24v-19q0 -14 -9.5 -23t-23.5 -9t-23.5 9t-9.5 23q0 51 -4 129q0 14 9 23.5t22.5 10.5t23 -8t11.5 -24l4 -47l172 29l194 600l64 184q23 76 41 119q10 27 16 41l8 12l6 11q12 10 31 8q14 -2 27 -19q4 -6 10 -16 q8 -18 16 -47q14 -47 35 -129q10 -43 20.5 -91t18.5 -81t8 -37q43 -178 75 -290.5t87 -265.5t129 -276.5t174 -232.5l84 59q12 8 24.5 6.5t20.5 -14t6 -25t-14 -20.5q-29 -20 -197 -149q-10 -8 -24 -6t-22.5 12t-6.5 24.5t12 22.5l66 49q-195 209 -319 547q-219 -2 -541 -55 q-63 -178 -129 -349h76q14 0 23 -9t9 -23.5t-9 -23.5t-23 -9h-121h-2h-2h-131q-14 0 -23.5 9t-9.5 23.5zM399 483q287 43 494 49q-61 182 -131 476q-2 6 -9.5 39.5t-19.5 82.5l-20 89q-8 39 -31 118l-37 -102q-53 -156 -61 -182zM561 1556.5q0 14.5 9.5 23.5t23.5 9t23.5 -9 t9.5 -23.5t-9.5 -23.5t-23.5 -9t-23.5 9t-9.5 23.5zM727 1552.5q0 14.5 9 23.5t23.5 9t24 -9t9.5 -23.5t-9.5 -23.5t-24 -9t-23.5 9t-9 23.5z" />
<glyph unicode="&#xc5;" horiz-adv-x="1445" d="M23 30.5q0 14.5 9 23.5t23 9h113l123 338l-148 -24v-19q0 -14 -9 -23t-23.5 -9t-23.5 9t-9 23q0 51 -4 129q0 14 9 23.5t22.5 10.5t22.5 -8t11 -24l4 -47l172 29l195 600l63 184l37 113q-92 27 -129 70q-45 53 -28 116q12 59 68.5 102.5t133.5 53.5q96 12 160 -19.5 t74 -95.5q8 -59 -35 -111t-135 -87l10 -33q14 -47 35 -129q10 -43 20.5 -91t18.5 -81t8 -37q43 -178 75 -290.5t87 -265.5t129 -276.5t174 -232.5l84 59q12 8 24.5 6.5t20.5 -14t6 -25t-14 -20.5q-29 -20 -197 -149q-10 -8 -24.5 -6t-22.5 12t-6 24.5t12 22.5l66 49 q-195 209 -320 547q-219 -2 -540 -55q-63 -178 -129 -349h75q14 0 23.5 -9t9.5 -23.5t-9 -23.5t-24 -9h-121h-2h-2h-131q-14 0 -23 9t-9 23.5zM387 483q287 43 494 49q-61 182 -131 476q-2 6 -9.5 39.5t-19.5 82.5l-21 89q-8 39 -30 118l-37 -102q-53 -156 -62 -182z M514 1542q-4 -37 16 -59q31 -35 111 -53q16 18 39 16q10 10 18 12q70 23 99 60q33 37 26 67q-4 14 -15 30.5t-51 26t-93 3.5q-59 -6 -99.5 -37t-50.5 -66z" />
<glyph unicode="&#xc6;" horiz-adv-x="1992" d="M41 30.5q0 14.5 9 23.5t24 9h112l123 338l-147 -24v-19q0 -14 -9.5 -23t-23.5 -9t-23.5 9t-9.5 23q0 51 -4 129q0 14 9.5 23.5t22.5 10.5t22.5 -8t11.5 -24l4 -47l172 29l194 600l64 184q23 76 41 119q10 27 16 41l8 12l7 11q12 10 26 8q6 -2 15 -2q111 16 360 24 q238 8 352 21v41q0 14 9.5 23.5t23.5 9.5t23.5 -9.5t9.5 -23.5v-19v-14v-8v-6v-4q0 -8 4 -13l2 -4q2 -4 5 -14t9 -23q2 -10 -4 -23t-18.5 -17.5t-24.5 2t-16 18.5l-6 20q-123 -14 -365 -22q-205 -6 -326 -21q18 -66 39 -147q10 -43 20.5 -91t18.5 -81t8 -37 q72 -295 129 -469q78 10 157 13t126 3t149.5 -3t168.5 -3l-27 29q-4 8 0 21.5t16.5 18.5t25.5 1t19 -16l52 -121q4 -12 -1.5 -24.5t-17.5 -17.5t-24.5 0t-18.5 17l-12 27q-57 0 -184 3t-214.5 2t-191.5 -11q127 -338 315 -537q227 111 568 59l-11 31q-2 12 6.5 22.5 t22.5 12.5t24.5 -6.5t12.5 -22.5q2 -18 3 -29.5t1 -16.5t1 -8t1 -8t2 -7t3 -5.5t3 -6.5t5.5 -10l7.5 -15q4 -14 0 -26.5t-17.5 -17.5t-26 -1t-18.5 16l-14 33h-19q-330 55 -546 -62q-23 -14 -41 9l-4 6q-203 201 -336 561q-219 -2 -541 -55q-63 -178 -129 -349h76 q14 0 23 -9t9 -23.5t-9 -23.5t-23 -9h-121h-2h-2h-131q-14 0 -23.5 9t-9.5 23.5zM406 483q283 43 471 49l16 17q-55 168 -125 459q-2 6 -9 39.5t-20 82.5l-20 89q-8 39 -31 118l-37 -102q-53 -156 -61 -182z" />
<glyph unicode="&#xc7;" d="M58.5 370.5q-38.5 243.5 52.5 557.5q37 127 114.5 263t157.5 202q47 37 92 45q55 8 96 -31q76 -70 99 -322q47 2 73 2q14 0 23.5 -9t9.5 -23.5t-9 -23.5t-24 -9q-4 0 -194 -10q-12 -2 -21.5 8t-11.5 23.5t7 22.5t24 11q16 0 55 4q-16 225 -76 279q-16 16 -39 14 q-29 -4 -61 -33q-72 -59 -145.5 -186t-108.5 -248q-59 -197 -59 -372t43 -287.5t116 -165.5q111 -78 244 14q158 113 297 434q-47 31 -74 52q-12 10 -13 23t8 23.5t22.5 12.5t23.5 -6q55 -47 189 -123q12 -6 15 -19.5t-4 -25.5t-19.5 -15t-24.5 3l-68 41 q-145 -334 -315 -451q-109 -78 -231 -57l-9 -72l-4 -35h41q35 0 60 -6q39 -6 57 -29q29 -37 14 -86q-27 -96 -112 -129q-61 -25 -162 -12q-14 2 -22.5 12.5t-7.5 24.5t12.5 22.5t25.5 6.5q82 -10 131 8q53 20 74 90v20q-16 8 -25 9q-16 4 -47 4h-49h-18q-6 0 -11 2 q-14 2 -22 12q-6 6 -6 14v4v2v3v8q0 4 2 14q2 16 4 47l10 90l-22 17q-139 98 -177.5 341.5z" />
<glyph unicode="&#xc8;" horiz-adv-x="890" d="M80 657q16 438 55 676q-4 2 -4 -2q-2 16 6 26.5t23 12.5q51 6 198 35q131 25 213 33l-6 43q-2 14 6.5 24.5t22.5 12.5t24.5 -6.5t12.5 -22.5l16 -133q2 -14 -6 -24.5t-22.5 -12.5t-24.5 6t-12 21v28q-80 -8 -211 -33q-123 -25 -174 -32q-37 -254 -52 -672q70 12 122 26.5 t124 37t125 36.5q-10 18 -10 29v20q0 14 9 24.5t22.5 10.5t23.5 -9t10 -21v-23q0 -12 1 -16t1 -7v-4v-2q0 -4 5 -18l14 -45q4 -14 -2 -25.5t-19.5 -15.5t-24.5 2t-16 16v21q-43 -10 -124.5 -36t-138 -41t-124.5 -26q-4 -193 4 -311q4 -86 17 -137q10 -49 22 -57 q29 -27 105 -25q68 0 170 25q156 39 301 106l-14 43q-4 10 2 22.5t18 16.5t24.5 -2t16.5 -19q23 -68 49 -124q4 -12 0 -25.5t-16.5 -19t-25.5 -1t-19 16.5l-13 31q-154 -70 -309 -109q-109 -27 -184 -27q-100 -2 -150 41q-27 23 -41 95q-12 55 -18 145q-10 156 -2 401z M216 1616.5q-3 13.5 4 25t21.5 14.5t22.5 -3l35 -25q16 -8 18 -10t13.5 -8t14.5 -7t20 -12l38 -18q10 -6 14.5 -18.5t-1.5 -24.5t-18.5 -16.5t-24.5 2.5q-20 8 -40 18t-23 11t-12 6t-11 7.5t-23 16.5l-35 22q-10 6 -13 19.5z" />
<glyph unicode="&#xc9;" horiz-adv-x="890" d="M80 664q16 432 55 669q-4 2 -4 -2q-2 16 6 26.5t23 12.5q51 6 198 35q131 25 213 33l-6 43q-2 14 6.5 24.5t22.5 12.5t24.5 -6.5t12.5 -22.5l16 -133q2 -14 -6 -24.5t-22.5 -12.5t-24.5 6t-12 21v28q-80 -8 -211 -33q-123 -25 -174 -32q-37 -254 -52 -650v-20 q70 10 121 24.5t124 37t126 36.5q-10 18 -10 29v20q0 14 9 24.5t22.5 10.5t23.5 -9t10 -21v-23q0 -12 1 -16t1 -7v-4v-2q0 -4 5 -18l14 -45q4 -14 -2 -25.5t-19.5 -15.5t-24.5 2t-16 16v21q-43 -10 -125.5 -36t-138 -41t-123.5 -26q-4 -184 4 -299q4 -86 17 -137 q10 -49 22 -57q29 -25 100.5 -24t174.5 24q145 37 295 102l-8 29q-4 12 2 24.5t18 16.5t24.5 -2t16.5 -19q23 -68 49 -125q4 -12 0 -25t-16.5 -18.5t-25.5 -1.5t-19 17l-19 45q-156 -70 -303 -105q-111 -27 -184 -28q-100 0 -150 41q-27 23 -41 92q-12 55 -18 145 q-10 154 -2 398zM201 1510.5q4 13.5 16 19.5q35 14 68.5 37.5t52 39t63.5 54.5q8 10 21.5 8t24 -11t8.5 -22.5t-13 -23.5q-2 -4 -10 -10q-111 -98 -186 -134q-12 -4 -25.5 0.5t-18.5 16.5t-1 25.5z" />
<glyph unicode="&#xca;" horiz-adv-x="878" d="M80 659q16 436 55 674q-4 2 -4 -2q-2 16 6 26.5t23 12.5q51 6 198 35q131 25 213 33l-6 43q-2 14 6.5 24.5t22.5 12.5t24.5 -6.5t12.5 -22.5l16 -133q2 -14 -6 -24.5t-22.5 -12.5t-24.5 6t-12 21v28q-80 -8 -211 -33q-123 -25 -174 -32q-37 -254 -52 -672q70 12 121 26.5 t124 37t126 36.5q-10 18 -10 29v20q0 14 9 24.5t22.5 10.5t23.5 -9t10 -21v-23q0 -12 1 -16t1 -7v-4v-2q0 -4 5 -18l14 -45q4 -14 -2 -25.5t-19.5 -15.5t-24.5 2t-16 16v21q-43 -10 -125.5 -36t-138 -41t-123.5 -26q-4 -190 4 -307q4 -86 17 -139q10 -49 22 -57 q29 -25 100.5 -25t172.5 25q141 35 291 98l-15 47q-4 12 2 24.5t18.5 16.5t25 -2t16.5 -19q23 -68 49 -124q4 -12 0 -25.5t-16.5 -19t-25.5 -1t-20 16.5l-8 29q-160 -68 -301 -103q-109 -29 -186 -29q-100 -2 -148 41q-27 25 -41 95q-12 55 -18 147q-10 154 -2 399z M197 1540q41 102 51 121q29 55 61 63q37 10 80 -34q25 -25 86 -103q8 -10 6 -24.5t-12 -22.5t-24.5 -6t-22.5 12q-57 76 -78 99l-20 20l-17 -33q-8 -18 -49 -116q-6 -12 -18.5 -17.5t-24.5 -0.5t-17 17.5t-1 24.5z" />
<glyph unicode="&#xcb;" horiz-adv-x="897" d="M72 326q-4 94 4 225q0 29 6 102q4 63 6 119q2 41 6 133q2 96 5 146.5t10.5 130.5t17.5 143v6q-2 16 6 26.5t23 12.5q51 6 198 35q131 25 213 33l-6 43q-2 14 6 24.5t22.5 12.5t25 -6.5t12.5 -22.5l16 -133q2 -14 -6 -24.5t-22.5 -12.5t-24.5 6t-12 21v28q-80 -8 -211 -33 q-123 -25 -177 -32q-10 -72 -16 -145.5t-9 -124t-5 -142.5l-6 -129q-4 -59 -7 -131q68 14 119 27.5t121 36t125 36.5q-10 18 -10 29v20q0 14 9 24.5t22.5 10.5t23.5 -9t10 -21v-23q0 -12 1 -16t1 -7v-4v-2q0 -4 4 -18l15 -45q4 -14 -2 -25.5t-19.5 -15.5t-25 2t-15.5 16v23 q-45 -14 -125 -39l-137 -39q-55 -16 -123 -27v-24q-8 -125 -4 -217q6 -145 6 -150q10 -96 39 -121t101.5 -23.5t173.5 23.5q150 37 295 107l-11 33q-4 10 2.5 22t18.5 16.5t24.5 -2t16.5 -18.5q23 -68 49 -125q4 -12 0 -25.5t-16.5 -18.5t-25.5 -1t-19 16l-17 41 q-154 -70 -303 -106q-106 -27 -184 -29q-100 -2 -150 41q-45 41 -57 162q-2 8 -8 154zM254 1562.5q0 14.5 9 23.5t23.5 9t23.5 -9t9 -23.5t-9 -23.5t-23.5 -9t-23.5 9t-9 23.5zM408 1562.5q0 14.5 9 23.5t23.5 9t23.5 -9t9 -23.5t-9 -23.5t-23.5 -9t-23.5 9t-9 23.5z" />
<glyph unicode="&#xcc;" horiz-adv-x="962" d="M37 1413q0 14 9 24.5t22.5 10.5t23.5 -9t10 -22l2 -57q195 2 662 51l-6 55q-2 12 7 22.5t22.5 12.5t23.5 -7t12 -24q6 -70 13 -118q2 -14 -6.5 -24.5t-22.5 -12.5q-25 -2 -39 31q-250 -27 -311 -33q16 -217 39.5 -616.5t40.5 -612.5q16 0 325 33l-6 49q-2 12 7 22.5 t22.5 12.5t24 -7.5t12.5 -23.5q8 -86 12 -117q2 -14 -6 -24.5t-23 -12.5q-27 -2 -41 35q-485 -51 -673 -53q-6 -39 -31 -41q-14 -2 -24.5 6t-12.5 23q-6 51 -16 114q-2 14 6 25.5t21.5 13.5t24.5 -6t13 -20l6 -50q133 2 293 15q-16 217 -39.5 616.5t-40.5 614.5 q-154 -12 -287 -15q-6 -37 -30 -39q-14 0 -24.5 9.5t-10.5 21.5q-2 57 -4 127zM250 1607.5q-2 14.5 6 26t21.5 13t25.5 -6.5q117 -82 186 -114q14 -8 18.5 -20.5t-1.5 -25t-18.5 -16.5t-24.5 0q-76 37 -199 121q-12 8 -14 22.5z" />
<glyph unicode="&#xcd;" horiz-adv-x="962" d="M37 1413q0 14 9 24.5t22.5 10.5t23.5 -9t10 -22l2 -57q195 2 662 51l-6 55q-2 12 7 22.5t22.5 12.5t23.5 -7t12 -24q6 -70 13 -118q2 -14 -6.5 -24.5t-22.5 -12.5q-25 -2 -39 31q-250 -27 -311 -33q16 -217 39.5 -616.5t40.5 -612.5q16 0 325 33l-6 49q-2 12 7 22.5 t22.5 12.5t24 -7.5t12.5 -23.5q8 -86 12 -117q2 -14 -6 -24.5t-23 -12.5q-27 -2 -41 35q-485 -51 -673 -53q-6 -39 -31 -41q-14 -2 -24.5 6t-12.5 23q-6 51 -16 114q-2 14 6 25.5t21.5 13.5t24.5 -6t13 -20l6 -50q133 2 293 15q-16 217 -39.5 616.5t-40.5 614.5 q-154 -12 -287 -15q-6 -37 -30 -39q-14 0 -24.5 9.5t-10.5 21.5q-2 57 -4 127zM307 1509.5q2 14.5 12 22.5l101 82q63 53 104 82q12 8 25.5 6t22 -14.5t6 -25.5t-14.5 -20q-41 -29 -100 -77l-103 -86q-10 -8 -24 -6t-22.5 12t-6.5 24.5z" />
<glyph unicode="&#xce;" horiz-adv-x="956" d="M31 1413q0 14 9 24.5t22.5 10.5t23.5 -9t10 -22l2 -57q195 2 662 51l-6 55q-2 12 7 22.5t22.5 12.5t23.5 -7t12 -24q6 -70 12 -118q2 -14 -6 -24.5t-22 -12.5q-25 -2 -39 31q-250 -27 -311 -33q16 -217 39.5 -616.5t39.5 -612.5q16 0 326 33l-6 49q-2 12 7 22.5 t22.5 12.5t24 -7.5t12.5 -23.5q8 -86 12 -117q2 -14 -6.5 -24.5t-22.5 -12.5q-27 -2 -41 35q-485 -51 -674 -53q-6 -39 -30 -41q-14 -2 -24.5 6t-12.5 23q-6 51 -17 114q-2 14 6.5 25.5t21.5 13.5t24.5 -6t13.5 -20l6 -50q133 2 293 15q-16 217 -40 616.5t-40 614.5 q-154 -12 -287 -15q-6 -37 -30 -39q-14 0 -24.5 9.5t-10.5 21.5q-2 57 -4 127zM246 1457.5q-4 13.5 2 23.5q80 152 82 153q43 70 82 74q43 6 92 -53q25 -29 104 -146q8 -12 6 -25.5t-14 -21.5t-25.5 -6t-19.5 14q-80 117 -102 144q-10 14 -33 31q-18 -23 -33 -43l-82 -150 q-6 -12 -19.5 -16t-24.5 2t-15 19.5z" />
<glyph unicode="&#xcf;" horiz-adv-x="968" d="M43 1413q0 14 9 24.5t22.5 10.5t24 -9t10.5 -22l2 -57q195 2 661 51l-6 55q-2 12 7 22.5t22.5 12.5t23.5 -7t12 -24q6 -70 13 -118q2 -14 -6.5 -24.5t-22.5 -12.5q-25 -2 -39 31q-250 -27 -311 -33q16 -217 39.5 -616.5t40.5 -612.5q16 0 325 33l-6 49q-2 12 7.5 22.5 t22.5 12.5t23.5 -7.5t12.5 -23.5q8 -86 12 -117q2 -14 -6 -24.5t-23 -12.5q-27 -2 -41 35q-485 -51 -673 -53q-6 -39 -31 -41q-14 -2 -24.5 6t-12.5 23q-6 51 -16 114q-2 14 6 25.5t21.5 13.5t24.5 -6t13 -20l6 -50q133 2 293 15q-16 217 -39.5 616.5t-40.5 614.5 q-154 -12 -286 -15q-6 -37 -31 -39q-14 0 -24.5 9.5t-10.5 21.5q-2 57 -4 127zM283 1552.5q0 14.5 9 23.5t23.5 9t23.5 -9t9 -23.5t-9 -23.5t-23.5 -9t-23.5 9t-9 23.5zM496 1556.5q0 14.5 9 23.5t23.5 9t23.5 -9t9 -23.5t-9 -23.5t-23.5 -9t-23.5 9t-9 23.5z" />
<glyph unicode="&#xd0;" horiz-adv-x="1091" d="M39 749.5q0 14.5 9 23.5t24 9h96q0 242 -4 465l-53 -55q-8 -10 -22.5 -10t-24 9t-9.5 23.5t11 22.5q51 53 76.5 95t60.5 124q2 12 15 17.5t25.5 1t17.5 -17.5t1 -25l-20 -56q51 16 92 31q98 33 198 27t186.5 -40t155.5 -106q70 -76 107 -182q47 -125 35 -251 t-59.5 -233.5t-131.5 -207.5q-109 -133 -262.5 -238t-329.5 -168q25 -41 37 -63q4 -12 0 -25.5t-16 -18.5t-25.5 -1t-19.5 16q-12 31 -30.5 57.5t-51.5 66.5t-45 58q-8 8 -6 22.5t12 23t24.5 6t22.5 -14.5l31 -31q0 111 1 301.5t1 311.5h-96q-14 0 -23.5 9t-9.5 23.5z M229 1266q2 -207 4 -480q100 4 175 13q14 2 24 -6.5t12 -22.5t-6 -24.5t-22 -12.5q-83 -8 -183 -12q0 -125 -1 -326.5t-1 -316.5q168 63 306 158q137 98 237 219q256 309 146 630q-63 178 -223 246t-345 15q-66 -20 -86 -35q-18 -12 -37 -45z" />
<glyph unicode="&#xd1;" d="M5 1426.5q1 13.5 10.5 22.5t23.5 9q80 -4 201 17q14 2 24 -6.5t12.5 -21.5t-5 -24.5t-19.5 -13.5l-47 -6q0 -152 -4 -395q68 150 108 215q176 289 373 250q109 -23 164 -142q23 -51 37 -127q14 -72 18 -110l8 -121q4 -125 4 -191.5t-2 -204t-2 -208.5q0 -346 64 -551 q55 18 108 35q12 4 24.5 -2.5t16.5 -18.5t-2 -24.5t-18 -16.5q-158 -49 -264 -104q-12 -6 -25.5 -2t-20 16t-2 24.5t16.5 18.5q45 25 104 47q-68 217 -67 578q0 72 2 206l2 203q2 66 -4 187q-4 84 -8 122q-4 41 -16.5 104.5t-35.5 111.5q-41 90 -116 104q-150 33 -306 -219 q-57 -96 -102 -210t-63 -202q-12 -506 -13 -739h41q14 0 23.5 -9.5t9.5 -23.5t-9 -23.5t-24 -9.5q-66 0 -143 -4q-12 -2 -21.5 8.5t-11.5 23.5t7.5 22.5t25.5 11.5l37 4q0 233 12 729l-4 10l4 4q8 381 8 613q-61 -2 -104 0q-12 2 -21.5 11t-8.5 22.5zM358.5 1559.5 q-3.5 13.5 6.5 25.5q57 90 120 96q43 2 105 -39q47 -33 72 -32q33 -2 77 53q8 10 22.5 12t25 -6t12.5 -22.5t-6 -24.5q-68 -82 -138 -78q-39 2 -102 43q-43 29 -64 29q-31 -2 -71 -68q-6 -10 -19.5 -13t-25 4t-15 20.5z" />
<glyph unicode="&#xd2;" horiz-adv-x="935" d="M72 768q18 274 121 459q121 215 307 221h6q12 2 20 -4q102 -63 179 -160.5t119 -207t61.5 -234.5t13.5 -244q-4 -117 -29 -229q-18 -88 -59 -164t-104.5 -139.5t-145.5 -83t-186 11.5q-168 53 -252 295q-70 209 -51 479zM137 764q-16 -258 49 -457q72 -207 207 -252 q152 -47 264.5 53.5t151.5 272.5q23 106 27 219t-13.5 227.5t-56.5 216t-105.5 190.5t-160.5 148q-152 -8 -250 -186q-94 -172 -113 -432zM355.5 1642.5q-3.5 12.5 3 24.5t18.5 16t24 -2q45 -23 127 -71.5t113 -65.5q10 -6 14 -19.5t-2 -24.5t-19 -15t-26 2l-110 63 q-80 49 -127 74q-12 6 -15.5 18.5z" />
<glyph unicode="&#xd3;" horiz-adv-x="942" d="M72 768q18 274 121 459q121 215 307 221h6q12 2 20 -4q102 -63 179 -160.5t119 -207t61.5 -234.5t13.5 -244q-4 -117 -29 -229q-18 -88 -59 -164t-104.5 -139.5t-145.5 -83t-186 11.5q-168 53 -252 295q-70 209 -51 479zM137 764q-16 -258 49 -457q72 -207 207 -252 q152 -47 264.5 53.5t151.5 272.5q23 106 27 219t-13.5 227.5t-56.5 216t-105.5 190.5t-160.5 148q-152 -8 -250 -186q-94 -172 -113 -432zM353.5 1553.5q3.5 13.5 13.5 19.5q94 61 219 162q10 8 24.5 6t22.5 -12.5t6 -24.5t-12 -23q-129 -100 -226 -161q-10 -8 -23 -5 t-20.5 14t-4 24.5z" />
<glyph unicode="&#xd4;" horiz-adv-x="944" d="M72 768q18 274 121 459q121 215 307 221h6q12 2 20 -4q102 -63 179 -160.5t119 -207t61.5 -234.5t13.5 -244q-4 -117 -29 -229q-18 -88 -59 -164t-104.5 -139.5t-145.5 -83t-186 11.5q-168 53 -252 295q-70 209 -51 479zM137 764q-16 -258 49 -457q72 -207 207 -252 q152 -47 264.5 53.5t151.5 272.5q23 106 27 219t-13.5 227.5t-56.5 216t-105.5 190.5t-160.5 148q-152 -8 -250 -186q-94 -172 -113 -432zM319 1514.5q-3 13.5 3 23.5q78 127 112 166q25 25 47 33q27 10 54 -4q20 -12 70 -82t100 -117q10 -8 10 -21.5t-9.5 -23.5t-22.5 -10 t-24 10q-53 49 -108 127q-10 12 -21.5 29.5t-31.5 40.5q-12 -23 -17 -29q-31 -33 -102 -152q-8 -12 -21.5 -15t-24.5 4t-14 20.5z" />
<glyph unicode="&#xd5;" horiz-adv-x="935" d="M72 768q18 274 121 459q121 215 307 221h6q12 2 20 -4q102 -63 179 -160.5t119 -207t61.5 -234.5t13.5 -244q-4 -117 -29 -229q-18 -88 -59 -164t-104.5 -139.5t-145.5 -83t-186 11.5q-168 53 -252 295q-70 209 -51 479zM137 764q-16 -258 49 -457q72 -207 207 -252 q152 -47 264.5 53.5t151.5 272.5q23 106 27 219t-13.5 227.5t-56.5 216t-105.5 190.5t-160.5 148q-152 -8 -250 -186q-94 -172 -113 -432zM273.5 1572q-2.5 13 5.5 23q53 88 127 86q39 0 110 -41q55 -29 82 -28q41 2 80 65q6 10 19.5 13.5t24.5 -4t14 -20.5t-5 -26 q-57 -90 -129 -94q-45 -2 -117 37q-59 33 -82 33q-35 0 -71 -55q-6 -10 -20.5 -13.5t-25 4t-13 20.5z" />
<glyph unicode="&#xd6;" horiz-adv-x="935" d="M72 768q18 274 121 459q121 215 307 221h6q12 2 20 -4q102 -63 179 -160.5t119 -207t61.5 -234.5t13.5 -244q-4 -117 -29 -229q-18 -88 -59 -164t-104.5 -139.5t-145.5 -83t-186 11.5q-168 53 -252 295q-70 209 -51 479zM137 764q-16 -258 49 -457q72 -207 207 -252 q152 -47 264.5 53.5t151.5 272.5q23 106 27 219t-13.5 227.5t-56.5 216t-105.5 190.5t-160.5 148q-152 -8 -250 -186q-94 -172 -113 -432zM371 1620q0 14 9 23.5t23.5 9.5t23.5 -9.5t9 -23.5t-9 -23.5t-23.5 -9.5t-23.5 9.5t-9 23.5zM553 1620q0 14 9 23.5t23.5 9.5 t23.5 -9.5t9 -23.5t-9 -23.5t-23.5 -9.5t-23.5 9.5t-9 23.5z" />
<glyph unicode="&#xd7;" horiz-adv-x="614" d="M51 412.5q-2 13.5 6 23.5l205 273l-156 178q-10 12 -9 24.5t11.5 22.5t23.5 8t24 -10l147 -172l135 160q10 8 24.5 10t24 -8.5t10.5 -23.5t-8 -24l-143 -163l217 -248q8 -10 7 -23.5t-10 -23.5t-23.5 -8t-24.5 10l-207 241l-196 -260q-6 -12 -19.5 -14t-25 6t-13.5 21.5z " />
<glyph unicode="&#xd8;" horiz-adv-x="1079" d="M52 165q3 13 16 19q47 33 106 84l-8 21q-72 209 -53 479q18 274 120 459q121 215 308 221h8q10 2 18 -4q225 -135 328 -453l80 92q10 8 23.5 10.5t23.5 -8t11 -23.5t-7 -22l-113 -125q59 -274 0 -546q-18 -86 -59 -163t-105.5 -140.5t-145.5 -83t-185 11.5 q-127 41 -217 209q-57 -47 -99 -72q-10 -8 -24.5 -5t-21.5 14.5t-4 24.5zM178 764q-16 -238 47 -451l152 142q205 194 465 481q-82 305 -299 446q-154 -8 -252 -186q-96 -172 -113 -432zM252 248q76 -158 184 -193q150 -47 263.5 53.5t150.5 272.5q45 221 10 475 q-250 -268 -440 -446z" />
<glyph unicode="&#xd9;" horiz-adv-x="960" d="M-19 1266.5q-1 13.5 8 22.5t23 11q135 6 201 31q12 4 24.5 -2t17.5 -18.5t-1 -24.5t-18 -18q-33 -10 -86 -21q-35 -326 0 -667q23 -209 73 -347q57 -152 146 -190q121 -57 217 55q61 74 125 238q76 203 118 528q41 319 2 508q-43 0 -79 2q-12 2 -21.5 12.5t-8.5 23.5 t11 22.5t25 7.5q92 -8 182 20q12 4 24.5 -2t16.5 -18.5t-2 -24.5t-21 -16q-23 -8 -61 -17q39 -203 -2 -526q-43 -326 -125 -541q-68 -180 -135 -260q-129 -147 -293 -73q-113 53 -180 229q-53 143 -76 362q-37 326 -2 664q-35 0 -70 -2q-12 -2 -22 8t-11 23.5zM320.5 1575.5 q-5.5 13.5 1 26t19 16.5t24.5 0q39 -18 106.5 -57t97.5 -54q12 -8 17.5 -20t-0.5 -24.5t-18.5 -16.5t-24.5 0q-33 18 -105 59q-66 35 -100 51q-12 6 -17.5 19.5z" />
<glyph unicode="&#xda;" horiz-adv-x="960" d="M-19 1266.5q-1 13.5 8 22.5t23 11q135 6 201 31q12 4 24.5 -2t17.5 -18.5t-1 -24.5t-18 -18q-33 -10 -86 -21q-35 -326 0 -667q23 -209 73 -347q57 -152 146 -190q121 -57 217 55q61 74 125 238q76 203 118 528q41 319 2 508q-43 0 -79 2q-12 2 -21.5 12.5t-8.5 23.5 t11 22.5t25 7.5q92 -8 182 20q12 4 24.5 -2t16.5 -18.5t-2 -24.5t-21 -16q-23 -8 -61 -17q39 -203 -2 -526q-43 -326 -125 -541q-68 -180 -135 -260q-129 -147 -293 -73q-113 53 -180 229q-53 143 -76 362q-37 326 -2 664q-35 0 -70 -2q-12 -2 -22 8t-11 23.5zM352.5 1472.5 q2.5 14.5 12.5 22.5q94 63 208 168q10 8 23.5 8t23 -10t8.5 -24.5t-12 -22.5q-117 -109 -213 -174q-10 -8 -24 -6t-21.5 13t-5 25.5z" />
<glyph unicode="&#xdb;" horiz-adv-x="954" d="M-19 1266.5q-1 13.5 8 22.5t23 11q135 6 201 31q12 4 24.5 -2t17.5 -18.5t-1 -24.5t-18 -18q-33 -10 -86 -21q-35 -326 0 -667q23 -209 73 -347q57 -152 146 -190q121 -57 217 55q61 74 125 238q76 203 118 528q41 319 2 508q-43 0 -79 2q-12 2 -21.5 12.5t-8.5 23.5 t11 22.5t25 7.5q92 -8 182 20q12 4 24.5 -2t16.5 -18.5t-2 -24.5t-21 -16q-23 -8 -61 -17q39 -203 -2 -526q-43 -326 -125 -541q-68 -180 -135 -260q-129 -147 -293 -73q-113 53 -180 229q-53 143 -76 362q-37 326 -2 664q-35 0 -70 -2q-12 -2 -22 8t-11 23.5zM303 1465.5 q-4 13.5 4 25.5q51 84 66 102q37 49 69 62q45 16 90 -25q35 -31 86 -110q8 -12 5.5 -25.5t-15 -21t-25 -4t-20.5 13.5q-45 72 -74 98q-10 8 -24 14q-20 -12 -39 -41l-64 -100q-6 -10 -19 -13t-24.5 4t-15.5 20.5z" />
<glyph unicode="&#xdc;" horiz-adv-x="960" d="M-19 1266.5q-1 13.5 8 22.5t23 11q135 6 201 31q12 4 24.5 -2t17.5 -18.5t-1 -24.5t-18 -18q-33 -10 -86 -21q-35 -326 0 -667q23 -209 73 -347q57 -152 146 -190q121 -57 217 55q61 74 125 238q76 203 118 528q41 319 2 508q-43 0 -79 2q-12 2 -21.5 12.5t-8.5 23.5 t11 22.5t25 7.5q92 -8 182 20q12 4 24.5 -2t16.5 -18.5t-2 -24.5t-21 -16q-23 -8 -61 -17q39 -203 -2 -526q-43 -326 -125 -541q-68 -180 -135 -260q-129 -147 -293 -73q-113 53 -180 229q-53 143 -76 362q-37 326 -2 664q-35 0 -70 -2q-12 -2 -22 8t-11 23.5zM354 1530 q0 14 9.5 23.5t22.5 9.5t23.5 -9.5t10.5 -23.5t-10.5 -23.5t-23.5 -9.5t-22.5 9.5t-9.5 23.5zM567 1527.5q0 14.5 9.5 24t22.5 9.5t23.5 -9.5t10.5 -24t-10.5 -23.5t-23.5 -9t-22.5 9t-9.5 23.5z" />
<glyph unicode="&#xdd;" horiz-adv-x="923" d="M64.5 1428.5q3.5 13.5 15.5 20.5t24 3q162 -39 252 -49q14 -2 22.5 -12.5t7.5 -24.5t-12.5 -22.5t-25.5 -6.5q-45 6 -108 17q-6 -31 -13.5 -95.5t-11.5 -107.5t-6 -111q-4 -66 -2 -120q4 -143 42 -217t120 -72q94 2 192 182q78 141 115 295q4 23 8 55q8 57 8 64l21 90 l-86 24q-12 4 -19.5 15.5t-3.5 25t15.5 19.5t25.5 2q158 -45 246 -66q14 -2 21.5 -13t3 -24.5t-14.5 -20.5t-24 -3q-33 6 -89 18v-127q-2 -154 -4 -196q-4 -82 19 -279q29 -244 35 -344q6 -84 -2 -168q-6 -88 -22.5 -161.5t-58.5 -136t-106 -99.5q-90 -45 -182 -42t-178 38 q-186 80 -223 221q-33 123 55 246q47 66 117.5 108.5t152.5 53t174 -45.5l13 37q4 14 15 20.5t24.5 2.5t20.5 -15.5t3 -25.5q-41 -139 -55 -197q-4 -12 -15.5 -19t-25 -4t-20.5 14t-3 26q8 39 25 92q-94 70 -199.5 40t-173.5 -125t-43 -192q29 -111 182 -176q78 -33 156 -34 t145 34q178 100 158 504q-6 82 -35 342q-18 160 -18 324q-63 -162 -101 -228q-117 -213 -247 -217q-123 -4 -181 113q-43 84 -49 237q-2 59 1 130t8.5 121.5t12.5 111.5t11 90l-86 23q-12 2 -19.5 13t-4 24.5zM429 1483.5q3 13.5 15 19.5q57 39 158 121q12 8 24.5 6 t21.5 -12t8 -23.5t-13 -23.5q-102 -82 -164 -121q-10 -8 -24.5 -5t-21.5 14t-4 24.5z" />
<glyph unicode="&#xde;" horiz-adv-x="741" d="M8 1431.5q-2 12.5 6.5 24.5t20.5 14q111 20 198 39q12 4 23.5 -3t14.5 -20t-4 -24.5t-21 -13.5l-82 -18q29 -164 45 -357q184 78 323 10q96 -49 140.5 -155.5t17.5 -247.5q-39 -182 -254 -320q-88 -55 -211 -106q-10 -231 -35 -459q59 10 93 19q14 2 25 -6.5t13.5 -20.5 t-5 -24.5t-19.5 -14.5q-68 -12 -197 -29q-14 -2 -25.5 6.5t-12.5 22.5t7.5 24.5t20.5 12.5l33 4q25 205 35 442q-55 -20 -92 -30q-12 -4 -24.5 2t-17 19.5t3 24.5t19.5 15l113 37q12 334 -8 657q-41 -10 -54 7q-8 10 -7 24t14.5 23.5t39.5 27.5q-14 197 -45 379l-55 -12 q-10 -2 -22.5 6t-14.5 20.5zM213 1004q22 -320 12 -678q109 47 176 90q193 123 222 276q27 125 -9 210t-112 122q-125 63 -289 -20z" />
<glyph unicode="&#xdf;" horiz-adv-x="884" d="M-21.5 -6.5q-5.5 12.5 0 26t17.5 18.5t24 1l48 -19q63 133 69 226q4 57 -12 307q-18 268 -8 403q18 229 106 334q111 135 332 70q113 -33 170 -146q98 -186 -63 -372q-33 -37 -115 -113l-39 -35l45 -28q90 -53 139 -95q207 -172 121 -385q-33 -86 -100.5 -126t-147.5 -37 q-70 2 -137.5 32.5t-122.5 91.5q-23 -12 -36 -9t-20 14.5t-4 25t15 19.5l39 24q10 6 13 9t14 12l32 30q8 8 22.5 8.5t23 -10t8.5 -24t-11 -23.5l-41 -39q94 -94 205 -96q137 -4 189 123q66 168 -103 309q-47 41 -133 90q-39 20 -47 29q-12 8 -18 14q-16 16 -17 33 q0 23 25 51q12 12 43 41q78 70 106 107q133 154 58 301q-45 88 -131 112q-178 51 -265 -51q-72 -88 -90 -295q-10 -141 8 -395q16 -258 13 -315q-6 -106 -76 -250q33 -27 18 -51q-6 -10 -19 -14.5t-26 1.5l-26 17q-12 6 -14.5 7t-11.5 6t-11 5t-14.5 4t-26.5 10 q-12 4 -17.5 16.5z" />
<glyph unicode="&#xe0;" horiz-adv-x="927" d="M55 313q12 84 66.5 164t130.5 123q117 61 230.5 35.5t226.5 -156.5q-8 96 -17 135q-33 193 -98 275q-70 88 -177.5 38.5t-211.5 -186.5l24 -24q8 -8 7.5 -21.5t-10 -23.5t-24 -8t-24.5 12l-90 96q-8 8 -8 22.5t9 23.5t22.5 9t23.5 -10l25 -24q113 143 225 194 q158 72 260 -57q76 -94 111 -301q43 -254 24 -600q43 12 59.5 16t29 -2t15.5 -20.5t-3.5 -25.5t-20.5 -13q-57 -14 -178 -64q-14 -4 -26.5 1t-17.5 18.5t1 25.5t16 15l60 24v37v84q-4 125 -17 201q-115 -123 -178 -174q-152 -117 -282 -95q-106 18 -156 95q-41 68 -27 161z M121 303q-12 -70 18 -115q31 -51 109 -65q104 -20 231 82q54 40 195 190q-55 121 -168 164t-219 -16q-63 -37 -109.5 -103.5t-56.5 -136.5zM308.5 1249.5q-5.5 12.5 0.5 24.5t18.5 16t24.5 0q129 -63 205 -94q12 -6 17.5 -18.5t0 -25.5t-17.5 -17.5t-25 0.5q-78 33 -206 94 q-12 8 -17.5 20.5z" />
<glyph unicode="&#xe1;" horiz-adv-x="940" d="M68 313q12 84 66 164t130 123q117 61 230.5 35.5t226.5 -156.5q-8 96 -16 135q-33 193 -99 275q-70 88 -177.5 38.5t-211.5 -186.5l25 -24q8 -8 7 -21.5t-10.5 -23.5t-23.5 -8t-25 12l-90 96q-8 8 -8 22.5t9.5 23.5t22.5 9t23 -10l25 -24q113 143 225 194q158 72 260 -57 q76 -94 111 -301q43 -254 25 -600q43 12 59 16t28.5 -2t15.5 -20.5t-3 -25.5t-21 -13q-57 -14 -178 -64q-14 -4 -26.5 1t-17.5 18.5t1 25.5t17 15l59 24v37v84q-4 125 -16 201q-115 -123 -179 -174q-152 -117 -282 -95q-106 18 -156 95q-41 68 -26 161zM133 303 q-12 -70 19 -115q31 -51 108 -65q104 -20 232 82q53 40 194 190q-55 121 -167.5 164t-219.5 -16q-63 -37 -109.5 -103.5t-56.5 -136.5zM346.5 1152q4.5 13 18.5 19q135 76 223 179q8 10 21.5 12t23.5 -7t11 -22.5t-7 -23.5q-96 -117 -244 -195q-10 -6 -23.5 -2t-20.5 15.5 t-2.5 24.5z" />
<glyph unicode="&#xe2;" horiz-adv-x="933" d="M61 313q12 84 66.5 164t130.5 123q117 61 230.5 35.5t226.5 -156.5q-8 96 -17 135q-33 193 -98 275q-70 88 -177.5 38.5t-211.5 -186.5l25 -24q8 -8 7 -21.5t-10.5 -23.5t-23.5 -8t-25 12l-90 96q-8 8 -8 22.5t9 23.5t22.5 9t23.5 -10l25 -24q113 143 225 194 q158 72 260 -57q76 -94 111 -301q43 -254 24 -600q43 12 59.5 16t29 -2t15.5 -20.5t-3 -25.5t-21 -13q-57 -14 -178 -64q-14 -4 -26.5 1t-17.5 18.5t1 25.5t17 15l59 24v37v84q-4 125 -16 201q-115 -123 -179 -174q-152 -117 -282 -95q-106 18 -156 95q-41 68 -27 161z M127 303q-12 -70 18 -115q31 -51 109 -65q104 -20 231 82q54 40 195 190q-55 121 -168 164t-219 -16q-63 -37 -109.5 -103.5t-56.5 -136.5zM297 1152.5q0 13.5 10 25.5q49 51 96 118q20 31 27 39q16 23 35 27q27 10 49 -10q14 -12 33 -37l94 -144q6 -12 4 -24t-13 -20.5 t-24.5 -6.5t-21.5 15l-107 161l-22 -39q-51 -70 -105 -129q-8 -8 -21.5 -8t-23.5 9.5t-10 23zM422 1272h84q-41 41 -84 0z" />
<glyph unicode="&#xe3;" horiz-adv-x="940" d="M61 313q12 84 66.5 164t130.5 123q117 61 230.5 35.5t226.5 -156.5q-8 96 -17 135q-33 193 -98 275q-70 88 -177.5 38.5t-211.5 -186.5l25 -24q8 -8 7 -21.5t-10.5 -23.5t-23.5 -8t-25 12l-90 96q-8 8 -8 22.5t9 23.5t22.5 9t23.5 -10l25 -24q113 143 225 194 q158 72 260 -57q76 -94 111 -301q43 -254 24 -600q43 12 59.5 16t29 -2t15.5 -20.5t-3 -25.5t-21 -13q-57 -14 -178 -64q-14 -4 -26.5 1t-17.5 18.5t1 25.5t17 15l59 24v37v84q-4 125 -16 201q-115 -123 -179 -174q-152 -117 -282 -95q-106 18 -156 95q-41 68 -27 161z M127 303q-12 -70 18 -115q31 -51 109 -65q104 -20 231 82q54 40 195 190q-55 121 -168 164t-219 -16q-63 -37 -109.5 -103.5t-56.5 -136.5zM260 1159q8 57 27 88q20 37 55 41q27 2 59 -16q16 -8 50 -31q55 -39 79 -39q6 0 13.5 2t22 19.5t26.5 46.5q6 12 18.5 16t24.5 -1 t17 -18.5t-1 -25.5q-47 -106 -125 -104q-43 0 -114 49q-29 25 -43 28l-21 15q-16 -39 -22 -82q-4 -12 -14.5 -20.5t-25 -6.5t-21.5 13.5t-5 25.5z" />
<glyph unicode="&#xe4;" horiz-adv-x="933" d="M61 313q12 84 66.5 164t130.5 123q117 61 230.5 35.5t226.5 -156.5q-8 96 -17 135q-33 193 -98 275q-70 88 -177.5 38.5t-211.5 -186.5l25 -24q8 -8 7 -21.5t-10.5 -23.5t-23.5 -8t-25 12l-90 96q-8 8 -8 22.5t9 23.5t22.5 9t23.5 -10l25 -24q113 143 225 194 q158 72 260 -57q76 -94 111 -301q43 -254 24 -600q43 12 59.5 16t29 -2t15.5 -20.5t-3 -25.5t-21 -13q-57 -14 -178 -64q-14 -4 -26.5 1t-17.5 18.5t1 25.5t17 15l59 24v37v84q-4 125 -16 201q-115 -123 -179 -174q-152 -117 -282 -95q-106 18 -156 95q-41 68 -27 161z M127 303q-12 -70 18 -115q31 -51 109 -65q104 -20 231 82q54 40 195 190q-55 121 -168 164t-219 -16q-63 -37 -109.5 -103.5t-56.5 -136.5zM346 1192q0 14 9.5 23.5t22.5 9.5t23.5 -9.5t10.5 -23.5t-10.5 -23.5t-23.5 -9.5t-22.5 9.5t-9.5 23.5zM541 1185.5q0 14.5 9 24 t22.5 9.5t23.5 -9.5t10 -24t-10 -23.5t-23.5 -9t-22.5 9t-9 23.5z" />
<glyph unicode="&#xe5;" horiz-adv-x="933" d="M61 313q12 84 66.5 164t130.5 123q117 61 230.5 35.5t226.5 -156.5q-8 96 -17 135q-33 193 -98 275q-70 88 -177.5 38.5t-211.5 -186.5l25 -24q8 -8 7 -21.5t-10.5 -23.5t-23.5 -8t-25 12l-90 96q-8 8 -8 22.5t9 23.5t22.5 9t23.5 -10l25 -24q113 143 225 194 q158 72 260 -57q76 -94 111 -301q43 -254 24 -600q43 12 59.5 16t29 -2t15.5 -20.5t-3 -25.5t-21 -13q-57 -14 -178 -64q-14 -4 -26.5 1t-17.5 18.5t1 25.5t17 15l59 24v37v84q-4 125 -16 201q-115 -123 -179 -174q-152 -117 -282 -95q-106 18 -156 95q-41 68 -27 161z M127 303q-12 -70 18 -115q31 -51 109 -65q104 -20 231 82q54 40 195 190q-55 121 -168 164t-219 -16q-63 -37 -109.5 -103.5t-56.5 -136.5zM248 1239q-23 61 14 126t117 93q84 29 147.5 3.5t87.5 -89.5q23 -55 -1.5 -110.5t-94.5 -90.5q-6 -8 -12 -8q-98 -39 -167 -16.5 t-91 92.5zM309 1260q10 -33 45 -49.5t99 3.5q6 5 10 5q63 20 82.5 59t7.5 72q-12 35 -49 49t-103 -2q-59 -20 -80.5 -61.5t-11.5 -75.5z" />
<glyph unicode="&#xe6;" horiz-adv-x="1433" d="M66 174q-59 145 28.5 288.5t239.5 174.5q84 20 168 -8.5t178 -110.5q-4 217 -51 311q-41 88 -101 111q-49 20 -114 -10q-104 -43 -219 -189l24 -24q10 -8 8 -21.5t-11 -23.5t-22.5 -8t-23.5 12l-90 96q-10 8 -10 22.5t9 23.5t23.5 9t22.5 -8l25 -31q123 154 237 203 q88 37 164 10t137 -143q123 135 230 158q121 27 188 -66q43 -55 46 -133t-40 -169t-129 -169q-63 -55 -110.5 -82.5t-131.5 -38.5q20 -135 54 -188q35 -55 120 -68q125 -16 216.5 50.5t130.5 197.5l6 12l-33 25q-8 8 -10 22.5t5 24.5t21.5 12t24.5 -6l96 -73q10 -8 12 -22.5 t-6 -25.5q-16 -20 -59 -2q-53 -152 -159.5 -226.5t-252.5 -53.5q-47 8 -94 32.5t-72 63.5q-39 61 -63 207q-82 -115 -152 -176q-152 -131 -299 -107q-61 12 -101 37t-60 80zM125 199q14 -35 38.5 -51.5t76.5 -24.5q115 -23 241 90q106 90 174 227q-12 20 -18 29 q-57 61 -136 91t-155 15q-123 -29 -194.5 -145.5t-26.5 -230.5zM715 788q31 -109 33 -315q0 -8 2 -20l6 -27q59 10 96 33.5t86 68.5q80 70 116 149t32.5 137t-33.5 97q-43 57 -123 41q-100 -23 -215 -164z" />
<glyph unicode="&#xe7;" horiz-adv-x="819" d="M37.5 551q23.5 194 93.5 319q66 111 133 144q72 35 133 -17q88 -72 101 -272l73 10q14 2 24.5 -6t12.5 -22.5t-6 -24.5t-22 -12q-82 -10 -195 -49q-12 -4 -24.5 2t-16.5 18t2 24.5t19 16.5l69 23q-2 92 -24.5 154.5t-55.5 86.5q-29 23 -61 8q-51 -25 -105 -116 q-66 -111 -86 -293.5t15 -323.5q37 -143 121 -168q98 -29 258 117l45 41q18 18 34 37l25 26l37 39l53 62l-26 35q-8 10 -7.5 24.5t12 22.5t26 6t22.5 -12q10 -12 45 -59.5t55 -72.5q10 -10 8 -23t-12 -22.5t-23.5 -7.5t-21.5 13l-37 43l-53 -62l-33 -37q-6 -8 -24 -24 l-37 -35l-45 -43q-127 -117 -242 -137q-39 -102 -123 -185q-8 -10 -22.5 -10t-23.5 9t-9 23.5t10 22.5q61 63 100 144q-131 43 -176 217q-39 152 -15.5 346z" />
<glyph unicode="&#xe8;" horiz-adv-x="954" d="M5.5 555q-5.5 12 0.5 24.5t19.5 16.5t23.5 0q27 -16 76 -27q20 133 63 228q94 211 263 225q70 6 112 -29q39 -31 49 -88q23 -100 -30 -192q-57 -100 -162 -158.5t-236 -58.5q-4 -61 0 -107q10 -209 107 -293q102 -90 276 27q33 25 68 57.5t49 50.5l66 84l-31 41 q-6 10 -4 23.5t12 22t24.5 6t22.5 -14.5q31 -45 125 -147q8 -10 8 -23.5t-10 -23t-23.5 -9.5t-23.5 11l-55 61q-115 -141 -193 -192q-215 -145 -354 -23q-115 102 -129 340q-4 49 0 115q-57 14 -96 33q-12 8 -17.5 20zM190 561q115 2 201 51.5t133 132.5q43 72 25 146 q-6 33 -25 49q-25 20 -69 16q-129 -10 -207 -188q-38 -86 -58 -207zM311.5 1286q-2.5 12 5 24.5t20.5 14.5t23 -6l82 -59l88 -62q39 -29 80 -49q12 -6 16.5 -18.5t-2 -24.5t-19.5 -16.5t-25 2.5q-43 20 -84 51l-95 65q-51 41 -75 58q-12 8 -14.5 20z" />
<glyph unicode="&#xe9;" horiz-adv-x="954" d="M5.5 555q-5.5 12 0.5 24.5t19.5 16.5t23.5 0q27 -16 76 -27q20 133 63 228q94 211 263 225q70 6 112 -29q39 -31 49 -88q23 -100 -30 -192q-57 -100 -162 -158.5t-236 -58.5q-4 -61 0 -107q10 -209 107 -293q102 -90 276 27q33 25 68 57.5t49 50.5l66 84l-31 41 q-6 10 -4 23.5t12 22t24.5 6t22.5 -14.5q31 -45 125 -147q8 -10 8 -23.5t-10 -23t-23.5 -9.5t-23.5 11l-55 61q-115 -141 -193 -192q-215 -145 -354 -23q-115 102 -129 340q-4 49 0 115q-57 14 -96 33q-12 8 -17.5 20zM190 561q115 2 201 51.5t133 132.5q43 72 25 146 q-6 33 -25 49q-25 20 -69 16q-129 -10 -207 -188q-38 -86 -58 -207zM284 1128.5q5 12.5 17 20.5q57 27 94 57.5t97 93.5q8 8 21 8.5t23.5 -9t10.5 -22.5t-10 -26q-59 -61 -101.5 -96t-107.5 -68q-10 -4 -23.5 0.5t-19.5 16.5t-1 24.5z" />
<glyph unicode="&#xea;" horiz-adv-x="960" d="M11.5 555q-5.5 12 0.5 24.5t19.5 16.5t23.5 0q27 -16 76 -27q20 133 64 228q94 211 262 225q70 6 112 -29q39 -31 49 -88q23 -100 -30 -192q-57 -100 -161.5 -158.5t-236.5 -58.5q-4 -61 0 -107q10 -209 107 -293q102 -90 276 27q33 25 68 57.5t49 50.5l66 84l-31 41 q-6 10 -4 23.5t12 22t24.5 6t22.5 -14.5q31 -45 125 -147q8 -10 8 -23.5t-10 -23t-23.5 -9.5t-23.5 11l-55 61q-115 -141 -193 -192q-215 -145 -354 -23q-115 102 -129 340q-4 49 0 115q-57 14 -96 33q-12 8 -17.5 20zM197 561q115 2 200.5 51.5t132.5 132.5q43 72 25 146 q-6 33 -25 49q-25 20 -69 16q-129 -10 -207 -188q-37 -86 -57 -207zM274.5 1156.5q0.5 13.5 10.5 25.5q37 37 114 129q23 25 33 35q23 18 45 18q25 -2 45 -23q10 -10 29 -36q66 -96 100 -138q8 -10 7 -24.5t-12 -22.5t-24.5 -6t-21.5 12q-25 31 -102 140l-23 30l-26 -30 q-80 -92 -117 -131q-10 -10 -23.5 -10.5t-24 9t-10 23z" />
<glyph unicode="&#xeb;" horiz-adv-x="954" d="M5.5 555q-5.5 12 0.5 24.5t19.5 16.5t23.5 0q27 -16 76 -27q20 133 63 228q94 211 263 225q70 6 112 -29q39 -31 49 -88q23 -100 -30 -192q-57 -100 -162 -158.5t-236 -58.5q-4 -61 0 -107q10 -209 107 -293q102 -90 276 27q33 25 68 57.5t49 50.5l66 84l-31 41 q-6 10 -4 23.5t12 22t24.5 6t22.5 -14.5q31 -45 125 -147q8 -10 8 -23.5t-10 -23t-23.5 -9.5t-23.5 11l-55 61q-115 -141 -193 -192q-215 -145 -354 -23q-115 102 -129 340q-4 49 0 115q-57 14 -96 33q-12 8 -17.5 20zM190 561q115 2 201 51.5t133 132.5q43 72 25 146 q-6 33 -25 49q-25 20 -69 16q-129 -10 -207 -188q-38 -86 -58 -207zM315 1220.5q0 14.5 10.5 23.5t23.5 9t22.5 -9t9.5 -23.5t-9.5 -23.5t-22.5 -9t-23.5 9t-10.5 23.5zM492 1228.5q0 14.5 10 24t23.5 9.5t22.5 -9.5t9 -24t-9 -23.5t-22.5 -9t-23.5 9t-10 23.5z" />
<glyph unicode="&#xec;" horiz-adv-x="342" d="M57 1369q2 13 13.5 21.5t24 6t20.5 -14.5l71 -94l84 -110q6 -10 4 -23.5t-12 -22t-24.5 -6.5t-22.5 15q-27 41 -82 111.5t-70 93.5q-8 10 -6 23zM67 21.5q1 13.5 11 22.5t24 7q16 -2 52 -2q0 315 -15 873l-41 4q-12 2 -21 12t-8 23.5t12 22.5t23 7q59 -6 64 -6h6h6h66 q12 0 22.5 -9t10.5 -23.5t-10.5 -23.5t-22.5 -9h-41q14 -555 14 -873h45q12 0 22.5 -9t10.5 -23.5t-10.5 -23.5t-22.5 -9q-104 0 -168 4q-12 2 -21 12t-8 23.5z" />
<glyph unicode="&#xed;" horiz-adv-x="348" d="M71 21.5q1 13.5 11 22.5t24 7q16 -2 52 -2q0 315 -13 873l-43 4q-12 2 -21 12t-8 23.5t12 22.5t24 7q59 -6 63 -6h6h6h66q12 0 22.5 -9t10.5 -23.5t-10.5 -23.5t-22.5 -9h-39q12 -555 12 -873h45q12 0 22.5 -9t10.5 -23.5t-10 -23.5t-23 -9q-104 0 -168 4q-12 2 -21 12 t-8 23.5zM113 1115.5q-2 13.5 4 23.5q31 43 79 123.5t58 95.5q8 10 20.5 13t24.5 -4t15 -20.5t-5 -25.5t-58 -95t-79 -124q-8 -12 -21.5 -14.5t-24.5 6t-13 22z" />
<glyph unicode="&#xee;" horiz-adv-x="342" d="M5 1150.5q-1 13.5 9 23.5q53 66 95 137q4 6 12 20.5t12 20.5q14 23 31 30q29 10 51 -20q8 -8 21 -37q49 -96 79 -151q6 -12 2 -25.5t-15 -20t-24.5 -2.5t-19.5 15q-33 59 -82 155q-57 -96 -115 -163q-8 -10 -21 -12.5t-23.5 7t-11.5 23zM64.5 21.5q1.5 13.5 11.5 22.5 t24 7q16 -2 52 -2q0 315 -15 873l-41 4q-12 2 -21 12t-8 23.5t12 22.5t23 7q59 -6 64 -6h6h6h66q12 0 22 -9t10 -23.5t-10 -23.5t-22 -9h-41q14 -555 14 -873h45q12 0 22.5 -9t10.5 -23.5t-10.5 -23.5t-22.5 -9q-104 0 -168 4q-12 2 -21.5 12t-8 23.5z" />
<glyph unicode="&#xef;" horiz-adv-x="335" d="M64.5 21.5q1.5 13.5 11.5 22.5t24 7q16 -2 52 -2q0 315 -13 873l-43 4q-12 2 -21 12t-8 23.5t12 22.5t23 7q59 -6 64 -6h6h6h66q12 0 22 -9t10 -23.5t-10 -23.5t-22 -9h-39q12 -555 12 -873h45q12 0 22.5 -9t10.5 -23.5t-10.5 -23.5t-22.5 -9q-104 0 -168 4 q-12 2 -21.5 12t-8 23.5zM72 1228.5q0 14.5 9 24t22.5 9.5t23.5 -9.5t10 -24t-10 -23.5t-23.5 -9t-22.5 9t-9 23.5zM223 1224.5q0 14.5 9.5 23.5t22.5 9t23.5 -9t10.5 -23.5t-10.5 -23.5t-23.5 -9t-22.5 9t-9.5 23.5z" />
<glyph unicode="&#xf0;" horiz-adv-x="878" d="M69 1088.5q-3 13.5 5 23.5l69 115q8 12 21.5 15t25 -4t15.5 -20.5t-2 -21.5l-17 -16q131 -78 246 -187q135 123 266 189q12 6 25.5 2t20 -16.5t2 -25t-16.5 -18.5q-121 -61 -250 -178q76 -80 137 -166q78 31 162 45l-16 47q-4 14 2 26.5t19.5 17t24.5 -2t17 -18.5l15 -43 l4 -21q4 -4 8 -12l20 -39q8 -10 4 -23.5t-16 -19.5t-24.5 -2t-20.5 19l-10 8q-68 -8 -154 -35q90 -150 121 -278q23 -98 -11 -189.5t-106.5 -160t-160.5 -91t-187 11.5q-66 25 -102.5 84.5t-36.5 131.5q-4 221 211 401q72 61 176 117q-57 78 -123 147q-98 -104 -174 -217 q-8 -12 -21.5 -14t-24.5 6t-13 20.5t4 24.5q80 117 184 225q-111 102 -229 178l-29 -47q-8 -10 -21.5 -13t-24.5 4t-14 20.5zM233 236q0 -53 27 -95.5t72 -60.5q72 -27 144.5 -7.5t134 75t89 132t9.5 152.5q-31 125 -117 266q-100 -49 -172 -110q-188 -160 -187 -352z" />
<glyph unicode="&#xf1;" horiz-adv-x="819" d="M6 998.5q-2 13.5 5.5 24.5t21.5 13q53 8 106 15q14 2 25.5 -6.5t12.5 -22.5t-7 -24.5t-20 -12.5h-19q10 -125 16 -305l54 111q55 104 118 157q80 68 168 51q55 -10 96.5 -48t61.5 -89q61 -141 66 -469q0 -55 -1 -240.5t3 -226.5l30 -6q14 -2 21.5 -13t4.5 -24.5 t-14.5 -20.5t-23.5 -3q-57 10 -117 16q-12 2 -21 12.5t-8 23.5t11 22.5t25 7.5h28q-6 53 -5 222t1 228q-4 317 -59 447q-35 82 -113 96q-57 12 -111.5 -35t-103.5 -139q-78 -143 -108 -305q-2 -190 -13 -410l35 4q12 2 23.5 -6t12.5 -22.5t-7 -24.5t-21 -12q-59 -6 -123 -7 q-14 0 -23 9.5t-9 24t9 23.5t38 9q10 213 12 399q-2 8 -2 13l2 4q0 262 -16 520l-25 -8q-12 -2 -23.5 6t-13.5 21.5zM211 1184q27 78 51 114q33 45 70 45q33 -2 65 -32q14 -12 45 -51q55 -66 82 -72q43 -8 99 88q6 12 19 15t25.5 -3t15.5 -20.5t-3 -24.5q-80 -135 -168 -119 q-51 8 -119 93q-29 35 -41 47q-6 6 -22 14l-15 -14q-20 -33 -41 -99q-4 -12 -16 -18t-25.5 -2t-19.5 16.5t-2 22.5z" />
<glyph unicode="&#xf2;" horiz-adv-x="729" d="M41 545q14 113 55 212t117 173t170 84q8 0 18 -2q10 0 19 -4q102 -53 166.5 -164t85.5 -232q20 -121 4 -245q-27 -199 -125 -301q-117 -127 -285 -66q-94 37 -150.5 127t-72.5 196.5t-2 221.5zM104 537q-20 -168 29 -301.5t154 -172.5q129 -47 217 44.5t108 267.5 t-35 337.5t-184 235.5q-115 -16 -191.5 -132t-97.5 -279zM223 1310.5q0 14.5 9.5 23.5t24 9t22.5 -10q84 -88 147 -139q8 -8 10 -21.5t-7 -23.5t-22.5 -12t-25.5 8q-63 53 -148 143q-10 8 -10 22.5z" />
<glyph unicode="&#xf3;" horiz-adv-x="722" d="M41 545q14 113 55 212t117 173t170 84q8 0 18 -2q10 0 19 -4q102 -53 166.5 -164t85.5 -232q20 -121 4 -245q-27 -199 -125 -301q-117 -127 -285 -66q-94 37 -150.5 127t-72.5 196.5t-2 221.5zM104 537q-20 -168 29 -301.5t154 -172.5q129 -47 217 44.5t108 267.5 t-35 337.5t-184 235.5q-115 -16 -191.5 -132t-97.5 -279zM268 1109.5q-2 13.5 6 23.5q88 106 181 239q8 12 22.5 14.5t25.5 -6t13 -21.5t-6 -26q-94 -133 -182 -241q-10 -10 -23.5 -12.5t-24 7t-12.5 23z" />
<glyph unicode="&#xf4;" horiz-adv-x="722" d="M41 545q14 113 55 212t117 173t170 84q8 0 18 -2q10 0 19 -4q102 -53 166.5 -164t85.5 -232q20 -121 4 -245q-27 -199 -125 -301q-117 -127 -285 -66q-94 37 -150.5 127t-72.5 196.5t-2 221.5zM104 537q-20 -168 29 -301.5t154 -172.5q129 -47 217 44.5t108 267.5 t-35 337.5t-184 235.5q-115 -16 -191.5 -132t-97.5 -279zM188.5 1146q-1.5 13 8.5 23q74 90 133 177q20 33 26 38q8 10 17 15q14 6 26 2q10 -2 19 -10q6 -8 8 -21q4 -4 6 -16q8 -23 14 -45q33 -72 101 -150q10 -12 8 -25.5t-12.5 -22.5t-23.5 -7t-21 10q-70 80 -117 189 q-68 -94 -135 -175q-8 -10 -21.5 -12t-24 7.5t-12 22.5zM401 1012z" />
<glyph unicode="&#xf5;" horiz-adv-x="735" d="M41 545q14 113 55 212t117 173t170 84q8 0 18 -2q10 0 19 -4q102 -53 166.5 -164t85.5 -232q20 -121 4 -245q-27 -199 -125 -301q-117 -127 -285 -66q-94 37 -150.5 127t-72.5 196.5t-2 221.5zM104 537q-20 -168 29 -301.5t154 -172.5q129 -47 217 44.5t108 267.5 t-35 337.5t-184 235.5q-115 -16 -191.5 -132t-97.5 -279zM150 1173.5q-4 12.5 0 24.5q51 119 120 133q53 10 119 -45q12 -10 45 -43q27 -23 43 -35q10 -6 33 -20l20 55l25 57q6 12 18.5 17.5t24.5 0.5t17.5 -17.5t0.5 -24.5l-22 -57l-16 -39l-7 -13l-2 -4q-4 -4 -4 -8 q0 2 -6 -4q-31 -27 -65 -21q-27 4 -56 25q-18 14 -49 41q-33 31 -43 39q-39 35 -63 33q-37 -8 -72 -94q-6 -14 -18.5 -18.5t-25.5 0.5t-17 17.5z" />
<glyph unicode="&#xf6;" horiz-adv-x="729" d="M41 545q14 113 55 212t117 173t170 84q8 0 18 -2q10 0 19 -4q102 -53 166.5 -164t85.5 -232q20 -121 4 -245q-27 -199 -125 -301q-117 -127 -285 -66q-94 37 -150.5 127t-72.5 196.5t-2 221.5zM104 537q-20 -168 29 -301.5t154 -172.5q129 -47 217 44.5t108 267.5 t-35 337.5t-184 235.5q-115 -16 -191.5 -132t-97.5 -279zM274 1216.5q0 14.5 9.5 23.5t24 9t23.5 -9t9 -23.5t-9 -23.5t-23.5 -9t-24 9t-9.5 23.5zM440 1216.5q0 14.5 9.5 23.5t23.5 9t23.5 -9t9.5 -23.5t-9.5 -23.5t-23.5 -9t-23.5 9t-9.5 23.5z" />
<glyph unicode="&#xf7;" horiz-adv-x="659" d="M66 676q0 14 9 23.5t23 9.5h480q12 0 21 -10.5t9 -23.5t-10 -22.5t-25 -9.5h-475q-14 0 -23 9.5t-9 23.5zM307 858q0 14 9.5 23.5t23.5 9.5t23.5 -9.5t9.5 -23.5t-9.5 -23.5t-23.5 -9.5t-23.5 9.5t-9.5 23.5zM317 493.5q0 14.5 9.5 23.5t24 9t23.5 -9t9 -23.5t-9 -23.5 t-23.5 -9t-24 9t-9.5 23.5z" />
<glyph unicode="&#xf8;" horiz-adv-x="874" d="M66 53.5q0 14.5 10 22.5l67 78q-84 166 -55 391q14 113 55 212t117 173t170 84q8 0 19 -2q10 0 18 -4q119 -61 197 -220l94 101q10 10 23.5 10t23.5 -9t10 -23.5t-10 -22.5q-53 -53 -115 -123q57 -176 33 -354q-25 -197 -125 -301q-117 -127 -285 -64q-70 24 -131 94 l-61 -65q-10 -10 -23.5 -10.5t-22.5 9t-9 24zM152 537q-20 -174 38 -330q55 63 222 274q126 162 204 254q-63 150 -178 213q-113 -16 -189.5 -132t-96.5 -279zM225 145q53 -61 109 -82q129 -47 216 44.5t109 267.5q17 131 -18 289l-178 -222q-152 -199 -238 -297z" />
<glyph unicode="&#xf9;" horiz-adv-x="735" d="M36 976q1 13 11.5 22.5t24.5 7.5q61 -6 116 -7q12 0 22.5 -9t10.5 -23.5t-10 -23.5t-23 -9h-26q-41 -289 -27 -506q8 -170 53 -271.5t131 -111.5q98 -8 160 88q55 86 86 260q37 225 19 525l-37 4q-12 2 -21.5 12t-8.5 23.5t11.5 22.5t24.5 7q82 -6 137 -14 q12 -2 20.5 -13.5t6.5 -24.5t-13.5 -21.5t-23.5 -6.5l-31 6q18 -309 -18 -532q-31 -184 -96 -285q-84 -131 -220 -116q-125 12 -188 153q-45 106 -57 293q-14 225 26 514h-30q-12 2 -21.5 12.5t-8.5 23.5zM220 1248.5q1 13.5 12.5 22.5t25 7t23.5 -12l141 -187 q8 -10 6 -23.5t-12 -21.5t-23.5 -6t-21.5 14l-144 183q-8 10 -7 23.5z" />
<glyph unicode="&#xfa;" horiz-adv-x="747" d="M36 976q1 13 11.5 22.5t24.5 7.5q61 -6 116 -7q12 0 22.5 -9t10.5 -23.5t-10 -23.5t-23 -9h-26q-41 -289 -27 -506q8 -170 53 -271.5t131 -111.5q98 -8 160 88q55 86 86 260q37 225 19 525l-37 4q-12 2 -21.5 12t-8.5 23.5t11.5 22.5t24.5 7q82 -6 137 -14 q12 -2 20.5 -13.5t6.5 -24.5t-13.5 -21.5t-23.5 -6.5l-31 6q18 -309 -18 -532q-31 -184 -96 -285q-84 -131 -220 -116q-125 12 -188 153q-45 106 -57 293q-14 225 26 514h-30q-12 2 -21.5 12.5t-8.5 23.5zM291 1112.5q0 14.5 8 22.5q98 98 158 165q8 8 21.5 10.5t23.5 -8 t11 -22.5t-7 -25q-61 -70 -160 -165q-10 -10 -23.5 -10.5t-22.5 9t-9 24z" />
<glyph unicode="&#xfb;" horiz-adv-x="753" d="M36 976q1 13 11.5 22.5t24.5 7.5q61 -6 116 -7q12 0 22.5 -9t10.5 -23.5t-10 -23.5t-23 -9h-26q-41 -289 -27 -506q8 -170 53 -271.5t131 -111.5q98 -8 160 88q55 86 86 260q37 225 19 525l-37 4q-12 2 -21.5 12t-8.5 23.5t11.5 22.5t24.5 7q82 -6 137 -14 q12 -2 20.5 -13.5t6.5 -24.5t-13.5 -21.5t-23.5 -6.5l-31 6q18 -309 -18 -532q-31 -184 -96 -285q-84 -131 -220 -116q-125 12 -188 153q-45 106 -57 293q-14 225 26 514h-30q-12 2 -21.5 12.5t-8.5 23.5zM181 1162.5q-1 13.5 9 23.5q43 55 93 131l28 43q18 23 35 29 q29 10 53 -13q14 -10 33 -39q8 -12 23 -34l32 -58q20 -37 39 -65q6 -10 3 -23.5t-15 -21t-24.5 -4t-22.5 15.5q-14 27 -33.5 61.5l-32.5 57.5l-36 53l-27 -35q-51 -82 -100 -139q-8 -10 -21.5 -12.5t-24 7t-11.5 23zM309 1329q45 0 76 -31q-45 0 -76 31z" />
<glyph unicode="&#xfc;" horiz-adv-x="735" d="M36 976q1 13 11.5 22.5t24.5 7.5q61 -6 116 -7q12 0 22.5 -9t10.5 -23.5t-10 -23.5t-23 -9h-26q-41 -289 -27 -506q8 -170 53 -271.5t131 -111.5q98 -8 160 88q55 86 86 260q37 225 19 525l-37 4q-12 2 -21.5 12t-8.5 23.5t11.5 22.5t24.5 7q82 -6 137 -14 q12 -2 20.5 -13.5t6.5 -24.5t-13.5 -21.5t-23.5 -6.5l-31 6q18 -309 -18 -532q-31 -184 -96 -285q-84 -131 -220 -116q-125 12 -188 153q-45 106 -57 293q-14 225 26 514h-30q-12 2 -21.5 12.5t-8.5 23.5zM260 1185.5q0 14.5 9.5 24t22.5 9.5t23.5 -9.5t10.5 -24 t-10.5 -23.5t-23.5 -9t-22.5 9t-9.5 23.5zM428 1192q0 14 9 23.5t22.5 9.5t24 -9.5t10.5 -23.5t-10.5 -23.5t-24 -9.5t-22.5 9.5t-9 23.5z" />
<glyph unicode="&#xfd;" horiz-adv-x="765" d="M63.5 457q6.5 125 29 228t69.5 224l-35 9q-14 2 -21.5 13t-4.5 24.5t14.5 20.5t23.5 3q57 -12 119 -29q14 -2 20.5 -14t3.5 -25.5t-15.5 -19.5t-26.5 -2h-17q-43 -111 -66.5 -212.5t-27.5 -215t27 -201.5q39 -109 136 -144.5t185 34.5q80 63 156 215q0 190 -33 593l-33 5 q-14 2 -23 12t-7 23.5t12 22.5t22 7l123 -10q14 -2 23.5 -12.5t7.5 -23.5t-12.5 -22.5t-24.5 -7.5h-22q33 -381 32 -585q2 -6 -2 -15q0 -125 -12 -223q-31 -283 -131 -403q-127 -150 -360 -52l-25 -32q-6 -10 -20.5 -12.5t-24.5 6t-12 22.5t6 25q43 53 71 129q4 12 16.5 17 t26 1t18.5 -16.5t-1 -26.5q-6 -23 -23 -55q182 -74 277 37q90 106 119 368q0 10 12 84q-74 -90 -115 -125q-86 -61 -169 -58t-153.5 58.5t-103.5 143.5q-35 92 -28.5 217zM334 1100.5q2 13.5 10 21.5q51 43 119 156q8 12 21.5 15t24.5 -4t14 -20.5t-3 -23.5 q-74 -123 -131 -172q-12 -10 -25.5 -8t-22.5 12t-7 23.5z" />
<glyph unicode="&#xfe;" horiz-adv-x="784" d="M62 108.5q1 14.5 12.5 22.5t23.5 6q10 -2 39 -2q2 104 -2 586v4q-4 12 0 25q0 82 3 333.5t-3 346.5l-41 4q-12 2 -21.5 12t-8 23.5t11.5 22.5t24 7q61 -6 113 -6q12 0 22.5 -9t10.5 -24q0 -12 -8.5 -21t-34.5 -14q2 -102 -2 -565q92 88 168 103q133 25 247 -76 q72 -66 105 -156t11.5 -201.5t-109.5 -210.5q-106 -115 -248 -184q-88 -41 -174 -61q-4 -188 -17 -357h27q12 -2 20.5 -12t7.5 -24.5t-12.5 -22.5t-23.5 -6q-47 6 -105 6q-14 0 -23 9t-9 23.5t9 24t23 9.5h4h17q12 162 16 346q-31 0 -43 2q-14 2 -22.5 12t-7.5 24.5z M201 141q76 20 147 56q129 59 225 168q76 82 94.5 177t-10.5 169q-25 76 -84 127q-90 82 -192 61q-111 -23 -180 -164v-14q4 -467 0 -580z" />
<glyph unicode="&#xff;" horiz-adv-x="796" d="M63.5 457q6.5 125 29 228t69.5 224l-35 9q-14 2 -21.5 13t-4.5 24.5t14.5 20.5t23.5 3q57 -12 119 -29q14 -2 20.5 -14t3.5 -25.5t-15.5 -19.5t-26.5 -2h-17q-43 -111 -66.5 -212.5t-27.5 -215t27 -201.5q39 -109 136 -144.5t185 34.5q80 63 156 215q0 190 -33 593l-33 5 q-14 2 -23 12t-7 23.5t12 22.5t22 7l123 -10q14 -2 23.5 -12.5t7.5 -23.5t-12.5 -22.5t-24.5 -7.5h-22q33 -381 32 -585q2 -6 -2 -15q0 -125 -12 -223q-31 -283 -131 -403q-127 -150 -360 -52l-25 -32q-6 -10 -20.5 -12.5t-24.5 6t-12 22.5t6 25q43 53 71 129q4 12 16.5 17 t26 1t18.5 -16.5t-1 -26.5q-6 -23 -23 -55q182 -74 277 37q90 106 119 368q0 10 12 84q-74 -90 -115 -125q-86 -61 -169 -58t-153.5 58.5t-103.5 143.5q-35 92 -28.5 217zM311 1140.5q0 14.5 9.5 24t23.5 9.5t23.5 -9.5t9.5 -24t-9.5 -23.5t-23.5 -9t-23.5 9t-9.5 23.5z M479 1134.5q0 14.5 9.5 23.5t23.5 9t23.5 -9t9.5 -23.5t-9.5 -23.5t-23.5 -9t-23.5 9t-9.5 23.5z" />
<glyph unicode="&#x152;" horiz-adv-x="1320" d="M72 768q18 274 121 459q104 188 268 217q16 12 31 8q342 -74 647 -22l-6 51q-2 12 7 22t22.5 12.5t23.5 -7t12 -23.5q2 -16 3 -31.5t1 -18.5t2 -13.5t3 -13.5t4 -20.5t8 -35.5q4 -12 -3.5 -23.5t-20.5 -14.5t-24.5 4t-13.5 21l-10 27q-227 -41 -508 -6q215 -233 256 -584 q150 4 309 39l-6 51q-2 12 7 22.5t22.5 12.5t24 -7t12.5 -24q6 -61 14 -114q2 -14 -7 -25.5t-20 -13.5q-27 -2 -41 31q-158 -33 -311 -37q6 -180 -29 -342q-31 -145 -139 -281q246 14 475 62l-6 45q-2 14 7.5 24t21.5 12t23.5 -7t13.5 -21q6 -61 16 -123q2 -14 -7 -25.5 t-20 -13.5q-14 -2 -25 6t-18 35q-283 -55 -534 -62q-8 0 -23 7q-131 -82 -280 -33q-168 53 -252 295q-70 209 -51 479zM137 764q-16 -258 49 -457q72 -207 207 -252q152 -47 264.5 53.5t151.5 272.5q23 106 27 219t-13.5 227.5t-56.5 216t-105.5 190.5t-160.5 148 q-152 -8 -250 -186q-94 -172 -113 -432z" />
<glyph unicode="&#x153;" horiz-adv-x="1353" d="M41 545q14 113 55 212t117 173t170 84q8 0 18 -2q10 0 19 -4q86 -45 162 -156q45 90 102 131q55 43 123 57q86 23 168 -6q78 -31 106 -114q27 -78 -5 -169.5t-101 -170.5q-59 -66 -133 -110t-162 -48q0 -35 -4 -55q-14 -115 -60 -209q47 -82 130 -114t174.5 -17.5t159 71 t87.5 152.5q-27 16 -49 35q-12 8 -14 21t6 24.5t21.5 13.5t23.5 -6q74 -55 135 -76q12 -6 18.5 -18.5t2.5 -24.5t-17.5 -18t-23.5 -4q-14 6 -43 16q-33 -111 -113 -172t-182 -80q-96 -16 -188.5 13.5t-165.5 119.5q-18 -23 -25 -28q-119 -127 -287 -66q-94 37 -150.5 127 t-72.5 196.5t-2 221.5zM104 537q-20 -168 29 -301.5t154 -172.5q129 -47 217 44.5t108 267.5t-35 337.5t-184 235.5q-115 -16 -191.5 -132t-97.5 -279zM625 772q51 -129 57 -287q70 6 131 44t113 96q61 70 86.5 143.5t5.5 130.5q-18 51 -71.5 72.5t-125.5 5.5 q-72 -18 -126 -71.5t-66 -127.5z" />
<glyph unicode="&#x2000;" horiz-adv-x="870" />
<glyph unicode="&#x2001;" horiz-adv-x="1741" />
<glyph unicode="&#x2002;" horiz-adv-x="870" />
<glyph unicode="&#x2003;" horiz-adv-x="1741" />
<glyph unicode="&#x2004;" horiz-adv-x="580" />
<glyph unicode="&#x2005;" horiz-adv-x="435" />
<glyph unicode="&#x2006;" horiz-adv-x="290" />
<glyph unicode="&#x2007;" horiz-adv-x="290" />
<glyph unicode="&#x2008;" horiz-adv-x="217" />
<glyph unicode="&#x2009;" horiz-adv-x="348" />
<glyph unicode="&#x200a;" horiz-adv-x="96" />
<glyph unicode="&#x2010;" horiz-adv-x="542" d="M73 605q1 13 11.5 22.5t24.5 7.5q96 -8 348 10q14 2 24.5 -7t11.5 -22.5t-7.5 -23.5t-22.5 -12q-260 -18 -361 -11q-12 2 -21 12.5t-8 23.5z" />
<glyph unicode="&#x2011;" horiz-adv-x="542" d="M73 605q1 13 11.5 22.5t24.5 7.5q96 -8 348 10q14 2 24.5 -7t11.5 -22.5t-7.5 -23.5t-22.5 -12q-260 -18 -361 -11q-12 2 -21 12.5t-8 23.5z" />
<glyph unicode="&#x2012;" horiz-adv-x="542" d="M73 605q1 13 11.5 22.5t24.5 7.5q96 -8 348 10q14 2 24.5 -7t11.5 -22.5t-7.5 -23.5t-22.5 -12q-260 -18 -361 -11q-12 2 -21 12.5t-8 23.5z" />
<glyph unicode="&#x2013;" horiz-adv-x="1143" d="M72.5 605q2.5 13 28 22.5t59.5 7.5q234 -8 848 10q34 2 59.5 -7t28 -22.5t-18 -23.5t-54.5 -12q-634 -18 -880 -11q-29 2 -51 12.5t-19.5 23.5z" />
<glyph unicode="&#x2014;" horiz-adv-x="2167" d="M72.5 605q4.5 13 56 22.5t119.5 7.5q468 -8 1696 10q68 2 119.5 -7t56 -22.5t-36.5 -23.5t-110 -12q-1267 -18 -1759 -11q-59 2 -102.5 12.5t-39 23.5z" />
<glyph unicode="&#x2018;" horiz-adv-x="409" d="M23 1284q16 49 67 105q39 43 90 80.5t84 48.5q12 4 24.5 -2.5t16.5 -18.5t-2 -24.5t-20 -16.5q-20 -8 -65.5 -40t-80.5 -73q-18 -18 -39 -53q66 -27 80 -53q12 -23 4 -43q-8 -14 -24 -25q-25 -14 -56 -16q-39 0 -57 21q-45 45 -22 110z" />
<glyph unicode="&#x2019;" horiz-adv-x="409" d="M49 1216.5q-4 12.5 2 24.5t21 16q92 31 149 80q10 6 35 31q-72 20 -90 41q-14 18 -14 39q2 20 16 35q20 23 55 26q39 6 64 -20q53 -55 41 -113q-12 -47 -64 -90q-68 -57 -174 -90q-12 -4 -24.5 2t-16.5 18.5z" />
<glyph unicode="&#x201c;" horiz-adv-x="614" d="M68 1167q-37 84 49 205q72 100 149 137q12 4 25.5 0t18.5 -16t0 -25.5t-15 -19.5q-61 -29 -125 -113q-18 -29 -47 -80q55 8 74 -6q20 -14 20 -43q0 -16 -8 -37q-20 -43 -57 -53q-53 -14 -84 51zM305 1135q-37 84 49 204q72 100 150 138q12 4 25.5 0t18.5 -16.5t-0.5 -26 t-15.5 -19.5q-61 -29 -124 -112q-18 -29 -48 -80q55 8 74 -6q20 -14 21 -43q0 -16 -9 -37q-20 -43 -57 -54q-53 -14 -84 52z" />
<glyph unicode="&#x201d;" horiz-adv-x="598" d="M66.5 1134.5q-5.5 12.5 0 26t17.5 19.5q61 29 125 112q18 27 43 78q-53 -8 -70 6q-20 14 -20 43q0 16 10 37q18 43 55 53q53 14 84 -51q39 -86 -51 -205q-72 -98 -149 -135q-12 -4 -25.5 0t-19 16.5zM277.5 1110q-5.5 12 0 25.5t17.5 19.5q61 29 125 113q18 27 43 78 q-53 -8 -70 6q-20 14 -20 43q0 16 10 37q18 43 55 53q53 14 84 -51q39 -86 -51 -205q-72 -98 -149 -135q-12 -4 -25.5 0t-19 16z" />
<glyph unicode="&#x202f;" horiz-adv-x="348" />
<glyph unicode="&#x205f;" horiz-adv-x="435" />
<glyph unicode="&#x20ac;" horiz-adv-x="1228" d="M46 513q-1 13 8 23.5t22 12.5q39 2 139 12q4 84 18 178q-98 -6 -153 -6q-14 0 -23.5 9.5t-9.5 23.5t9.5 23.5t23.5 9.5q63 0 166 6q14 68 30 123q39 127 117 263t158 202q47 37 92 45q55 8 96 -31q76 -70 97 -322q49 2 75 2q12 0 22.5 -9t10.5 -23.5t-10 -23.5t-23 -9 q-6 0 -194 -10q-12 -2 -22.5 8t-11.5 23.5t8 22.5t24 11q16 0 55 4q-18 225 -76 279q-16 16 -41 14q-27 -4 -59 -33q-74 -59 -146.5 -186t-107.5 -248q-12 -39 -25 -98q123 8 191 8q12 0 22.5 -9t10.5 -23.5t-10.5 -23.5t-22.5 -9q-72 0 -205 -9q-14 -88 -20 -178 q141 12 229 13q12 0 22.5 -9.5t10.5 -24t-10.5 -23.5t-22.5 -9q-92 0 -231 -12q8 -160 51 -264.5t110 -153.5q111 -78 244 14q158 113 297 434q-47 31 -74 52q-12 10 -13 23t8 23.5t21.5 12.5t24.5 -6q55 -47 189 -123q12 -6 15 -19.5t-4 -25.5t-19.5 -15t-24.5 3l-68 41 q-145 -334 -315 -451q-82 -59 -166 -62t-154 48q-82 55 -130 173t-56 292q-92 -8 -133 -13q-14 -2 -24.5 7.5t-11.5 22.5z" />
<glyph unicode="&#x2122;" horiz-adv-x="1576" d="M61 1161v105q0 14 9.5 23t23.5 9q12 0 21.5 -8t15.5 -35q59 8 101 22.5t96 43.5l71 41q23 14 89.5 60t82.5 57q2 0 21 10l-14 20q-6 10 -2 23.5t15 20t24.5 2t19.5 -16.5l12 -22q6 -10 7 -12.5t5.5 -8.5t6.5 -8t8 -12l14 -23q10 -10 8 -23.5t-13 -21.5t-24.5 -6t-21.5 14 l-12 12q-14 0 -21 -6l-221 -145q12 -78 28.5 -159t30.5 -134l37 -152q23 -94 41 -159l25 16q10 4 22.5 0t18.5 -16.5t2 -24.5t-19 -20l-96 -45q-12 -4 -25.5 0t-18.5 16t-1 25.5t29 23.5l-45 184q-33 133 -52.5 221.5t-37.5 190.5q-100 -41 -195 -55v-27q0 -14 -9 -23.5 t-23.5 -9.5t-24 9.5t-9.5 23.5zM659 1276q29 -29 105 -25l-37 39zM700 638q-2 13 7.5 23.5t23.5 12.5l31 4q-6 70 -31 285q-4 41 -9 112.5t-9 120.5l-2 51l-2 10l-4 11l-3 12q-6 20 -2 33q2 14 12.5 24.5t26.5 10.5q14 0 33 -13q8 -4 16 -14q16 -18 37 -51q35 -47 90 -137 l91 -156q16 92 28 192q18 156 23 179q6 41 12 63l8 25q10 16 29 20q37 10 63 -29q6 -8 12.5 -19t6.5 -13q25 -39 46 -86t30 -78l30 -94q23 -63 27 -80q63 -186 156 -279l39 27q10 8 23 6t21.5 -13.5t6.5 -24.5t-15 -21q-10 -8 -14 -13l-12 -6l-4 -4l-4 -2l-5 -4l-4 -4 q-2 -4 -10 -14l-18 -27q-8 -10 -22.5 -12t-24.5 6t-12.5 20.5t12.5 34.5q-104 102 -172 307l-25 78l-29 80q-8 29 -25.5 68.5t-54.5 115.5q-10 -66 -28 -215q-14 -121 -25 -176q-8 -41 -16 -61q-6 -16 -15 -25q-14 -18 -34 -18q-6 0 -12.5 2t-6.5 4l-2 2l-6 6l-4 2l-8 16 l-29 45l-82 140l-86 133q8 -135 23 -262q24 -215 30 -285h25q14 2 24.5 -8t12.5 -22.5t-8.5 -22.5t-22.5 -13q-63 -4 -123 -10q-12 -2 -22.5 7.5t-12.5 22.5z" />
<glyph unicode="&#x25fc;" horiz-adv-x="1013" d="M0 0v1014h1014v-1014h-1014z" />
</font>
</defs>
</svg>
