<?xml version="1.0" standalone="no"?>
<!DOCTYPE svg PUBLIC "-//W3C//DTD SVG 1.1//EN" "http://www.w3.org/Graphics/SVG/1.1/DTD/svg11.dtd" >
<svg xmlns="http://www.w3.org/2000/svg">
<metadata></metadata>
<defs>
<font id="surf_safariregular" horiz-adv-x="663" >
<font-face units-per-em="2048" ascent="1638" descent="-410" />
<missing-glyph horiz-adv-x="350" />
<glyph horiz-adv-x="2048" />
<glyph horiz-adv-x="2048" />
<glyph unicode="&#xd;" horiz-adv-x="350" />
<glyph unicode=" "  horiz-adv-x="350" />
<glyph unicode="&#x09;" horiz-adv-x="350" />
<glyph unicode="&#xa0;" horiz-adv-x="350" />
<glyph unicode="!" horiz-adv-x="403" d="M-8 315l112 166l29 826l-129 116l449 72l-115 -117l-27 -852l105 -155zM12 92q0 82 47 142.5t117 60.5q72 0 118 -60.5t46 -142.5q0 -80 -46 -141.5t-118 -61.5q-70 0 -117 61.5t-47 141.5z" />
<glyph unicode="&#x22;" horiz-adv-x="483" d="M0 678v395q0 74 41 126t100 52q57 0 98.5 -52t41.5 -126q0 -55 -27 -102h4l-12 -15q-10 -14 -25 -26zM217 1260q31 45 80 55q57 8 106.5 -36t61.5 -116q10 -55 -8 -104h4l-10 -17q-8 -16 -19 -30l-174 -287l-29 166l15 18q10 8 39 47q29 53 28 117q0 129 -94 187z" />
<glyph unicode="#" horiz-adv-x="714" d="M-20 580l96 268l-41 358q143 76 282 76q23 0 218 -12l-13 -326q111 -14 168 -209l8 -67q-6 27 -47 69q-53 53 -112 54q-12 0 -23 -5l-16 -393q80 0 80 -84q0 -102 -88 -155l-3 -82l-323 -13l-6 56q-41 12 -63.5 73.5t-16.5 128.5q8 80 45 109l-31 260q-47 -35 -114 -106z M31 662q96 94 166 94q51 0 73 -58q45 -111 45 -178q0 -74 -53 -78q-12 -2 -12 -10q0 -18 41 -44t82 -26q57 0 78 60q-117 84 -117 184q0 72 65 137q76 74 144 74q78 0 129 -86q-57 188 -168 189q-86 0 -191 -132q-66 117 -131 117q-51 0 -92 -74zM100 313 q-6 -63 14.5 -120.5t61.5 -59.5q43 -4 127 43q27 16 45 17q16 0 43 -17.5t47 -17.5q68 0 107 90q16 33 16 61q0 61 -61 62q-12 0 -30.5 -4.5t-94.5 -32.5q-66 -23 -90 -23q-43 0 -74 62q-25 45 -51 45q-14 0 -29 -15q-25 -25 -31 -90zM119 279q0 117 41 116q16 0 33 -33 q37 -72 92 -71q27 0 84 20q71 29 106 37q12 2 23 2q41 0 41 -45q0 -41 -32 -84t-69 -43q-16 0 -32 12q-31 23 -58 23q-25 0 -78 -31.5t-94 -27.5q-57 4 -57 125zM133 604q0 -63 62 -63q61 0 61 63t-61 64q-61 0 -62 -64zM135 248l21 24l-21 19v-43zM141 317l41 -28l13 43 l-35 26zM143 209l56 -41l14 76l-43 20zM143 604q0 53 52 53q51 0 51 -53t-51 -53t-52 53zM156 600q0 -43 18 -43q19 0 19 43t-19 43q-18 0 -18 -43zM199 270l47 -16l8 31l-47 28zM231 176l70 35v27l-70 4v-66zM268 281l2 -33l62 10l-4 29zM326 244l4 -21l73 -8v35zM354 291 l4 -31l70 8l-14 45zM389 608q0 -59 45 -59t45 59q0 61 -45 62q-45 0 -45 -62zM399 608q0 51 35 51t35 -51q0 -49 -35 -49t-35 49zM422 602q0 -39 18 -39q19 0 19 39t-19 39q-18 0 -18 -39zM424 199l45 -2l25 55l-52 -2zM444 319l15 -51l53 21l-12 49z" />
<glyph unicode="$" horiz-adv-x="577" d="M23 528l333 -57q-39 74 -67 76q-125 12 -230 198q-6 18 -20 78q-14 70 -14 138q0 248 188 266l-20 116l-123 62l368 57l-114 -194l6 -51q104 -33 151 -146q39 -90 35 -207l55 -102l-313 12q29 -41 51 -43q127 -14 197 -115q63 -90 63 -219q0 -121 -53 -215 q-59 -102 -156 -129v-47l107 -78l-393 -28l143 106l14 49q-180 49 -159 363zM207 954q0 -57 22 -135q4 -6 15 -22l88 92q-2 78 -33 123q-25 37 -53 32q-39 -8 -39 -90zM252 279q8 -49 47 -50q98 0 98 99q0 63 -37 137l-106 -82q-6 -76 -2 -104z" />
<glyph unicode="%" horiz-adv-x="944" d="M-94 219h168l602 881l-178 8q8 -125 -62 -227q-76 -115 -194 -115q-31 0 -64 8q-178 47 -178 246q0 123 73.5 221t186.5 98q49 0 102 -22l691 -25l-523 -768q59 43 136 43q115 0 190 -102q70 -94 70 -219q0 -94 -45 -164q-51 -76 -146 -96q-25 -4 -49 -4q-96 0 -170 75 q-68 68 -88 164q-18 82 4 158l-182 -268l-43 -168zM203 1030q0 -51 26 -57q20 -6 43 22q18 23 23.5 43.5t5.5 36.5q0 49 -29 58q-20 4 -39.5 -21t-24.5 -45t-5 -37zM625 295q0 -14 2 -31q6 -25 22 -49q23 -33 43 -29q31 6 31 66q0 14 -4.5 34.5t-20.5 47.5q-23 31 -43 26 q-31 -6 -30 -65z" />
<glyph unicode="&#x26;" horiz-adv-x="612" d="M8 780q0 129 53.5 245t141.5 151l2 34l-101 74l412 -20l-143 -80q170 -55 164 -350l57 -60l-277 -110l54 141q2 33 2 59q0 166 -70 166q-49 0 -88 -80q-45 -90 -41 -213q4 -78 137 -78q72 0 162 21q-10 -35 -27 -66q-43 -72 -110 -106q-156 -80 -152 -148 q10 -170 107 -170q39 0 69.5 40t36.5 106l-2 39l-73 82l278 59l-43 -117l51 -540q-70 -12 -270 -43l-25 161l88 13q0 2 2 63q-49 -18 -114 -18q-139 0 -209 110q-51 80 -60 205q-4 100 74 187q-86 78 -86 243z" />
<glyph unicode="'" horiz-adv-x="286" d="M0 678v395q0 74 41 126t100 52q57 0 98.5 -52t41.5 -126q0 -55 -27 -102h4l-12 -15q-10 -14 -25 -26z" />
<glyph unicode="(" horiz-adv-x="546" d="M0 709q0 225 76 403q96 223 297 313l41 88l172 -266l-178 -28q-203 -135 -203 -510q0 -182 63 -363q72 -209 207 -346h121l-256 -221l-37 102q-23 23 -37 39q-266 319 -266 789z" />
<glyph unicode=")" horiz-adv-x="454" d="M-129 2l106 39q135 137 207 346q63 180 64 363q0 375 -203 510l-168 -35l191 327l12 -86q201 -90 297 -313q76 -178 76 -403q0 -469 -267 -789q-14 -16 -36 -39l-13 -184z" />
<glyph unicode="*" d="M-20 1219q141 53 272 53q76 0 381 -43q-25 -358 -49 -717q-35 -492 -72 -547q-178 -6 -375 60q-10 242 -51 577q-47 377 -106 617zM0 1202q0 -12 45 -12t45 12q0 14 -45 15q-45 0 -45 -15zM31 1135q0 -31 39 -31t39 31t-39 30q-39 0 -39 -30zM53 993l33 -202 q84 -27 143 -54q145 -66 150 -114l31 6q92 215 161 198l7 199l-205 -301zM76 1057q0 -23 28 -23q29 0 29 23q0 20 -29 20t-28 -20zM88 1001l88 -47l326 13l43 45zM121 418q0 -82 41 -191q-10 31 -10 62q-1 92 77 164l-10 77h-29q-70 -14 -69 -112zM184 242q0 -133 72 -160 q41 -16 80 -16q33 0 57 12q90 72 90 180q0 37 -18 92q-22 66 -53 66q-29 0 -70 -80q-47 55 -86 55q-25 0 -41 -22q-31 -45 -31 -127zM188 614q-2 0 11.5 9.5t38.5 9.5q37 -1 88 -17q-6 20 -15 35q-23 35 -55 39q-31 2 -55.5 -37t-12.5 -39zM215 254q0 59 25 96q10 14 24 15 q35 0 80 -60q33 63 64 64q25 0 43 -43t18 -82q0 -53 -37 -92q-25 -18 -47 -37q-37 -14 -117 16q-53 20 -53 123zM223 1229l23 -47l139 14l16 37q-39 23 -88 22q-47 0 -90 -26zM227 936l131 -152l107 164zM229 1137l15 -103l143 10l14 113zM262 549q-2 -92 21 -92q6 0 18 13 t25 13q23 0 39 -39l12 -6q29 47 41 47q6 0 9 -18t7 -21.5t10 -3.5q27 0 54 80l-105 53zM442 625q0 -2 2 -2l18 15q19 15 36 15q28 1 53 -26q-8 74 -53 65q-43 -6 -47 -55q-8 -10 -9 -12zM483 424q47 -59 47 -121q0 -53 -38 -94q68 25 67 133q0 48 -14 107l-21 28zM514 1192 q0 -23 47 -23q49 0 49 23t-49 22q-47 0 -47 -22zM522 1120q0 -31 39 -30q39 -1 39 30q0 29 -39 29t-39 -29zM532 1051q0 -25 23 -25t23 25q0 23 -23 22q-23 0 -23 -22z" />
<glyph unicode="+" horiz-adv-x="714" d="M-20 580l96 268l-41 358q143 76 282 76q23 0 218 -12l-13 -326q111 -14 168 -209l8 -67q-6 27 -47 69q-53 53 -112 54q-12 0 -23 -5l-16 -393q80 0 80 -84q0 -102 -88 -155l-3 -82l-323 -13l-6 56q-41 12 -63.5 73.5t-16.5 128.5q8 80 45 109l-31 260q-47 -35 -114 -106z M31 662q96 94 166 94q51 0 73 -58q45 -111 45 -178q0 -74 -53 -78q-12 -2 -12 -10q0 -18 41 -44t82 -26q57 0 78 60q-117 84 -117 184q0 72 65 137q76 74 144 74q78 0 129 -86q-57 188 -168 189q-86 0 -191 -132q-66 117 -131 117q-51 0 -92 -74zM100 313 q-6 -63 14.5 -120.5t61.5 -59.5q43 -4 127 43q27 16 45 17q16 0 43 -17.5t47 -17.5q68 0 107 90q16 33 16 61q0 61 -61 62q-12 0 -30.5 -4.5t-94.5 -32.5q-66 -23 -90 -23q-43 0 -74 62q-25 45 -51 45q-14 0 -29 -15q-25 -25 -31 -90zM119 279q0 117 41 116q16 0 33 -33 q37 -72 92 -71q27 0 84 20q71 29 106 37q12 2 23 2q41 0 41 -45q0 -41 -32 -84t-69 -43q-16 0 -32 12q-31 23 -58 23q-25 0 -78 -31.5t-94 -27.5q-57 4 -57 125zM133 604q0 -63 62 -63q61 0 61 63t-61 64q-61 0 -62 -64zM135 248l21 24l-21 19v-43zM141 317l41 -28l13 43 l-35 26zM143 209l56 -41l14 76l-43 20zM143 604q0 53 52 53q51 0 51 -53t-51 -53t-52 53zM156 600q0 -43 18 -43q19 0 19 43t-19 43q-18 0 -18 -43zM199 270l47 -16l8 31l-47 28zM231 176l70 35v27l-70 4v-66zM268 281l2 -33l62 10l-4 29zM326 244l4 -21l73 -8v35zM354 291 l4 -31l70 8l-14 45zM389 608q0 -59 45 -59t45 59q0 61 -45 62q-45 0 -45 -62zM399 608q0 51 35 51t35 -51q0 -49 -35 -49t-35 49zM422 602q0 -39 18 -39q19 0 19 39t-19 39q-18 0 -18 -39zM424 199l45 -2l25 55l-52 -2zM444 319l15 -51l53 21l-12 49z" />
<glyph unicode="," horiz-adv-x="286" d="M0 152q0 74 41 126t98 52q59 0 100.5 -52t41.5 -126q0 -55 -27 -103h2l-12 -14q-10 -14 -23 -27l-221 -254v398z" />
<glyph unicode="-" horiz-adv-x="800" d="M0 770l25 -319l145 45l467 -4l84 -119l78 395l-64 -70l-614 -12z" />
<glyph unicode="." horiz-adv-x="299" d="M0 152q0 74 41 126t98 52q59 0 100.5 -52t41.5 -126t-41 -125.5t-101 -51.5q-57 0 -98 51.5t-41 125.5z" />
<glyph unicode="/" horiz-adv-x="622" d="M-156 -92l111 78l405 1323l-67 112l369 -26l-93 -105l-407 -1329l43 -115z" />
<glyph unicode="0" horiz-adv-x="620" d="M-8 539q0 332 94 571.5t250 239.5q165 -1 239 -267q45 -160 46 -374q0 -332 -94.5 -571.5t-250.5 -239.5q-166 0 -239 266q-45 162 -45 375zM197 539q0 -186 36 -320q33 -115 46 -115q14 0 57 109q80 203 80 496q0 186 -37 321q-33 113 -45 113q-14 0 -58 -109 q-80 -203 -79 -495z" />
<glyph unicode="1" horiz-adv-x="325" d="M-162 1036l436 264l-61 -141l23 -1120l108 -141l-399 4l86 123l-25 979z" />
<glyph unicode="2" horiz-adv-x="702" d="M-127 856l156 129l2 10q35 150 114 248q104 129 265 129q197 0 196 -358q0 -266 -71 -506q-35 -78 -134 -309l-16 -43l139 61l60 174l192 -401l-186 33q-100 -43 -170 -74q-61 -25 -189 -90l-239 -56q127 252 350 775q59 211 84 446q16 143 -16 143q-68 0 -117 -71.5 t-70 -188.5l94 -162z" />
<glyph unicode="3" horiz-adv-x="698" d="M-72 1274l166 -92l684 237l-407 -790q317 -57 317 -289q0 -168 -153 -281q-121 -88 -308 -129l-45 -186l-188 489l172 -106q102 18 188 59q121 59 129 140q12 113 -258 112q-31 0 -186 -6l321 627l-170 -60l-40 -141z" />
<glyph unicode="4" horiz-adv-x="747" d="M-82 324l686 1333l4 -989l13 2l49 98l157 -389l-186 86l-31 -6v-375l123 -156l-414 6l87 123v361zM295 606l108 21v190z" />
<glyph unicode="5" horiz-adv-x="679" d="M-68 299l218 -156q139 43 238 130t97 178q-6 150 -241 149q-74 0 -217 -16l-11 665l469 66l95 112l90 -499l-168 182l-279 -39l4 -266q229 -6 353 -107q109 -90 108 -235q0 -164 -135 -313q-143 -158 -373 -211l-65 -162z" />
<glyph unicode="6" horiz-adv-x="765" d="M14 524q-12 272 49 498q86 326 304 338q199 10 292 -168q74 -133 74 -336l111 -164l-430 76l114 57q4 41 4 70q0 268 -155 260q-166 -8 -160 -547q133 139 262 105q115 -31 193 -176q72 -139 71 -299q0 -154 -71 -246q-84 -104 -244 -92q-174 10 -293 168 q-133 176 -121 456zM252 299q63 -199 186 -199q45 0 76 38t31 100q0 55 -23 118q-35 117 -98 117q-74 0 -172 -174z" />
<glyph unicode="7" horiz-adv-x="696" d="M-121 1257l178 -55l717 156l-414 -1364l183 -137l-537 57l154 119l317 1050l-360 -77l-17 -144z" />
<glyph unicode="8" horiz-adv-x="802" d="M4 238q0 223 158 358q-129 147 -129 387q0 172 82 285q92 129 258 129q170 0 272 -154q90 -135 90 -328q0 -195 -94 -311q168 -135 168 -366q0 -180 -113 -312q-117 -137 -288 -137q-174 0 -291 137q-113 131 -113 312zM209 238q0 -106 60.5 -175t138.5 -69q76 0 136 69 t60 175t-60.5 175.5t-135.5 69.5q-78 0 -138.5 -69.5t-60.5 -175.5zM227 969q0 -20 2 -43q12 -115 74 -183q53 -55 105 -49q47 4 84 60q45 63 45 161q0 20 -2 43q-12 115 -74 181q-53 57 -105 51q-47 -4 -86 -60q-43 -66 -43 -161z" />
<glyph unicode="9" horiz-adv-x="745" d="M-74 659l420 -90l-145 -100q-6 -102 24 -174q43 -104 154 -98q166 8 160 546q-133 -139 -265 -104q-113 31 -190 176q-74 139 -74 299q0 156 74 246q84 104 244 94q174 -12 293 -170q132 -176 120 -457q12 -272 -49 -497q-88 -326 -303 -338q-199 -10 -295 168 q-72 133 -74 338zM209 1114q0 -55 24 -119q33 -117 99 -116q74 0 170 174q-61 199 -185 198q-47 0 -77.5 -36.5t-30.5 -100.5z" />
<glyph unicode=":" horiz-adv-x="299" d="M0 152q0 74 41 126t98 52q59 0 100.5 -52t41.5 -126t-41 -125.5t-101 -51.5q-57 0 -98 51.5t-41 125.5zM16 680q6 72 50.5 121t103.5 45q57 -4 94 -58.5t33 -128.5q-6 -74 -50 -122t-104 -43q-57 4 -94 58t-33 128z" />
<glyph unicode=";" horiz-adv-x="296" d="M0 152q0 74 41 126t98 52q59 0 100.5 -52t41.5 -126q0 -55 -27 -103h2l-12 -14q-10 -14 -23 -27l-221 -254v398zM16 680q6 72 50.5 121t103.5 45q57 -4 94 -58.5t33 -128.5q-6 -74 -50 -122t-104 -43q-57 4 -94 58t-33 128z" />
<glyph unicode="&#x3c;" d="M-20 1219q141 53 272 53q76 0 381 -43q-25 -358 -49 -717q-35 -492 -72 -547q-178 -6 -375 60q-10 242 -51 577q-47 377 -106 617zM0 1202q0 -12 45 -12t45 12q0 14 -45 15q-45 0 -45 -15zM31 1135q0 -31 39 -31t39 31t-39 30q-39 0 -39 -30zM53 993l33 -202 q84 -27 143 -54q145 -66 150 -114l31 6q92 215 161 198l7 199l-205 -301zM76 1057q0 -23 28 -23q29 0 29 23q0 20 -29 20t-28 -20zM88 1001l88 -47l326 13l43 45zM121 418q0 -82 41 -191q-10 31 -10 62q-1 92 77 164l-10 77h-29q-70 -14 -69 -112zM184 242q0 -133 72 -160 q41 -16 80 -16q33 0 57 12q90 72 90 180q0 37 -18 92q-22 66 -53 66q-29 0 -70 -80q-47 55 -86 55q-25 0 -41 -22q-31 -45 -31 -127zM188 614q-2 0 11.5 9.5t38.5 9.5q37 -1 88 -17q-6 20 -15 35q-23 35 -55 39q-31 2 -55.5 -37t-12.5 -39zM215 254q0 59 25 96q10 14 24 15 q35 0 80 -60q33 63 64 64q25 0 43 -43t18 -82q0 -53 -37 -92q-25 -18 -47 -37q-37 -14 -117 16q-53 20 -53 123zM223 1229l23 -47l139 14l16 37q-39 23 -88 22q-47 0 -90 -26zM227 936l131 -152l107 164zM229 1137l15 -103l143 10l14 113zM262 549q-2 -92 21 -92q6 0 18 13 t25 13q23 0 39 -39l12 -6q29 47 41 47q6 0 9 -18t7 -21.5t10 -3.5q27 0 54 80l-105 53zM442 625q0 -2 2 -2l18 15q19 15 36 15q28 1 53 -26q-8 74 -53 65q-43 -6 -47 -55q-8 -10 -9 -12zM483 424q47 -59 47 -121q0 -53 -38 -94q68 25 67 133q0 48 -14 107l-21 28zM514 1192 q0 -23 47 -23q49 0 49 23t-49 22q-47 0 -47 -22zM522 1120q0 -31 39 -30q39 -1 39 30q0 29 -39 29t-39 -29zM532 1051q0 -25 23 -25t23 25q0 23 -23 22q-23 0 -23 -22z" />
<glyph unicode="=" horiz-adv-x="714" d="M-20 580l96 268l-41 358q143 76 282 76q23 0 218 -12l-13 -326q111 -14 168 -209l8 -67q-6 27 -47 69q-53 53 -112 54q-12 0 -23 -5l-16 -393q80 0 80 -84q0 -102 -88 -155l-3 -82l-323 -13l-6 56q-41 12 -63.5 73.5t-16.5 128.5q8 80 45 109l-31 260q-47 -35 -114 -106z M31 662q96 94 166 94q51 0 73 -58q45 -111 45 -178q0 -74 -53 -78q-12 -2 -12 -10q0 -18 41 -44t82 -26q57 0 78 60q-117 84 -117 184q0 72 65 137q76 74 144 74q78 0 129 -86q-57 188 -168 189q-86 0 -191 -132q-66 117 -131 117q-51 0 -92 -74zM100 313 q-6 -63 14.5 -120.5t61.5 -59.5q43 -4 127 43q27 16 45 17q16 0 43 -17.5t47 -17.5q68 0 107 90q16 33 16 61q0 61 -61 62q-12 0 -30.5 -4.5t-94.5 -32.5q-66 -23 -90 -23q-43 0 -74 62q-25 45 -51 45q-14 0 -29 -15q-25 -25 -31 -90zM119 279q0 117 41 116q16 0 33 -33 q37 -72 92 -71q27 0 84 20q71 29 106 37q12 2 23 2q41 0 41 -45q0 -41 -32 -84t-69 -43q-16 0 -32 12q-31 23 -58 23q-25 0 -78 -31.5t-94 -27.5q-57 4 -57 125zM133 604q0 -63 62 -63q61 0 61 63t-61 64q-61 0 -62 -64zM135 248l21 24l-21 19v-43zM141 317l41 -28l13 43 l-35 26zM143 209l56 -41l14 76l-43 20zM143 604q0 53 52 53q51 0 51 -53t-51 -53t-52 53zM156 600q0 -43 18 -43q19 0 19 43t-19 43q-18 0 -18 -43zM199 270l47 -16l8 31l-47 28zM231 176l70 35v27l-70 4v-66zM268 281l2 -33l62 10l-4 29zM326 244l4 -21l73 -8v35zM354 291 l4 -31l70 8l-14 45zM389 608q0 -59 45 -59t45 59q0 61 -45 62q-45 0 -45 -62zM399 608q0 51 35 51t35 -51q0 -49 -35 -49t-35 49zM422 602q0 -39 18 -39q19 0 19 39t-19 39q-18 0 -18 -39zM424 199l45 -2l25 55l-52 -2zM444 319l15 -51l53 21l-12 49z" />
<glyph unicode="&#x3e;" horiz-adv-x="614" d="M29 1268q115 23 202 22q152 0 373 -86l-119 -1214l-393 -45q-25 215 -41 663q-10 330 -22 660zM66 1247q6 -315 10 -631q8 -438 24 -632l340 32l135 1164q-203 84 -350 84q-72 0 -159 -17zM92 940q0 76 25 94q43 33 106 41l15 -121q-12 25 -29 25q-31 0 -62 -84 q-23 -61 -41 -37q-14 20 -14 82zM94 565q0 109 58 137l20 3l2 -46q-18 -10 -31 -26q-35 -37 -37 -92q-2 -20 -4 -23q-8 0 -8 47zM109 274q0 297 71 322l31 2q12 0 22 -6q25 -12 35 -39q12 59 72 51q39 -6 76 -131t37 -242q-1 -42 -7 -75q-10 -41 -43 -41q-25 0 -91 30.5 t-97 30.5q-45 0 -63 -53q-8 -29 -17 -29q-27 0 -26 180zM127 805q0 31 20.5 54.5t51.5 23.5q39 0 59 -35q-2 6 -2 12q0 33 22.5 55.5t55.5 22.5q31 0 53.5 -22.5t22.5 -55.5q0 -31 -22.5 -53.5t-53.5 -22.5q-43 0 -66 35q2 -6 2 -14q0 -29 -20.5 -52.5t-50.5 -23.5 q-31 0 -51.5 23.5t-20.5 52.5zM143 805q0 -59 56 -60q55 1 55 60q0 61 -55 61t-56 -61zM145 383q-6 -109 2 -197q27 29 64 29q35 0 100 -30.5t88 -32.5q20 -4 21 88q0 104 -23 206q-27 117 -63 123q-18 2 -25.5 -24.5t-23.5 -147.5q-53 154 -76 166l-21 -2q-37 -18 -43 -178 zM158 805q0 47 41 47t41 -47q0 -45 -41 -45t-41 45zM174 797q0 -25 21 -25q20 0 20 25q0 27 -20 26q-20 0 -21 -26zM186 670l31 14q8 -14 16 -29q23 92 39 80q14 -14 31 -71l21 26l26 -22l-18 -33q-20 8 -72 -25q-6 12 -59 27zM268 1044q0 35 8 89l70 8q70 2 117 -115 q10 -23 10 -33q0 -8 -6 -8t-54 29.5t-75 29.5q-20 0 -36.5 -20t-20.5 -20q-12 0 -13 40zM272 860q0 -59 62 -59q59 0 59 59q0 61 -59 62q-61 0 -62 -62zM287 860q0 47 47 47q45 0 45 -47q0 -45 -45 -45q-47 0 -47 45zM313 850q0 -25 27 -25q25 0 25 25q0 27 -25 27 q-27 0 -27 -27zM346 684l4 59l23 2q100 -16 100 -170q0 -41 -6 -40q-4 3 -4 34q0 121 -117 115zM395 561l17 86l37 -41l4 -59l12 -31l-21 -98l-6 37zM414 745l10 64l78 -49l-25 -109l-6 31zM428 831l18 97l78 -29l-18 -119zM455 956l6 25h14l8 18l-12 37l2 23l64 -19 l-15 -108zM471 1098l16 86l72 -25l-12 -84z" />
<glyph unicode="?" horiz-adv-x="716" d="M-25 786l35 97q4 86 10 123q33 168 146 266q102 88 229 88q117 0 201 -72q90 -80 109 -219q14 -100 -11 -203q-14 -137 -94 -235q-88 -106 -223 -129v-166l35 -113l-283 66l43 61l4 359q37 -2 70 -2q127 0 182 46t64 146q4 12 10 49q2 25 2 45q0 78 -37 123 q-33 39 -84 39q-88 0 -131 -94q-29 -59 -37 -168l27 -49zM145 27q0 61 38 104t93 43t93.5 -43t38.5 -104t-38 -104.5t-94 -43.5q-55 0 -93 43.5t-38 104.5z" />
<glyph unicode="@" horiz-adv-x="886" d="M0 666q0 236 128 402.5t310 166.5q180 0 309.5 -166.5t129.5 -402.5t-129.5 -403t-309.5 -167q-182 0 -310 167t-128 403zM190 311q0 -31 20.5 -51t51.5 -20h324q31 0 51 20t20 51v652q0 31 -20.5 51t-50.5 20h-324q-31 0 -51.5 -20.5t-20.5 -50.5v-652zM205 688l59 47 q4 106 37 183q47 100 137 94q141 -14 142 -283q0 -18 -2 -88l-11 -299l56 -74l-105 17q-98 6 -166 43q-90 51 -86 141q8 141 207 149l2 29q8 78 2 146q-4 45 -10 67q-12 47 -39 49q-61 4 -61 -192v-8l45 -66zM369 461q0 -45 98 -66l4 121q-102 -6 -102 -55z" />
<glyph unicode="A" horiz-adv-x="712" d="M-96 -158l96 101l264 1759l404 -1710l182 -125l-463 -115l90 158l-71 301l-160 -8l-37 -246l80 -182zM276 410l82 4l-49 209z" />
<glyph unicode="B" horiz-adv-x="593" d="M-129 -84l149 145l9 1139l-99 127l183 10q26 2 49 2q33 0 57 -4q170 -20 273 -118q108 -103 108 -272q0 -126 -45 -228q-51 -117 -143 -176q137 -117 137 -260q0 -133 -115 -228q-121 -102 -319 -119zM225 174q111 45 111 113q0 67 -109 133zM229 690q139 14 164 209 q2 18 2 37q0 154 -162 188z" />
<glyph unicode="C" horiz-adv-x="604" d="M-4 444q23 360 55 512q79 354 263 354q8 0 16 -1q143 -10 211 -129q57 -94 57 -238q0 -41 -6 -82l51 -153l-342 127l90 71q6 41 6 72q0 121 -84 127h-1q-24 0 -44 -72q-16 -57 -39 -215q-28 -206 -28 -381v-12q0 -92 20 -174q29 -115 84 -133q20 -6 33 26q6 19 6 45 q0 45 -18 111q6 0 6 2q0 10 -90 43l317 166l-39 -145q31 -98 31 -183q0 -127 -68 -202q-63 -68 -157 -68q-137 0 -234 131q-98 132 -98 343q0 28 2 58z" />
<glyph unicode="D" horiz-adv-x="612" d="M-152 -80l166 150l4 1140l-120 133l272 9q70 -1 117 -11q338 -82 338 -503q0 -297 -160 -585t-340 -300l-78 -6zM219 231q84 94 145.5 267.5t61.5 328.5q0 285 -203 316z" />
<glyph unicode="E" horiz-adv-x="571" d="M-119 1231l160 22l485 50l92 -357l-163 144l-230 -23l23 -479l149 -15l101 111l-29 -393l-96 80l-115 10l10 -231l142 10l127 145l-41 -344l-392 -31l-210 -24l174 151l-50 1063z" />
<glyph unicode="F" horiz-adv-x="522" d="M-131 1358l172 -21l496 -37l61 -366l-147 168l-234 16l12 -522l93 -2l96 149l16 -432l-112 78l-86 2l8 -321l75 -127l-327 -33l47 158l-29 1144z" />
<glyph unicode="G" horiz-adv-x="641" d="M0 600q0 295 82 508q90 227 233 227h7q162 -8 241 -139q66 -106 66 -261v-9l49 -125l-373 22l119 109q1 12 1 24q0 169 -112 174h-2q-110 0 -110 -412v-7l3 -165t13 -231q23 -176 94 -180q47 0 47 78q0 49 -30 199l-60 -23l-14 133l387 127l-51 -762v-10 q0 -132 -103 -199q-86 -59 -227 -59q-29 0 -55 2l-135 -49l82 379l86 -127q33 -4 53 -4q96 0 94 69l4 56q-36 -13 -80 -13h-6q-147 4 -229 211q-74 182 -74 457z" />
<glyph unicode="H" horiz-adv-x="618" d="M-45 -88l63 149v1166l-38 110l325 -8l-82 -127v-620l144 2l20 606l-86 106l346 29l-55 -139l-39 -1112l72 -156l-342 16l65 132l10 313l-135 -2v-316l68 -110z" />
<glyph unicode="I" horiz-adv-x="309" d="M-92 1315l387 26l-62 -141l23 -1120l109 -141l-400 4l86 123l-22 1132z" />
<glyph unicode="J" horiz-adv-x="522" d="M-57 590l415 -107l-114 -69q-15 -92 -15 -161q0 -60 11 -103q2 -8 -2 -27q2 -2 4 -6q64 49 64 260q0 26 -1 55l103 60l-105 24l-27 686l-100 111l367 28l-64 -133l35 -770q1 -30 1 -58q0 -146 -34 -257q-59 -193 -211 -207q-11 -1 -22 -1q-112 0 -168 116 q-49 100 -49 268q0 63 8 125z" />
<glyph unicode="K" horiz-adv-x="604" d="M-102 1290l372 51l-65 -122l10 -291l147 303l-36 110l368 -129l-147 -69l-168 -348q109 -27 164 -148q41 -92 41 -206v-11l-11 -426l56 -123l-342 49l82 113l10 389v14q0 146 -80 146q-10 0 -20 -2l-50 -98l17 -445l67 -80l-315 -51l43 109l-41 1189z" />
<glyph unicode="L" horiz-adv-x="495" d="M-80 1315l348 -17l-55 -86l18 -1069l170 17l99 198l-17 -395l-452 -49l-23 1280z" />
<glyph unicode="M" horiz-adv-x="722" d="M-59 -166l73 98l84 2042l240 -1151l143 1108l234 -1999l155 -53l-440 -115l84 123l-43 365l-86 -662l-149 725l-17 -387l68 -104z" />
<glyph unicode="N" horiz-adv-x="600" d="M-39 -143l70 102l88 2026l246 -1215l16 346l-86 101l422 43l-131 -142l-99 -2005l-237 1182l-14 -352l88 -146z" />
<glyph unicode="O" horiz-adv-x="634" d="M12 709q0 215 45 374q74 266 240 267q156 0 250 -240t94 -571q0 -213 -45 -375q-74 -266 -240 -266q-156 0 -250 239.5t-94 571.5zM217 709q0 -293 80 -496q43 -109 57 -109q12 0 45 115q37 133 37 320q0 293 -80 495q-43 109 -57 109q-12 0 -45 -113q-37 -135 -37 -321z " />
<glyph unicode="P" horiz-adv-x="518" d="M-106 1331l186 6q60 3 84 3q12 0 16 -1q164 -20 258 -172q84 -137 84 -325q0 -174 -71 -305q-80 -143 -218 -181l9 -325l80 -90l-357 -31l72 125l-29 1161zM215 1116l12 -530q92 96 92 286q0 186 -104 244z" />
<glyph unicode="Q" horiz-adv-x="634" d="M12 709q0 215 45 374q74 266 240 267q156 0 250 -241t94 -585q0 -326 -102 -499l16 -103q10 -39 10 -74q0 -115 -100 -188q-84 -63 -215 -84l-76 -111l-90 467l143 -153q131 18 131 76q0 10 -2 22l-4 21q-152 4 -246 241.5t-94 569.5zM125 594l94 39q-1 15 -1 32 q0 96 20 257q27 221 61 221q37 0 86 -213q39 -178 47 -262l-258 -80l82 -90l47 -299l-6 14q-45 119 -66 281z" />
<glyph unicode="R" horiz-adv-x="514" d="M-96 1350l243 4h8q164 0 255 -158q79 -137 79 -349v-5q0 -307 -129 -443l117 -391l146 -45l-406 -178l51 127l62 10l-58 58l-47 217l23 -197l53 -68l-22 -6l-316 -53l80 139l-29 1211zM190 1145q32 -49 46 -602q53 18 53 245q0 307 -99 357z" />
<glyph unicode="S" horiz-adv-x="622" d="M-10 1040q0 324 258 324q29 0 61 -4q150 -23 219 -168q50 -105 50 -248v-26l61 -111l-383 14l119 125q-2 98 -37 155.5t-78 57.5q-70 0 -70 -125q0 -74 31 -174q29 -47 43 -67q37 -49 66 -52q154 -16 239 -139q76 -111 76 -268q0 -168 -84 -291q-92 -131 -242 -131 q-272 0 -272 383q0 35 2 72l-53 118l377 -63l-123 -96q-4 -63 -4 -93q0 -116 72 -116h1q137 0 138 133q0 88 -54 188q-51 94 -94 99q-150 16 -276 241q-6 23 -25 94q-18 86 -18 168z" />
<glyph unicode="T" horiz-adv-x="585" d="M-61 981l69 360l584 -10l2 -405l-92 202l-117 2l18 -1087l103 -139l-391 37l84 112l-19 1080l-96 2z" />
<glyph unicode="U" horiz-adv-x="624" d="M-76 1296l322 23l-47 -105q2 -238 18 -702q14 -195 31 -279q25 -119 74 -131q5 -2 10 -2q31 0 43 70q10 61 14 256l19 797l-68 125l352 -72l-82 -98q-2 -281 -6 -560q-8 -336 -61 -503q-66 -219 -217 -219q-16 0 -33 4q-147 20 -219 223q-51 139 -58 328l-22 753z" />
<glyph unicode="V" horiz-adv-x="569" d="M-131 1407l360 92l-51 -145l98 -568l70 508l-43 105l346 -45l-100 -94l-252 -1801l-322 1862z" />
<glyph unicode="W" horiz-adv-x="784" d="M-113 1495l381 14l-84 -94l43 -489l146 772l119 -817l77 512l-108 143l401 -109l-90 -63l-287 -1870l-139 963l-192 -1022l-172 1947z" />
<glyph unicode="X" horiz-adv-x="585" d="M-123 1298l318 129l-2 -141l92 -321l92 335l-68 103l396 -76l-134 -92l-178 -649l154 -539l84 -143l-340 45l51 76l-53 182l-47 -176l20 -129l-325 147l116 68l127 469l-182 639z" />
<glyph unicode="Y" horiz-adv-x="585" d="M-106 1327l376 88l-84 -141l66 -326l115 375l-99 137l391 -119l-90 -61l-233 -758l16 -459l70 -83l-359 -60l84 154l-16 452l-149 723z" />
<glyph unicode="Z" horiz-adv-x="598" d="M-45 -104l426 1239l-295 -2l-127 -119l47 323l662 4l-410 -1189l119 18l106 174l2 -364z" />
<glyph unicode="[" horiz-adv-x="512" d="M14 -74v1313l404 90l37 74l98 -330l-127 47l-207 -45v-1001l113 -41l149 51l-149 -369l-60 123z" />
<glyph unicode="\" horiz-adv-x="638" d="M-104 1305l352 141l-39 -158l407 -1323l109 -78l-360 -61l45 115l-410 1329z" />
<glyph unicode="]" horiz-adv-x="512" d="M-76 -242l15 322l55 -57l219 6l80 1093l-209 -12l-76 -76l-4 330l51 -51l459 28l-108 -1511l-398 -10z" />
<glyph unicode="^" horiz-adv-x="598" d="M-74 1001l109 56l282 407l215 -387l93 -37l-308 -188l48 104l-68 121l-104 -151l10 -82z" />
<glyph unicode="_" horiz-adv-x="1220" d="M-66 43l64 -70l1057 13l88 55l57 -305l-143 45l-1045 -12l-35 -66z" />
<glyph unicode="`" horiz-adv-x="417" d="M-2 1116q0 59 34 105.5t91 46.5q47 0 90 -38t61 -97l117 -379l-287 178q-14 6 -28 18l-17 8l2 3q-63 61 -63 155z" />
<glyph unicode="a" horiz-adv-x="606" d="M-147 715l118 96q8 215 76 363q85 189 243 189q13 0 27 -1q283 -25 283 -563q0 -37 -4 -176l-18 -598l110 -150l-209 35q-199 12 -332 86q-172 96 -172 269v16q8 154 146 231q106 59 268 66l2 57q10 96 10 184q0 55 -4 107q-8 92 -20 137q-25 90 -78 94h-7 q-116 0 -116 -385v-14l92 -129zM180 262q0 -90 195 -133l8 244q-92 -4 -147.5 -37t-55.5 -74z" />
<glyph unicode="b" horiz-adv-x="620" d="M-61 1350l313 4l-51 -107l10 -377q20 4 41 4q14 0 29 -2q174 -25 264 -131q80 -96 80 -241q0 -199 -136 -375q-143 -184 -350 -217l-184 -27l72 131l-29 1223zM215 670l12 -529q171 78 187 289q2 16 2 31q0 81 -46 136q-54 65 -155 73z" />
<glyph unicode="c" horiz-adv-x="585" d="M-25 526q23 360 56 512q79 354 262 354q8 0 16 -1q143 -10 211 -129q57 -94 58 -238q0 -41 -7 -82l52 -154l-387 101l135 98q6 41 6 72q0 121 -84 127h-1q-24 0 -44 -72q-16 -57 -39 -215q-29 -213 -29 -393q0 -92 21 -174q29 -115 84 -133q20 -6 32 26q6 19 6 45 q0 45 -18 111l-125 45l328 145l-8 -125q30 -95 30 -177v-5q0 -127 -67 -203q-62 -67 -155 -67h-3q-137 0 -233 131q-99 133 -99 346q0 27 2 55z" />
<glyph unicode="d" horiz-adv-x="661" d="M-41 389q-1 23 -1 45q0 188 108 314q120 140 329 157l-14 318l-129 110l377 23l-45 -107l53 -1186l115 -147h-207q-53 -8 -103 -8q-205 0 -337 128t-146 353zM164 401q8 -117 74 -194q71 -86 192 -92l-27 583q-125 -12 -188 -100q-52 -72 -51 -175q-1 -11 0 -22z" />
<glyph unicode="e" horiz-adv-x="712" d="M-14 817q0 223 71 361q82 156 242 170q15 1 30 1q204 0 302 -235q76 -178 76 -432q0 -61 -9 -152l-12 -49l-68 -4l-370 -45q82 -330 160 -330q57 0 57 95q0 20 -6 98l-86 37l356 106l-82 -131q1 -27 1 -52q0 -357 -239 -357h-1q-162 0 -295 305q-127 291 -127 614z M188 811q0 -82 17 -178l297 37v39q0 219 -62 340q-48 95 -105 95q-5 0 -11 -1q-51 -8 -88 -88q-47 -92 -48 -244z" />
<glyph unicode="f" horiz-adv-x="645" d="M-29 909q20 428 301 449q15 1 29 1q191 0 281 -177q65 -126 65 -297q0 -29 -2 -60l62 -125l-342 78l77 88q0 125 -44 207t-101 82q-109 0 -121 -256q-1 -22 -1 -45q0 -101 15 -207l166 -2l74 96l43 -368l-108 67l-142 2q8 -51 64 -411l98 -109l-391 -24l92 92l-43 278 q-12 90 -41 271q-16 45 -25 182q-6 94 -6 158v30z" />
<glyph unicode="g" horiz-adv-x="868" d="M-25 -6l394 -105l-88 -45q-2 -18 0 -24q4 -33 71.5 -63.5t143.5 -30.5q164 0 164 145q0 12 -1 25l-12 178q-88 -145 -231 -156q-12 -1 -23 -1q-231 0 -354 343q-75 212 -75 427q0 127 26 255q78 375 327 393q10 1 19 1q75 0 141 -42l-2 2l322 21l-33 -100l100 -1303 q1 -18 1 -35q0 -162 -117 -260q-115 -96 -287 -96q-162 0 -271 84q-114 85 -114 226v17zM170 698q0 -41 2 -86q16 -233 104 -379q67 -110 120 -110h5q51 2 103 106q61 129 61 324q0 43 -4 86q-16 233 -102 379q-67 112 -122 112h-5q-49 -4 -101 -108q-61 -129 -61 -324z" />
<glyph unicode="h" horiz-adv-x="620" d="M-106 1364l329 -12l-45 -90l-2 -301q215 -5 335 -149q108 -130 109 -318q0 -20 -2 -41l-26 -471l31 -109l-299 74l65 76l25 438q1 11 1 22q1 111 -57 183q-62 78 -182 90l-2 -725l88 -94l-342 -25l49 88l4 1251z" />
<glyph unicode="i" horiz-adv-x="317" d="M-94 1020l391 63l-29 -98l29 -938l115 -117l-406 4l86 109l-29 903zM-29 1335q0 80 47.5 140.5t116.5 60.5q72 0 118 -60.5t46 -140.5q0 -82 -46 -142t-118 -60q-70 0 -117 60t-47 142z" />
<glyph unicode="j" horiz-adv-x="290" d="M-559 33l414 -96l-52 -58q-2 -27 -2 -39q4 -88 45 -135q35 -41 86 -41q98 0 127 105q15 51 15 122v25l-35 1026l-105 82l336 63l-26 -100l35 -1061q1 -15 1 -29q0 -157 -61 -272q-86 -164 -273 -164h-9q-174 6 -265 138q-74 107 -74 258q0 17 1 34zM-29 1335 q0 80 47.5 140.5t116.5 60.5q72 0 118 -60.5t46 -140.5q0 -82 -46 -142t-118 -60q-70 0 -117 60t-47 142z" />
<glyph unicode="k" horiz-adv-x="581" d="M-123 1290l373 51l-66 -122l11 -291l147 303l-37 110l369 -129l-148 -69l-168 -348q109 -27 164 -148q41 -92 41 -206v-11l-10 -426l55 -123l-342 49l82 113l10 389v14q0 146 -79 146q-10 0 -21 -2l-49 -98l16 -445l68 -80l-316 -51l43 109l-40 1189z" />
<glyph unicode="l" horiz-adv-x="260" d="M-182 1300l403 58l-31 -123l50 -1184l98 -137l-371 8l68 119l-49 1176z" />
<glyph unicode="m" horiz-adv-x="962" d="M-86 1309l240 -31q100 57 188 57q106 0 166 -80q39 43 102.5 73t116.5 30q162 0 197 -326q14 -139 16 -442q0 -463 4 -580l119 -102l-408 -12l84 112l-30 1092q-2 43 -15 43q-8 0 -26 -13q-31 -27 -97 -79q10 -207 11 -516q2 -258 2 -517l47 -90l-332 17l80 94l-12 983 q-2 96 -56 96q-39 0 -106 -51l31 -1032l86 -90l-359 -31l68 131l-33 1131z" />
<glyph unicode="n" horiz-adv-x="653" d="M-104 1331l260 -26q104 59 196 59q215 0 236 -305q27 -387 55 -1053l72 -90l-402 -35l125 146q-31 647 -55 1020q-8 120 -56 120h-1q-31 0 -136 -90l41 -1030l84 -127l-346 -10l60 123l-49 1181z" />
<glyph unicode="o" horiz-adv-x="616" d="M-8 811q0 215 45 375q74 266 239 266q156 0 250.5 -239.5t94.5 -571.5q-1 -213 -46 -375q-74 -266 -239 -266q-156 0 -250 239.5t-94 571.5zM197 811q0 -293 79 -496q43 -108 58 -108q12 0 45 115q37 133 37 319q0 293 -80 496q-43 108 -57 108q-12 0 -46 -112 q-36 -131 -36 -312v-10z" />
<glyph unicode="p" horiz-adv-x="587" d="M-184 1257l227 54q66 16 127 16q201 0 311 -172q100 -154 101 -395q0 -242 -97 -457q-104 -231 -274 -323l8 -355l88 -108l-477 18l182 143l-32 1500zM186 1130l19 -905q154 164 164 518q1 22 1 43q0 338 -184 344z" />
<glyph unicode="q" horiz-adv-x="622" d="M-25 473q-1 37 -1 74q0 240 57 432q100 336 356 377l299 -13l-127 -133l45 -1423l49 31v159l248 -350l-149 11l-342 -213l-15 454q-35 -8 -68 -8q-38 0 -73 10q-258 74 -279 592zM170 471q0 -172 39 -276q41 -117 121 -117q28 0 59 14l-33 1038q-82 -59 -135 -262 q-51 -190 -51 -397z" />
<glyph unicode="r" horiz-adv-x="712" d="M-92 -66l102 127l17 1160l-88 127l393 -33q59 20 112 20q135 0 203 -125q61 -109 61 -311q0 -53 -3 -108l40 -121l-356 110l113 74v32q0 50 -4 109q-10 133 -43 135h-13q-103 0 -215 -122l-12 -979l78 -113z" />
<glyph unicode="s" horiz-adv-x="655" d="M-10 979q0 324 258 324q29 0 61 -5q150 -23 219 -168q50 -105 50 -248v-26l61 -111l-383 15l119 125q-2 98 -37 155.5t-78 57.5q-70 0 -70 -125q0 -74 31 -174q29 -47 43 -68q37 -49 66 -51q154 -16 239 -139q76 -111 76 -269q0 -168 -84 -290q-92 -131 -242 -132 q-272 0 -272 383q0 35 2 72l-53 119l377 -64l-123 -96q-4 -63 -4 -92q0 -117 73 -117q137 0 138 133q0 88 -54 189q-51 94 -94 98q-150 16 -276 242q-6 23 -25 94q-18 86 -18 168z" />
<glyph unicode="t" horiz-adv-x="606" d="M-57 1378l387 35l-131 -141q0 -35 2 -115l57 6l80 60l108 -293l-170 26q-25 0 -71 -4q2 -184 4 -444q0 -145 10 -223q20 -172 82 -185q5 -1 9 -1q56 0 75 165q8 59 14 287l-108 94l391 21l-80 -119q-12 -174 -37.5 -298t-83.5 -220q-78 -133 -186 -133q-18 0 -37 4 q-145 31 -211 258q-43 149 -43 335v17v68q0 253 -12 698z" />
<glyph unicode="u" horiz-adv-x="624" d="M-76 1378l322 23l-47 -105q2 -238 18 -702q14 -195 31 -279q25 -119 74 -131q5 -2 10 -2q31 0 43 70q10 61 14 256l19 797l-68 125l352 -72l-82 -98q-2 -281 -6 -560q-8 -336 -61 -503q-66 -219 -217 -220q-16 0 -33 5q-147 20 -219 223q-51 139 -58 327l-22 754z" />
<glyph unicode="v" horiz-adv-x="573" d="M-131 1489l360 92l-51 -145l98 -568l70 508l-43 105l346 -45l-100 -95l-252 -1800l-322 1862z" />
<glyph unicode="w" horiz-adv-x="774" d="M-113 1577l381 14l-84 -94l43 -489l146 772l119 -817l77 512l-108 143l401 -109l-90 -63l-287 -1870l-139 963l-192 -1022l-172 1947z" />
<glyph unicode="x" horiz-adv-x="577" d="M-123 1257l318 129l-2 -141l92 -321l92 336l-68 102l396 -76l-134 -92l-178 -649l154 -539l84 -143l-340 45l51 76l-53 182l-47 -176l20 -129l-325 147l116 68l127 469l-182 639z" />
<glyph unicode="y" horiz-adv-x="565" d="M-106 1266l376 88l-84 -142l66 -325l115 375l-99 137l391 -119l-90 -61l-233 -758l16 -459l70 -84l-359 -59l84 153l-16 453l-149 723z" />
<glyph unicode="z" horiz-adv-x="602" d="M-45 -23l426 1240l-295 -3l-127 -118l47 323l662 4l-410 -1190l119 19l106 174l2 -365z" />
<glyph unicode="{" horiz-adv-x="561" d="M0 709q0 225 76 403q96 223 297 313l41 88l172 -266l-178 -28q-203 -135 -203 -510q0 -182 63 -363q72 -209 207 -346h121l-256 -221l-37 102q-23 23 -37 39q-266 319 -266 789z" />
<glyph unicode="|" horiz-adv-x="294" d="M-111 1419l387 25l-61 -141l21 -1401l108 -140l-399 5l88 122l-23 1414z" />
<glyph unicode="}" horiz-adv-x="466" d="M-129 2l106 39q135 137 207 346q63 180 64 363q0 375 -203 510l-168 -35l191 327l12 -86q201 -90 297 -313q76 -178 76 -403q0 -469 -267 -789q-14 -16 -36 -39l-13 -184z" />
<glyph unicode="~" horiz-adv-x="815" d="M-63 961l75 45q16 76 27 98q72 180 254 180q147 0 233 -131q4 6 60 86l-19 88l299 -149l-108 -50q-147 -221 -248 -221q-57 0 -107 66q-20 29 -41 57q-29 39 -49 43q-10 4 -20 4q-45 0 -72 -80l51 -90z" />
<glyph unicode="&#xa1;" horiz-adv-x="434" d="M-8 -111l112 117l29 854l-106 154l426 55l-115 -164l-27 -827l129 -117zM104 1294q0 80 46.5 140.5t117.5 60.5q70 0 117 -60.5t47 -140.5q0 -82 -47 -142t-117 -60q-72 0 -118 60t-46 142z" />
<glyph unicode="&#xa2;" horiz-adv-x="614" d="M29 1268q115 23 202 22q152 0 373 -86l-119 -1214l-393 -45q-25 215 -41 663q-10 330 -22 660zM66 1247q6 -315 10 -631q8 -438 24 -632l340 32l135 1164q-203 84 -350 84q-72 0 -159 -17zM92 940q0 76 25 94q43 33 106 41l15 -121q-12 25 -29 25q-31 0 -62 -84 q-23 -61 -41 -37q-14 20 -14 82zM94 565q0 109 58 137l20 3l2 -46q-18 -10 -31 -26q-35 -37 -37 -92q-2 -20 -4 -23q-8 0 -8 47zM109 274q0 297 71 322l31 2q12 0 22 -6q25 -12 35 -39q12 59 72 51q39 -6 76 -131t37 -242q-1 -42 -7 -75q-10 -41 -43 -41q-25 0 -91 30.5 t-97 30.5q-45 0 -63 -53q-8 -29 -17 -29q-27 0 -26 180zM127 805q0 31 20.5 54.5t51.5 23.5q39 0 59 -35q-2 6 -2 12q0 33 22.5 55.5t55.5 22.5q31 0 53.5 -22.5t22.5 -55.5q0 -31 -22.5 -53.5t-53.5 -22.5q-43 0 -66 35q2 -6 2 -14q0 -29 -20.5 -52.5t-50.5 -23.5 q-31 0 -51.5 23.5t-20.5 52.5zM143 805q0 -59 56 -60q55 1 55 60q0 61 -55 61t-56 -61zM145 383q-6 -109 2 -197q27 29 64 29q35 0 100 -30.5t88 -32.5q20 -4 21 88q0 104 -23 206q-27 117 -63 123q-18 2 -25.5 -24.5t-23.5 -147.5q-53 154 -76 166l-21 -2q-37 -18 -43 -178 zM158 805q0 47 41 47t41 -47q0 -45 -41 -45t-41 45zM174 797q0 -25 21 -25q20 0 20 25q0 27 -20 26q-20 0 -21 -26zM186 670l31 14q8 -14 16 -29q23 92 39 80q14 -14 31 -71l21 26l26 -22l-18 -33q-20 8 -72 -25q-6 12 -59 27zM268 1044q0 35 8 89l70 8q70 2 117 -115 q10 -23 10 -33q0 -8 -6 -8t-54 29.5t-75 29.5q-20 0 -36.5 -20t-20.5 -20q-12 0 -13 40zM272 860q0 -59 62 -59q59 0 59 59q0 61 -59 62q-61 0 -62 -62zM287 860q0 47 47 47q45 0 45 -47q0 -45 -45 -45q-47 0 -47 45zM313 850q0 -25 27 -25q25 0 25 25q0 27 -25 27 q-27 0 -27 -27zM346 684l4 59l23 2q100 -16 100 -170q0 -41 -6 -40q-4 3 -4 34q0 121 -117 115zM395 561l17 86l37 -41l4 -59l12 -31l-21 -98l-6 37zM414 745l10 64l78 -49l-25 -109l-6 31zM428 831l18 97l78 -29l-18 -119zM455 956l6 25h14l8 18l-12 37l2 23l64 -19 l-15 -108zM471 1098l16 86l72 -25l-12 -84z" />
<glyph unicode="&#xa3;" d="M-20 1219q141 53 272 53q76 0 381 -43q-25 -358 -49 -717q-35 -492 -72 -547q-178 -6 -375 60q-10 242 -51 577q-47 377 -106 617zM0 1202q0 -12 45 -12t45 12q0 14 -45 15q-45 0 -45 -15zM31 1135q0 -31 39 -31t39 31t-39 30q-39 0 -39 -30zM53 993l33 -202 q84 -27 143 -54q145 -66 150 -114l31 6q92 215 161 198l7 199l-205 -301zM76 1057q0 -23 28 -23q29 0 29 23q0 20 -29 20t-28 -20zM88 1001l88 -47l326 13l43 45zM121 418q0 -82 41 -191q-10 31 -10 62q-1 92 77 164l-10 77h-29q-70 -14 -69 -112zM184 242q0 -133 72 -160 q41 -16 80 -16q33 0 57 12q90 72 90 180q0 37 -18 92q-22 66 -53 66q-29 0 -70 -80q-47 55 -86 55q-25 0 -41 -22q-31 -45 -31 -127zM188 614q-2 0 11.5 9.5t38.5 9.5q37 -1 88 -17q-6 20 -15 35q-23 35 -55 39q-31 2 -55.5 -37t-12.5 -39zM215 254q0 59 25 96q10 14 24 15 q35 0 80 -60q33 63 64 64q25 0 43 -43t18 -82q0 -53 -37 -92q-25 -18 -47 -37q-37 -14 -117 16q-53 20 -53 123zM223 1229l23 -47l139 14l16 37q-39 23 -88 22q-47 0 -90 -26zM227 936l131 -152l107 164zM229 1137l15 -103l143 10l14 113zM262 549q-2 -92 21 -92q6 0 18 13 t25 13q23 0 39 -39l12 -6q29 47 41 47q6 0 9 -18t7 -21.5t10 -3.5q27 0 54 80l-105 53zM442 625q0 -2 2 -2l18 15q19 15 36 15q28 1 53 -26q-8 74 -53 65q-43 -6 -47 -55q-8 -10 -9 -12zM483 424q47 -59 47 -121q0 -53 -38 -94q68 25 67 133q0 48 -14 107l-21 28zM514 1192 q0 -23 47 -23q49 0 49 23t-49 22q-47 0 -47 -22zM522 1120q0 -31 39 -30q39 -1 39 30q0 29 -39 29t-39 -29zM532 1051q0 -25 23 -25t23 25q0 23 -23 22q-23 0 -23 -22z" />
<glyph unicode="&#xa4;" horiz-adv-x="714" d="M-20 580l96 268l-41 358q143 76 282 76q23 0 218 -12l-13 -326q111 -14 168 -209l8 -67q-6 27 -47 69q-53 53 -112 54q-12 0 -23 -5l-16 -393q80 0 80 -84q0 -102 -88 -155l-3 -82l-323 -13l-6 56q-41 12 -63.5 73.5t-16.5 128.5q8 80 45 109l-31 260q-47 -35 -114 -106z M31 662q96 94 166 94q51 0 73 -58q45 -111 45 -178q0 -74 -53 -78q-12 -2 -12 -10q0 -18 41 -44t82 -26q57 0 78 60q-117 84 -117 184q0 72 65 137q76 74 144 74q78 0 129 -86q-57 188 -168 189q-86 0 -191 -132q-66 117 -131 117q-51 0 -92 -74zM100 313 q-6 -63 14.5 -120.5t61.5 -59.5q43 -4 127 43q27 16 45 17q16 0 43 -17.5t47 -17.5q68 0 107 90q16 33 16 61q0 61 -61 62q-12 0 -30.5 -4.5t-94.5 -32.5q-66 -23 -90 -23q-43 0 -74 62q-25 45 -51 45q-14 0 -29 -15q-25 -25 -31 -90zM119 279q0 117 41 116q16 0 33 -33 q37 -72 92 -71q27 0 84 20q71 29 106 37q12 2 23 2q41 0 41 -45q0 -41 -32 -84t-69 -43q-16 0 -32 12q-31 23 -58 23q-25 0 -78 -31.5t-94 -27.5q-57 4 -57 125zM133 604q0 -63 62 -63q61 0 61 63t-61 64q-61 0 -62 -64zM135 248l21 24l-21 19v-43zM141 317l41 -28l13 43 l-35 26zM143 209l56 -41l14 76l-43 20zM143 604q0 53 52 53q51 0 51 -53t-51 -53t-52 53zM156 600q0 -43 18 -43q19 0 19 43t-19 43q-18 0 -18 -43zM199 270l47 -16l8 31l-47 28zM231 176l70 35v27l-70 4v-66zM268 281l2 -33l62 10l-4 29zM326 244l4 -21l73 -8v35zM354 291 l4 -31l70 8l-14 45zM389 608q0 -59 45 -59t45 59q0 61 -45 62q-45 0 -45 -62zM399 608q0 51 35 51t35 -51q0 -49 -35 -49t-35 49zM422 602q0 -39 18 -39q19 0 19 39t-19 39q-18 0 -18 -39zM424 199l45 -2l25 55l-52 -2zM444 319l15 -51l53 21l-12 49z" />
<glyph unicode="&#xa5;" d="M-20 1219q141 53 272 53q76 0 381 -43q-25 -358 -49 -717q-35 -492 -72 -547q-178 -6 -375 60q-10 242 -51 577q-47 377 -106 617zM0 1202q0 -12 45 -12t45 12q0 14 -45 15q-45 0 -45 -15zM31 1135q0 -31 39 -31t39 31t-39 30q-39 0 -39 -30zM53 993l33 -202 q84 -27 143 -54q145 -66 150 -114l31 6q92 215 161 198l7 199l-205 -301zM76 1057q0 -23 28 -23q29 0 29 23q0 20 -29 20t-28 -20zM88 1001l88 -47l326 13l43 45zM121 418q0 -82 41 -191q-10 31 -10 62q-1 92 77 164l-10 77h-29q-70 -14 -69 -112zM184 242q0 -133 72 -160 q41 -16 80 -16q33 0 57 12q90 72 90 180q0 37 -18 92q-22 66 -53 66q-29 0 -70 -80q-47 55 -86 55q-25 0 -41 -22q-31 -45 -31 -127zM188 614q-2 0 11.5 9.5t38.5 9.5q37 -1 88 -17q-6 20 -15 35q-23 35 -55 39q-31 2 -55.5 -37t-12.5 -39zM215 254q0 59 25 96q10 14 24 15 q35 0 80 -60q33 63 64 64q25 0 43 -43t18 -82q0 -53 -37 -92q-25 -18 -47 -37q-37 -14 -117 16q-53 20 -53 123zM223 1229l23 -47l139 14l16 37q-39 23 -88 22q-47 0 -90 -26zM227 936l131 -152l107 164zM229 1137l15 -103l143 10l14 113zM262 549q-2 -92 21 -92q6 0 18 13 t25 13q23 0 39 -39l12 -6q29 47 41 47q6 0 9 -18t7 -21.5t10 -3.5q27 0 54 80l-105 53zM442 625q0 -2 2 -2l18 15q19 15 36 15q28 1 53 -26q-8 74 -53 65q-43 -6 -47 -55q-8 -10 -9 -12zM483 424q47 -59 47 -121q0 -53 -38 -94q68 25 67 133q0 48 -14 107l-21 28zM514 1192 q0 -23 47 -23q49 0 49 23t-49 22q-47 0 -47 -22zM522 1120q0 -31 39 -30q39 -1 39 30q0 29 -39 29t-39 -29zM532 1051q0 -25 23 -25t23 25q0 23 -23 22q-23 0 -23 -22z" />
<glyph unicode="&#xa7;" horiz-adv-x="714" d="M-20 580l96 268l-41 358q143 76 282 76q23 0 218 -12l-13 -326q111 -14 168 -209l8 -67q-6 27 -47 69q-53 53 -112 54q-12 0 -23 -5l-16 -393q80 0 80 -84q0 -102 -88 -155l-3 -82l-323 -13l-6 56q-41 12 -63.5 73.5t-16.5 128.5q8 80 45 109l-31 260q-47 -35 -114 -106z M31 662q96 94 166 94q51 0 73 -58q45 -111 45 -178q0 -74 -53 -78q-12 -2 -12 -10q0 -18 41 -44t82 -26q57 0 78 60q-117 84 -117 184q0 72 65 137q76 74 144 74q78 0 129 -86q-57 188 -168 189q-86 0 -191 -132q-66 117 -131 117q-51 0 -92 -74zM100 313 q-6 -63 14.5 -120.5t61.5 -59.5q43 -4 127 43q27 16 45 17q16 0 43 -17.5t47 -17.5q68 0 107 90q16 33 16 61q0 61 -61 62q-12 0 -30.5 -4.5t-94.5 -32.5q-66 -23 -90 -23q-43 0 -74 62q-25 45 -51 45q-14 0 -29 -15q-25 -25 -31 -90zM119 279q0 117 41 116q16 0 33 -33 q37 -72 92 -71q27 0 84 20q71 29 106 37q12 2 23 2q41 0 41 -45q0 -41 -32 -84t-69 -43q-16 0 -32 12q-31 23 -58 23q-25 0 -78 -31.5t-94 -27.5q-57 4 -57 125zM133 604q0 -63 62 -63q61 0 61 63t-61 64q-61 0 -62 -64zM135 248l21 24l-21 19v-43zM141 317l41 -28l13 43 l-35 26zM143 209l56 -41l14 76l-43 20zM143 604q0 53 52 53q51 0 51 -53t-51 -53t-52 53zM156 600q0 -43 18 -43q19 0 19 43t-19 43q-18 0 -18 -43zM199 270l47 -16l8 31l-47 28zM231 176l70 35v27l-70 4v-66zM268 281l2 -33l62 10l-4 29zM326 244l4 -21l73 -8v35zM354 291 l4 -31l70 8l-14 45zM389 608q0 -59 45 -59t45 59q0 61 -45 62q-45 0 -45 -62zM399 608q0 51 35 51t35 -51q0 -49 -35 -49t-35 49zM422 602q0 -39 18 -39q19 0 19 39t-19 39q-18 0 -18 -39zM424 199l45 -2l25 55l-52 -2zM444 319l15 -51l53 21l-12 49z" />
<glyph unicode="&#xa8;" horiz-adv-x="673" d="M0 1530q0 66 37 111t90 45t90 -45t37 -111q0 -63 -37 -109.5t-90 -46.5t-90 46t-37 110zM289 1546q0 59 27.5 101.5t70.5 48.5q63 8 107 -56q38 -54 38 -122q0 -57 -27.5 -99.5t-72.5 -48.5q-63 -8 -106 55q-37 55 -37 121z" />
<glyph unicode="&#xa9;" horiz-adv-x="931" d="M29 780q0 180 84 314.5t225 169.5q41 10 82 10q158 0 294 -128t187 -329q20 -88 21 -174q0 -180 -84 -314t-226 -169q-41 -10 -82 -10q-158 0 -294 128t-185 328q-23 88 -22 174zM160 956q0 -8 2 -16l157 -633q14 -55 70 -55q8 0 19 2l315 80q53 12 53 69q0 9 -2 17 l-158 633q-12 55 -69 55q-8 0 -17 -2l-315 -80q-55 -12 -55 -70zM293 838q0 170 94 186q12 2 25 2q133 0 155 -188l43 -68h-198l53 66q-10 96 -62 88q-12 -2 -14 -41q0 -31 8 -111q16 -152 45 -231q33 -96 76 -99q12 0 12 17q2 29 -24 76l-66 6l142 108l12 -61 q41 -70 41 -129q0 -53 -32 -85t-79 -32q-63 0 -114 53q-59 59 -80 170q-37 188 -37 273z" />
<glyph unicode="&#xaa;" horiz-adv-x="524" d="M-16 446l14 256l43 -51l313 23l-61 10q-209 12 -201 147q4 113 164 119l2 23q6 63 2 117q-4 37 -8 55q-10 37 -31 37q-49 6 -49 -154v-6l35 -51l-166 35l49 38q2 84 29 144q37 82 108 76q113 -10 115 -226q0 -14 -2 -69l-8 -240l41 -55l65 4l31 45l47 -227l-70 39 l-352 -23zM172 823q0 -35 80 -51l2 96q-82 -4 -82 -45z" />
<glyph unicode="&#xab;" d="M-20 1219q141 53 272 53q76 0 381 -43q-25 -358 -49 -717q-35 -492 -72 -547q-178 -6 -375 60q-10 242 -51 577q-47 377 -106 617zM0 1202q0 -12 45 -12t45 12q0 14 -45 15q-45 0 -45 -15zM31 1135q0 -31 39 -31t39 31t-39 30q-39 0 -39 -30zM53 993l33 -202 q84 -27 143 -54q145 -66 150 -114l31 6q92 215 161 198l7 199l-205 -301zM76 1057q0 -23 28 -23q29 0 29 23q0 20 -29 20t-28 -20zM88 1001l88 -47l326 13l43 45zM121 418q0 -82 41 -191q-10 31 -10 62q-1 92 77 164l-10 77h-29q-70 -14 -69 -112zM184 242q0 -133 72 -160 q41 -16 80 -16q33 0 57 12q90 72 90 180q0 37 -18 92q-22 66 -53 66q-29 0 -70 -80q-47 55 -86 55q-25 0 -41 -22q-31 -45 -31 -127zM188 614q-2 0 11.5 9.5t38.5 9.5q37 -1 88 -17q-6 20 -15 35q-23 35 -55 39q-31 2 -55.5 -37t-12.5 -39zM215 254q0 59 25 96q10 14 24 15 q35 0 80 -60q33 63 64 64q25 0 43 -43t18 -82q0 -53 -37 -92q-25 -18 -47 -37q-37 -14 -117 16q-53 20 -53 123zM223 1229l23 -47l139 14l16 37q-39 23 -88 22q-47 0 -90 -26zM227 936l131 -152l107 164zM229 1137l15 -103l143 10l14 113zM262 549q-2 -92 21 -92q6 0 18 13 t25 13q23 0 39 -39l12 -6q29 47 41 47q6 0 9 -18t7 -21.5t10 -3.5q27 0 54 80l-105 53zM442 625q0 -2 2 -2l18 15q19 15 36 15q28 1 53 -26q-8 74 -53 65q-43 -6 -47 -55q-8 -10 -9 -12zM483 424q47 -59 47 -121q0 -53 -38 -94q68 25 67 133q0 48 -14 107l-21 28zM514 1192 q0 -23 47 -23q49 0 49 23t-49 22q-47 0 -47 -22zM522 1120q0 -31 39 -30q39 -1 39 30q0 29 -39 29t-39 -29zM532 1051q0 -25 23 -25t23 25q0 23 -23 22q-23 0 -23 -22z" />
<glyph unicode="&#xac;" horiz-adv-x="714" d="M-20 580l96 268l-41 358q143 76 282 76q23 0 218 -12l-13 -326q111 -14 168 -209l8 -67q-6 27 -47 69q-53 53 -112 54q-12 0 -23 -5l-16 -393q80 0 80 -84q0 -102 -88 -155l-3 -82l-323 -13l-6 56q-41 12 -63.5 73.5t-16.5 128.5q8 80 45 109l-31 260q-47 -35 -114 -106z M31 662q96 94 166 94q51 0 73 -58q45 -111 45 -178q0 -74 -53 -78q-12 -2 -12 -10q0 -18 41 -44t82 -26q57 0 78 60q-117 84 -117 184q0 72 65 137q76 74 144 74q78 0 129 -86q-57 188 -168 189q-86 0 -191 -132q-66 117 -131 117q-51 0 -92 -74zM100 313 q-6 -63 14.5 -120.5t61.5 -59.5q43 -4 127 43q27 16 45 17q16 0 43 -17.5t47 -17.5q68 0 107 90q16 33 16 61q0 61 -61 62q-12 0 -30.5 -4.5t-94.5 -32.5q-66 -23 -90 -23q-43 0 -74 62q-25 45 -51 45q-14 0 -29 -15q-25 -25 -31 -90zM119 279q0 117 41 116q16 0 33 -33 q37 -72 92 -71q27 0 84 20q71 29 106 37q12 2 23 2q41 0 41 -45q0 -41 -32 -84t-69 -43q-16 0 -32 12q-31 23 -58 23q-25 0 -78 -31.5t-94 -27.5q-57 4 -57 125zM133 604q0 -63 62 -63q61 0 61 63t-61 64q-61 0 -62 -64zM135 248l21 24l-21 19v-43zM141 317l41 -28l13 43 l-35 26zM143 209l56 -41l14 76l-43 20zM143 604q0 53 52 53q51 0 51 -53t-51 -53t-52 53zM156 600q0 -43 18 -43q19 0 19 43t-19 43q-18 0 -18 -43zM199 270l47 -16l8 31l-47 28zM231 176l70 35v27l-70 4v-66zM268 281l2 -33l62 10l-4 29zM326 244l4 -21l73 -8v35zM354 291 l4 -31l70 8l-14 45zM389 608q0 -59 45 -59t45 59q0 61 -45 62q-45 0 -45 -62zM399 608q0 51 35 51t35 -51q0 -49 -35 -49t-35 49zM422 602q0 -39 18 -39q19 0 19 39t-19 39q-18 0 -18 -39zM424 199l45 -2l25 55l-52 -2zM444 319l15 -51l53 21l-12 49z" />
<glyph unicode="&#xad;" horiz-adv-x="800" d="M0 770l25 -319l145 45l467 -4l84 -119l78 395l-64 -70l-614 -12z" />
<glyph unicode="&#xae;" horiz-adv-x="886" d="M4 688q0 227 131 412q147 209 369 186q164 -18 272.5 -170.5t108.5 -363.5q0 -227 -131 -412q-150 -209 -369 -186q-164 18 -272.5 170.5t-108.5 363.5zM160 393q-2 -31 16.5 -53.5t46.5 -26.5l324 -32q31 -4 53.5 14t26.5 49l67 647q2 31 -16.5 53.5t-46.5 26.5l-324 33 q-31 4 -53.5 -14.5t-26.5 -49.5zM186 362l58 58l69 575l-37 68l193 -37q23 4 43 4q80 0 110.5 -73.5t4.5 -211.5l14 -61l-170 74l59 30q18 135 -10 140q-53 10 -119 -49l-57 -486l33 -61z" />
<glyph unicode="&#xaf;" d="M-20 1219q141 53 272 53q76 0 381 -43q-25 -358 -49 -717q-35 -492 -72 -547q-178 -6 -375 60q-10 242 -51 577q-47 377 -106 617zM0 1202q0 -12 45 -12t45 12q0 14 -45 15q-45 0 -45 -15zM31 1135q0 -31 39 -31t39 31t-39 30q-39 0 -39 -30zM53 993l33 -202 q84 -27 143 -54q145 -66 150 -114l31 6q92 215 161 198l7 199l-205 -301zM76 1057q0 -23 28 -23q29 0 29 23q0 20 -29 20t-28 -20zM88 1001l88 -47l326 13l43 45zM121 418q0 -82 41 -191q-10 31 -10 62q-1 92 77 164l-10 77h-29q-70 -14 -69 -112zM184 242q0 -133 72 -160 q41 -16 80 -16q33 0 57 12q90 72 90 180q0 37 -18 92q-22 66 -53 66q-29 0 -70 -80q-47 55 -86 55q-25 0 -41 -22q-31 -45 -31 -127zM188 614q-2 0 11.5 9.5t38.5 9.5q37 -1 88 -17q-6 20 -15 35q-23 35 -55 39q-31 2 -55.5 -37t-12.5 -39zM215 254q0 59 25 96q10 14 24 15 q35 0 80 -60q33 63 64 64q25 0 43 -43t18 -82q0 -53 -37 -92q-25 -18 -47 -37q-37 -14 -117 16q-53 20 -53 123zM223 1229l23 -47l139 14l16 37q-39 23 -88 22q-47 0 -90 -26zM227 936l131 -152l107 164zM229 1137l15 -103l143 10l14 113zM262 549q-2 -92 21 -92q6 0 18 13 t25 13q23 0 39 -39l12 -6q29 47 41 47q6 0 9 -18t7 -21.5t10 -3.5q27 0 54 80l-105 53zM442 625q0 -2 2 -2l18 15q19 15 36 15q28 1 53 -26q-8 74 -53 65q-43 -6 -47 -55q-8 -10 -9 -12zM483 424q47 -59 47 -121q0 -53 -38 -94q68 25 67 133q0 48 -14 107l-21 28zM514 1192 q0 -23 47 -23q49 0 49 23t-49 22q-47 0 -47 -22zM522 1120q0 -31 39 -30q39 -1 39 30q0 29 -39 29t-39 -29zM532 1051q0 -25 23 -25t23 25q0 23 -23 22q-23 0 -23 -22z" />
<glyph unicode="&#xb0;" horiz-adv-x="714" d="M-20 580l96 268l-41 358q143 76 282 76q23 0 218 -12l-13 -326q111 -14 168 -209l8 -67q-6 27 -47 69q-53 53 -112 54q-12 0 -23 -5l-16 -393q80 0 80 -84q0 -102 -88 -155l-3 -82l-323 -13l-6 56q-41 12 -63.5 73.5t-16.5 128.5q8 80 45 109l-31 260q-47 -35 -114 -106z M31 662q96 94 166 94q51 0 73 -58q45 -111 45 -178q0 -74 -53 -78q-12 -2 -12 -10q0 -18 41 -44t82 -26q57 0 78 60q-117 84 -117 184q0 72 65 137q76 74 144 74q78 0 129 -86q-57 188 -168 189q-86 0 -191 -132q-66 117 -131 117q-51 0 -92 -74zM100 313 q-6 -63 14.5 -120.5t61.5 -59.5q43 -4 127 43q27 16 45 17q16 0 43 -17.5t47 -17.5q68 0 107 90q16 33 16 61q0 61 -61 62q-12 0 -30.5 -4.5t-94.5 -32.5q-66 -23 -90 -23q-43 0 -74 62q-25 45 -51 45q-14 0 -29 -15q-25 -25 -31 -90zM119 279q0 117 41 116q16 0 33 -33 q37 -72 92 -71q27 0 84 20q71 29 106 37q12 2 23 2q41 0 41 -45q0 -41 -32 -84t-69 -43q-16 0 -32 12q-31 23 -58 23q-25 0 -78 -31.5t-94 -27.5q-57 4 -57 125zM133 604q0 -63 62 -63q61 0 61 63t-61 64q-61 0 -62 -64zM135 248l21 24l-21 19v-43zM141 317l41 -28l13 43 l-35 26zM143 209l56 -41l14 76l-43 20zM143 604q0 53 52 53q51 0 51 -53t-51 -53t-52 53zM156 600q0 -43 18 -43q19 0 19 43t-19 43q-18 0 -18 -43zM199 270l47 -16l8 31l-47 28zM231 176l70 35v27l-70 4v-66zM268 281l2 -33l62 10l-4 29zM326 244l4 -21l73 -8v35zM354 291 l4 -31l70 8l-14 45zM389 608q0 -59 45 -59t45 59q0 61 -45 62q-45 0 -45 -62zM399 608q0 51 35 51t35 -51q0 -49 -35 -49t-35 49zM422 602q0 -39 18 -39q19 0 19 39t-19 39q-18 0 -18 -39zM424 199l45 -2l25 55l-52 -2zM444 319l15 -51l53 21l-12 49z" />
<glyph unicode="&#xb1;" d="M-20 1219q141 53 272 53q76 0 381 -43q-25 -358 -49 -717q-35 -492 -72 -547q-178 -6 -375 60q-10 242 -51 577q-47 377 -106 617zM0 1202q0 -12 45 -12t45 12q0 14 -45 15q-45 0 -45 -15zM31 1135q0 -31 39 -31t39 31t-39 30q-39 0 -39 -30zM53 993l33 -202 q84 -27 143 -54q145 -66 150 -114l31 6q92 215 161 198l7 199l-205 -301zM76 1057q0 -23 28 -23q29 0 29 23q0 20 -29 20t-28 -20zM88 1001l88 -47l326 13l43 45zM121 418q0 -82 41 -191q-10 31 -10 62q-1 92 77 164l-10 77h-29q-70 -14 -69 -112zM184 242q0 -133 72 -160 q41 -16 80 -16q33 0 57 12q90 72 90 180q0 37 -18 92q-22 66 -53 66q-29 0 -70 -80q-47 55 -86 55q-25 0 -41 -22q-31 -45 -31 -127zM188 614q-2 0 11.5 9.5t38.5 9.5q37 -1 88 -17q-6 20 -15 35q-23 35 -55 39q-31 2 -55.5 -37t-12.5 -39zM215 254q0 59 25 96q10 14 24 15 q35 0 80 -60q33 63 64 64q25 0 43 -43t18 -82q0 -53 -37 -92q-25 -18 -47 -37q-37 -14 -117 16q-53 20 -53 123zM223 1229l23 -47l139 14l16 37q-39 23 -88 22q-47 0 -90 -26zM227 936l131 -152l107 164zM229 1137l15 -103l143 10l14 113zM262 549q-2 -92 21 -92q6 0 18 13 t25 13q23 0 39 -39l12 -6q29 47 41 47q6 0 9 -18t7 -21.5t10 -3.5q27 0 54 80l-105 53zM442 625q0 -2 2 -2l18 15q19 15 36 15q28 1 53 -26q-8 74 -53 65q-43 -6 -47 -55q-8 -10 -9 -12zM483 424q47 -59 47 -121q0 -53 -38 -94q68 25 67 133q0 48 -14 107l-21 28zM514 1192 q0 -23 47 -23q49 0 49 23t-49 22q-47 0 -47 -22zM522 1120q0 -31 39 -30q39 -1 39 30q0 29 -39 29t-39 -29zM532 1051q0 -25 23 -25t23 25q0 23 -23 22q-23 0 -23 -22z" />
<glyph unicode="&#xb4;" d="M-20 1219q141 53 272 53q76 0 381 -43q-25 -358 -49 -717q-35 -492 -72 -547q-178 -6 -375 60q-10 242 -51 577q-47 377 -106 617zM0 1202q0 -12 45 -12t45 12q0 14 -45 15q-45 0 -45 -15zM31 1135q0 -31 39 -31t39 31t-39 30q-39 0 -39 -30zM53 993l33 -202 q84 -27 143 -54q145 -66 150 -114l31 6q92 215 161 198l7 199l-205 -301zM76 1057q0 -23 28 -23q29 0 29 23q0 20 -29 20t-28 -20zM88 1001l88 -47l326 13l43 45zM121 418q0 -82 41 -191q-10 31 -10 62q-1 92 77 164l-10 77h-29q-70 -14 -69 -112zM184 242q0 -133 72 -160 q41 -16 80 -16q33 0 57 12q90 72 90 180q0 37 -18 92q-22 66 -53 66q-29 0 -70 -80q-47 55 -86 55q-25 0 -41 -22q-31 -45 -31 -127zM188 614q-2 0 11.5 9.5t38.5 9.5q37 -1 88 -17q-6 20 -15 35q-23 35 -55 39q-31 2 -55.5 -37t-12.5 -39zM215 254q0 59 25 96q10 14 24 15 q35 0 80 -60q33 63 64 64q25 0 43 -43t18 -82q0 -53 -37 -92q-25 -18 -47 -37q-37 -14 -117 16q-53 20 -53 123zM223 1229l23 -47l139 14l16 37q-39 23 -88 22q-47 0 -90 -26zM227 936l131 -152l107 164zM229 1137l15 -103l143 10l14 113zM262 549q-2 -92 21 -92q6 0 18 13 t25 13q23 0 39 -39l12 -6q29 47 41 47q6 0 9 -18t7 -21.5t10 -3.5q27 0 54 80l-105 53zM442 625q0 -2 2 -2l18 15q19 15 36 15q28 1 53 -26q-8 74 -53 65q-43 -6 -47 -55q-8 -10 -9 -12zM483 424q47 -59 47 -121q0 -53 -38 -94q68 25 67 133q0 48 -14 107l-21 28zM514 1192 q0 -23 47 -23q49 0 49 23t-49 22q-47 0 -47 -22zM522 1120q0 -31 39 -30q39 -1 39 30q0 29 -39 29t-39 -29zM532 1051q0 -25 23 -25t23 25q0 23 -23 22q-23 0 -23 -22z" />
<glyph unicode="&#xb6;" d="M-20 1219q141 53 272 53q76 0 381 -43q-25 -358 -49 -717q-35 -492 -72 -547q-178 -6 -375 60q-10 242 -51 577q-47 377 -106 617zM0 1202q0 -12 45 -12t45 12q0 14 -45 15q-45 0 -45 -15zM31 1135q0 -31 39 -31t39 31t-39 30q-39 0 -39 -30zM53 993l33 -202 q84 -27 143 -54q145 -66 150 -114l31 6q92 215 161 198l7 199l-205 -301zM76 1057q0 -23 28 -23q29 0 29 23q0 20 -29 20t-28 -20zM88 1001l88 -47l326 13l43 45zM121 418q0 -82 41 -191q-10 31 -10 62q-1 92 77 164l-10 77h-29q-70 -14 -69 -112zM184 242q0 -133 72 -160 q41 -16 80 -16q33 0 57 12q90 72 90 180q0 37 -18 92q-22 66 -53 66q-29 0 -70 -80q-47 55 -86 55q-25 0 -41 -22q-31 -45 -31 -127zM188 614q-2 0 11.5 9.5t38.5 9.5q37 -1 88 -17q-6 20 -15 35q-23 35 -55 39q-31 2 -55.5 -37t-12.5 -39zM215 254q0 59 25 96q10 14 24 15 q35 0 80 -60q33 63 64 64q25 0 43 -43t18 -82q0 -53 -37 -92q-25 -18 -47 -37q-37 -14 -117 16q-53 20 -53 123zM223 1229l23 -47l139 14l16 37q-39 23 -88 22q-47 0 -90 -26zM227 936l131 -152l107 164zM229 1137l15 -103l143 10l14 113zM262 549q-2 -92 21 -92q6 0 18 13 t25 13q23 0 39 -39l12 -6q29 47 41 47q6 0 9 -18t7 -21.5t10 -3.5q27 0 54 80l-105 53zM442 625q0 -2 2 -2l18 15q19 15 36 15q28 1 53 -26q-8 74 -53 65q-43 -6 -47 -55q-8 -10 -9 -12zM483 424q47 -59 47 -121q0 -53 -38 -94q68 25 67 133q0 48 -14 107l-21 28zM514 1192 q0 -23 47 -23q49 0 49 23t-49 22q-47 0 -47 -22zM522 1120q0 -31 39 -30q39 -1 39 30q0 29 -39 29t-39 -29zM532 1051q0 -25 23 -25t23 25q0 23 -23 22q-23 0 -23 -22z" />
<glyph unicode="&#xb7;" horiz-adv-x="614" d="M29 1268q115 23 202 22q152 0 373 -86l-119 -1214l-393 -45q-25 215 -41 663q-10 330 -22 660zM66 1247q6 -315 10 -631q8 -438 24 -632l340 32l135 1164q-203 84 -350 84q-72 0 -159 -17zM92 940q0 76 25 94q43 33 106 41l15 -121q-12 25 -29 25q-31 0 -62 -84 q-23 -61 -41 -37q-14 20 -14 82zM94 565q0 109 58 137l20 3l2 -46q-18 -10 -31 -26q-35 -37 -37 -92q-2 -20 -4 -23q-8 0 -8 47zM109 274q0 297 71 322l31 2q12 0 22 -6q25 -12 35 -39q12 59 72 51q39 -6 76 -131t37 -242q-1 -42 -7 -75q-10 -41 -43 -41q-25 0 -91 30.5 t-97 30.5q-45 0 -63 -53q-8 -29 -17 -29q-27 0 -26 180zM127 805q0 31 20.5 54.5t51.5 23.5q39 0 59 -35q-2 6 -2 12q0 33 22.5 55.5t55.5 22.5q31 0 53.5 -22.5t22.5 -55.5q0 -31 -22.5 -53.5t-53.5 -22.5q-43 0 -66 35q2 -6 2 -14q0 -29 -20.5 -52.5t-50.5 -23.5 q-31 0 -51.5 23.5t-20.5 52.5zM143 805q0 -59 56 -60q55 1 55 60q0 61 -55 61t-56 -61zM145 383q-6 -109 2 -197q27 29 64 29q35 0 100 -30.5t88 -32.5q20 -4 21 88q0 104 -23 206q-27 117 -63 123q-18 2 -25.5 -24.5t-23.5 -147.5q-53 154 -76 166l-21 -2q-37 -18 -43 -178 zM158 805q0 47 41 47t41 -47q0 -45 -41 -45t-41 45zM174 797q0 -25 21 -25q20 0 20 25q0 27 -20 26q-20 0 -21 -26zM186 670l31 14q8 -14 16 -29q23 92 39 80q14 -14 31 -71l21 26l26 -22l-18 -33q-20 8 -72 -25q-6 12 -59 27zM268 1044q0 35 8 89l70 8q70 2 117 -115 q10 -23 10 -33q0 -8 -6 -8t-54 29.5t-75 29.5q-20 0 -36.5 -20t-20.5 -20q-12 0 -13 40zM272 860q0 -59 62 -59q59 0 59 59q0 61 -59 62q-61 0 -62 -62zM287 860q0 47 47 47q45 0 45 -47q0 -45 -45 -45q-47 0 -47 45zM313 850q0 -25 27 -25q25 0 25 25q0 27 -25 27 q-27 0 -27 -27zM346 684l4 59l23 2q100 -16 100 -170q0 -41 -6 -40q-4 3 -4 34q0 121 -117 115zM395 561l17 86l37 -41l4 -59l12 -31l-21 -98l-6 37zM414 745l10 64l78 -49l-25 -109l-6 31zM428 831l18 97l78 -29l-18 -119zM455 956l6 25h14l8 18l-12 37l2 23l64 -19 l-15 -108zM471 1098l16 86l72 -25l-12 -84z" />
<glyph unicode="&#xb8;" d="M-20 1219q141 53 272 53q76 0 381 -43q-25 -358 -49 -717q-35 -492 -72 -547q-178 -6 -375 60q-10 242 -51 577q-47 377 -106 617zM0 1202q0 -12 45 -12t45 12q0 14 -45 15q-45 0 -45 -15zM31 1135q0 -31 39 -31t39 31t-39 30q-39 0 -39 -30zM53 993l33 -202 q84 -27 143 -54q145 -66 150 -114l31 6q92 215 161 198l7 199l-205 -301zM76 1057q0 -23 28 -23q29 0 29 23q0 20 -29 20t-28 -20zM88 1001l88 -47l326 13l43 45zM121 418q0 -82 41 -191q-10 31 -10 62q-1 92 77 164l-10 77h-29q-70 -14 -69 -112zM184 242q0 -133 72 -160 q41 -16 80 -16q33 0 57 12q90 72 90 180q0 37 -18 92q-22 66 -53 66q-29 0 -70 -80q-47 55 -86 55q-25 0 -41 -22q-31 -45 -31 -127zM188 614q-2 0 11.5 9.5t38.5 9.5q37 -1 88 -17q-6 20 -15 35q-23 35 -55 39q-31 2 -55.5 -37t-12.5 -39zM215 254q0 59 25 96q10 14 24 15 q35 0 80 -60q33 63 64 64q25 0 43 -43t18 -82q0 -53 -37 -92q-25 -18 -47 -37q-37 -14 -117 16q-53 20 -53 123zM223 1229l23 -47l139 14l16 37q-39 23 -88 22q-47 0 -90 -26zM227 936l131 -152l107 164zM229 1137l15 -103l143 10l14 113zM262 549q-2 -92 21 -92q6 0 18 13 t25 13q23 0 39 -39l12 -6q29 47 41 47q6 0 9 -18t7 -21.5t10 -3.5q27 0 54 80l-105 53zM442 625q0 -2 2 -2l18 15q19 15 36 15q28 1 53 -26q-8 74 -53 65q-43 -6 -47 -55q-8 -10 -9 -12zM483 424q47 -59 47 -121q0 -53 -38 -94q68 25 67 133q0 48 -14 107l-21 28zM514 1192 q0 -23 47 -23q49 0 49 23t-49 22q-47 0 -47 -22zM522 1120q0 -31 39 -30q39 -1 39 30q0 29 -39 29t-39 -29zM532 1051q0 -25 23 -25t23 25q0 23 -23 22q-23 0 -23 -22z" />
<glyph unicode="&#xba;" horiz-adv-x="436" d="M-16 446l14 256l41 -51l317 27l31 45l47 -227l-69 39l-269 -21zM55 1020q0 86 19 149q29 106 94 107q63 0 101 -95.5t38 -228.5q0 -86 -18 -149q-31 -106 -96 -107q-61 0 -99.5 95.5t-38.5 228.5zM137 1020q0 -43 17 -133q18 -109 36 -109q12 0 25 76q10 65 10 98 q0 43 -18 135q-18 106 -37 107q-12 0 -25 -76q-8 -63 -8 -98z" />
<glyph unicode="&#xbb;" horiz-adv-x="714" d="M-20 580l96 268l-41 358q143 76 282 76q23 0 218 -12l-13 -326q111 -14 168 -209l8 -67q-6 27 -47 69q-53 53 -112 54q-12 0 -23 -5l-16 -393q80 0 80 -84q0 -102 -88 -155l-3 -82l-323 -13l-6 56q-41 12 -63.5 73.5t-16.5 128.5q8 80 45 109l-31 260q-47 -35 -114 -106z M31 662q96 94 166 94q51 0 73 -58q45 -111 45 -178q0 -74 -53 -78q-12 -2 -12 -10q0 -18 41 -44t82 -26q57 0 78 60q-117 84 -117 184q0 72 65 137q76 74 144 74q78 0 129 -86q-57 188 -168 189q-86 0 -191 -132q-66 117 -131 117q-51 0 -92 -74zM100 313 q-6 -63 14.5 -120.5t61.5 -59.5q43 -4 127 43q27 16 45 17q16 0 43 -17.5t47 -17.5q68 0 107 90q16 33 16 61q0 61 -61 62q-12 0 -30.5 -4.5t-94.5 -32.5q-66 -23 -90 -23q-43 0 -74 62q-25 45 -51 45q-14 0 -29 -15q-25 -25 -31 -90zM119 279q0 117 41 116q16 0 33 -33 q37 -72 92 -71q27 0 84 20q71 29 106 37q12 2 23 2q41 0 41 -45q0 -41 -32 -84t-69 -43q-16 0 -32 12q-31 23 -58 23q-25 0 -78 -31.5t-94 -27.5q-57 4 -57 125zM133 604q0 -63 62 -63q61 0 61 63t-61 64q-61 0 -62 -64zM135 248l21 24l-21 19v-43zM141 317l41 -28l13 43 l-35 26zM143 209l56 -41l14 76l-43 20zM143 604q0 53 52 53q51 0 51 -53t-51 -53t-52 53zM156 600q0 -43 18 -43q19 0 19 43t-19 43q-18 0 -18 -43zM199 270l47 -16l8 31l-47 28zM231 176l70 35v27l-70 4v-66zM268 281l2 -33l62 10l-4 29zM326 244l4 -21l73 -8v35zM354 291 l4 -31l70 8l-14 45zM389 608q0 -59 45 -59t45 59q0 61 -45 62q-45 0 -45 -62zM399 608q0 51 35 51t35 -51q0 -49 -35 -49t-35 49zM422 602q0 -39 18 -39q19 0 19 39t-19 39q-18 0 -18 -39zM424 199l45 -2l25 55l-52 -2zM444 319l15 -51l53 21l-12 49z" />
<glyph unicode="&#xbf;" horiz-adv-x="751" d="M16 63q-14 100 11 203q14 137 94 236q88 106 221 129l2 166l-35 112l283 -65l-43 -62l-4 -358q-37 2 -70 2q-127 0 -182 -46t-64 -147q-4 -12 -10 -49q-2 -25 -2 -45q0 -78 35 -120t86 -42q88 0 131 95q29 59 37 168l-27 49l266 57l-34 -96q-4 -86 -11 -123 q-33 -168 -145 -266q-102 -88 -229 -88q-117 0 -201 71q-90 80 -109 219zM313 1106q0 61 38 104t93 43t93 -43t38 -104t-37.5 -104.5t-93.5 -43.5q-55 0 -93 43t-38 105z" />
<glyph unicode="&#xc0;" horiz-adv-x="688" d="M-96 -158l96 101l182 1226l197 -106l-146 440l31 199l404 -1710l182 -125l-463 -115l90 158l-71 301l-160 -8l-37 -246l80 -182zM-63 1489q0 59 33.5 105t90.5 46q47 0 90.5 -36.5t61.5 -96.5l117 -381l-287 179q-14 6 -29 18l-16 10l2 2q-63 61 -63 154zM276 410l82 4 l-49 209z" />
<glyph unicode="&#xc1;" horiz-adv-x="647" d="M-137 -158l96 101l264 1759l62 -275l-90 -313l147 84l285 -1206l182 -125l-463 -115l90 158l-71 301l-160 -8l-37 -246l80 -182zM236 410l81 4l-49 209zM246 1176l116 378q16 59 59.5 96.5t92.5 37.5q57 0 91 -45.5t34 -106.5q-1 -93 -64 -154l3 -2l-17 -10 q-14 -10 -31 -18z" />
<glyph unicode="&#xc2;" d="M-137 -158l96 101l160 1058l110 -63l-16 131l70 100l36 -63l-83 -182l149 92l242 -1024l182 -125l-463 -115l90 158l-71 301l-160 -8l-37 -246l80 -182zM-84 1153l107 53l282 408l215 -385l92 -39l-307 -186l47 102l-65 121l-107 -152l13 -80zM193 1507l30 195l27 -115z M236 410l81 4l-49 209z" />
<glyph unicode="&#xc3;" horiz-adv-x="696" d="M-152 1065l76 45q16 78 25 100q74 180 256 181q147 0 233 -131q4 6 60 86l-19 88l299 -150l-108 -51q-147 -219 -248 -219q-59 0 -107 63q-20 31 -41 60q-29 37 -49 43q-12 2 -20 2q-45 0 -72 -78l49 -92zM-137 -158l96 101l156 1048l125 -18l-74 133q18 45 41 45 q18 0 45 -35q18 -29 39 -57q47 -61 102 -74l234 -993l182 -125l-463 -115l90 158l-71 301l-160 -8l-37 -246l80 -182zM180 1419l43 283l70 -295q-55 16 -113 12zM236 410l81 4l-49 209z" />
<glyph unicode="&#xc4;" horiz-adv-x="653" d="M-137 -158l96 101l158 1054q98 6 135 115q43 -117 139 -123l236 -997l182 -125l-463 -115l90 158l-71 301l-160 -8l-37 -246l80 -182zM-20 1182q0 66 36.5 110.5t89.5 44.5t90 -44.5t37 -110.5q0 -63 -36.5 -109.5t-90.5 -46.5q-53 0 -89.5 46t-36.5 110zM170 1354 l53 348l82 -348q-41 -31 -57 -88q-27 61 -78 88zM236 410l81 4l-49 209zM268 1198q0 59 28 101t71 49q63 8 106 -56q39 -55 39 -123q0 -57 -27.5 -99t-72.5 -48q-63 -8 -107 55q-37 55 -37 121z" />
<glyph unicode="&#xc5;" horiz-adv-x="645" d="M-137 -158l96 101l215 1429q-86 16 -141.5 64.5t-55.5 111.5q0 76 79 129.5t190 53.5t188.5 -53.5t77.5 -129.5q0 -66 -59.5 -116t-151.5 -64l326 -1376l182 -125l-463 -115l90 158l-71 301l-160 -8l-37 -246l80 -182zM68 1511q4 -78 112 -96l33 219q-66 -8 -108 -43 t-37 -80zM236 410l81 4l-49 209zM240 1634l49 -213q106 33 102 113q-4 43 -47 71.5t-104 28.5z" />
<glyph unicode="&#xc6;" horiz-adv-x="962" d="M-96 -199l96 101l264 1759l98 -416l82 12l486 48l90 -355l-162 142l-229 -23l22 -479l150 -12l100 108l-29 -393l-96 82l-117 8l13 -231l141 12l127 143l-43 -342l-225 -16l178 -123l-463 -115l90 158l-71 301l-160 -8l-37 -246l80 -182zM276 369l82 4l-49 209z" />
<glyph unicode="&#xc7;" horiz-adv-x="595" d="M-4 526q23 360 55 512q82 369 279 353q143 -10 211 -129q57 -94 57 -238q0 -41 -6 -82l51 -154l-387 101l135 98q6 41 6 72q0 121 -84 127q-25 2 -45 -72q-16 -57 -39 -215q-29 -213 -28 -393q0 -45 2 -80l325 145l-8 -125q31 -98 31 -182q0 -147 -88 -221h2 q10 -39 10 -74q0 -115 -100 -188q-84 -63 -215 -84l-41 -51l-76 309l94 -55q131 18 131 75q0 10 -4 23v4q-121 31 -194 158q-86 145 -74 366zM205 424q8 -100 43 -164q27 -51 57 -61q20 -6 33 26q16 53 -12 156z" />
<glyph unicode="&#xc8;" horiz-adv-x="538" d="M-160 1231l160 22l485 50l93 -357l-164 144l-230 -23l23 -479l149 -15l101 111l-29 -393l-96 80l-115 10l10 -231l142 10l127 145l-41 -344l-392 -31l-210 -24l174 151l-50 1063zM59 1735q0 59 34 105t91 46q47 0 90 -37t62 -96l117 -381l-287 178q-14 6 -29 19l-16 10 l2 2q-63 61 -64 154z" />
<glyph unicode="&#xc9;" horiz-adv-x="538" d="M-160 1231l160 22l485 50l93 -357l-164 144l-230 -23l23 -479l149 -15l101 111l-29 -393l-96 80l-115 10l10 -231l142 10l127 145l-41 -344l-392 -31l-210 -24l174 151l-50 1063zM70 1372l114 381q18 59 61.5 96t92.5 37q57 0 91 -46t34 -105q0 -93 -66 -154l2 -2 l-14 -10q-14 -12 -31 -19z" />
<glyph unicode="&#xca;" horiz-adv-x="602" d="M-160 1231l160 22l485 50l93 -357l-164 144l-230 -23l23 -479l149 -15l101 111l-29 -393l-96 80l-115 10l10 -231l142 10l127 145l-41 -344l-392 -31l-210 -24l174 151l-50 1063zM-154 1481l107 55l283 408l215 -388l92 -36l-307 -189l49 105l-68 120l-106 -151l12 -80z " />
<glyph unicode="&#xcb;" horiz-adv-x="522" d="M-160 1231l160 22l485 50l93 -357l-164 144l-230 -23l23 -479l149 -15l101 111l-29 -393l-96 80l-115 10l10 -231l142 10l127 145l-41 -344l-392 -31l-210 -24l174 151l-50 1063zM-41 1509q0 66 37 111t90 45t90 -45t37 -111q0 -63 -37 -109t-90 -46t-90 46t-37 109z M248 1526q0 59 27.5 101t70.5 48q63 8 107 -55q39 -55 39 -123q0 -57 -28 -99t-73 -48q-63 -8 -106 55q-37 55 -37 121z" />
<glyph unicode="&#xcc;" horiz-adv-x="258" d="M-145 1735q0 59 33.5 105t91.5 46q47 0 90 -37t61 -96l117 -381l-287 178q-14 6 -29 19l-16 10l2 2q-63 61 -63 154zM-133 1315l387 26l-61 -141l22 -1120l109 -141l-400 4l86 123l-22 1132z" />
<glyph unicode="&#xcd;" horiz-adv-x="260" d="M-133 1315l387 26l-61 -141l22 -1120l109 -141l-400 4l86 123l-22 1132zM-53 1372l114 381q18 59 61.5 96t92.5 37q57 0 91 -46t34 -105q0 -93 -66 -154l2 -2l-14 -10q-14 -12 -31 -19z" />
<glyph unicode="&#xce;" horiz-adv-x="286" d="M-276 1563l106 55l283 407l215 -387l92 -36l-307 -189l49 105l-68 120l-106 -151l12 -80zM-133 1315l387 26l-61 -141l22 -1120l109 -141l-400 4l86 123l-22 1132z" />
<glyph unicode="&#xcf;" horiz-adv-x="278" d="M-205 1550q0 66 37 111t90 45t90 -45t37 -111q0 -63 -37 -109t-90 -46t-90 46t-37 109zM-133 1315l387 26l-61 -141l22 -1120l109 -141l-400 4l86 123l-22 1132zM84 1567q0 59 27.5 101t70.5 48q63 8 107 -55q39 -55 39 -123q0 -57 -28 -99t-73 -48q-63 -8 -106 55 q-37 55 -37 121z" />
<glyph unicode="&#xd0;" d="M-20 1219q141 53 272 53q76 0 381 -43q-25 -358 -49 -717q-35 -492 -72 -547q-178 -6 -375 60q-10 242 -51 577q-47 377 -106 617zM0 1202q0 -12 45 -12t45 12q0 14 -45 15q-45 0 -45 -15zM31 1135q0 -31 39 -31t39 31t-39 30q-39 0 -39 -30zM53 993l33 -202 q84 -27 143 -54q145 -66 150 -114l31 6q92 215 161 198l7 199l-205 -301zM76 1057q0 -23 28 -23q29 0 29 23q0 20 -29 20t-28 -20zM88 1001l88 -47l326 13l43 45zM121 418q0 -82 41 -191q-10 31 -10 62q-1 92 77 164l-10 77h-29q-70 -14 -69 -112zM184 242q0 -133 72 -160 q41 -16 80 -16q33 0 57 12q90 72 90 180q0 37 -18 92q-22 66 -53 66q-29 0 -70 -80q-47 55 -86 55q-25 0 -41 -22q-31 -45 -31 -127zM188 614q-2 0 11.5 9.5t38.5 9.5q37 -1 88 -17q-6 20 -15 35q-23 35 -55 39q-31 2 -55.5 -37t-12.5 -39zM215 254q0 59 25 96q10 14 24 15 q35 0 80 -60q33 63 64 64q25 0 43 -43t18 -82q0 -53 -37 -92q-25 -18 -47 -37q-37 -14 -117 16q-53 20 -53 123zM223 1229l23 -47l139 14l16 37q-39 23 -88 22q-47 0 -90 -26zM227 936l131 -152l107 164zM229 1137l15 -103l143 10l14 113zM262 549q-2 -92 21 -92q6 0 18 13 t25 13q23 0 39 -39l12 -6q29 47 41 47q6 0 9 -18t7 -21.5t10 -3.5q27 0 54 80l-105 53zM442 625q0 -2 2 -2l18 15q19 15 36 15q28 1 53 -26q-8 74 -53 65q-43 -6 -47 -55q-8 -10 -9 -12zM483 424q47 -59 47 -121q0 -53 -38 -94q68 25 67 133q0 48 -14 107l-21 28zM514 1192 q0 -23 47 -23q49 0 49 23t-49 22q-47 0 -47 -22zM522 1120q0 -31 39 -30q39 -1 39 30q0 29 -39 29t-39 -29zM532 1051q0 -25 23 -25t23 25q0 23 -23 22q-23 0 -23 -22z" />
<glyph unicode="&#xd1;" horiz-adv-x="692" d="M-88 1362l76 45q16 76 26 98q72 180 254 181q147 0 234 -132q4 6 59 86l-18 89l299 -150l-109 -49q-147 -221 -248 -221q-59 0 -106 65q-20 29 -41 58q-29 39 -49 43q-12 4 -21 4q-45 0 -71 -80l49 -90zM-80 -143l70 102l59 1346l170 -23l105 -512l16 346l-86 101l422 43 l-131 -142l-99 -2005l-237 1182l-14 -352l88 -146zM63 1628l15 357l63 -308q-33 6 -78 -49z" />
<glyph unicode="&#xd2;" horiz-adv-x="612" d="M-29 709q0 215 45 374q74 266 240 267q156 0 250 -240t94 -571q0 -213 -45 -375q-74 -266 -240 -266q-156 0 -250 239.5t-94 571.5zM59 1735q0 59 34 105t91 46q47 0 90 -37t62 -96l117 -381l-287 178q-14 6 -29 19l-16 10l2 2q-63 61 -64 154zM176 709q0 -293 80 -496 q43 -109 57 -109q12 0 45 115q37 133 37 320q0 293 -80 495q-43 109 -57 109q-12 0 -45 -113q-37 -135 -37 -321z" />
<glyph unicode="&#xd3;" horiz-adv-x="616" d="M-29 709q0 215 45 374q74 266 240 267q156 0 250 -240t94 -571q0 -213 -45 -375q-74 -266 -240 -266q-156 0 -250 239.5t-94 571.5zM70 1372l114 381q18 59 61.5 96t92.5 37q57 0 91 -46t34 -105q0 -93 -66 -154l2 -2l-14 -10q-14 -12 -31 -19zM176 709q0 -293 80 -496 q43 -109 57 -109q12 0 45 115q37 133 37 320q0 293 -80 495q-43 109 -57 109q-12 0 -45 -113q-37 -135 -37 -321z" />
<glyph unicode="&#xd4;" horiz-adv-x="604" d="M-92 1563l106 55l283 407l215 -387l92 -36l-307 -189l49 105l-67 120l-107 -151l12 -80zM-29 709q0 215 45 374q74 266 240 267q156 0 250 -240t94 -571q0 -213 -45 -375q-74 -266 -240 -266q-156 0 -250 239.5t-94 571.5zM176 709q0 -293 80 -496q43 -109 57 -109 q12 0 45 115q37 133 37 320q0 293 -80 495q-43 109 -57 109q-12 0 -45 -113q-37 -135 -37 -321z" />
<glyph unicode="&#xd5;" horiz-adv-x="608" d="M-96 1524l76 45q16 78 26 100q72 180 254 180q147 0 234 -131q4 6 59 86l-18 88l299 -149l-109 -51q-147 -219 -248 -219q-57 0 -106 63q-20 31 -41 59q-29 37 -49 43q-10 2 -21 2q-45 0 -72 -77l52 -93zM-29 811q0 215 45 375q74 266 240 266q156 0 250 -239.5 t94 -571.5q0 -213 -45 -375q-74 -266 -240 -266q-156 0 -250 239.5t-94 571.5zM176 811q0 -293 80 -496q43 -109 57 -108q12 0 45 115q37 133 37 319q0 293 -80 496q-43 109 -57 108q-12 0 -45 -112q-37 -135 -37 -322z" />
<glyph unicode="&#xd6;" horiz-adv-x="612" d="M-29 811q0 215 45 375q74 266 240 266q156 0 250 -239.5t94 -571.5q0 -213 -45 -375q-74 -266 -240 -266q-156 0 -250 239.5t-94 571.5zM0 1612q0 66 37 110.5t90 44.5t90 -44.5t37 -110.5q0 -63 -37 -109.5t-90 -46.5t-90 46t-37 110zM176 811q0 -293 80 -496 q43 -109 57 -108q12 0 45 115q37 133 37 319q0 293 -80 496q-43 109 -57 108q-12 0 -45 -112q-37 -135 -37 -322zM289 1628q0 59 27.5 101.5t70.5 48.5q63 8 107 -56q38 -55 38 -123q0 -57 -27.5 -99t-72.5 -48q-63 -8 -106 55q-37 55 -37 121z" />
<glyph unicode="&#xd8;" horiz-adv-x="636" d="M-8 539q0 332 94 571.5t250 239.5q165 -1 239 -267q45 -160 46 -374q0 -332 -94.5 -571.5t-250.5 -239.5q-166 0 -239 266q-45 162 -45 375zM197 539q0 -186 36 -320q33 -115 46 -115q14 0 57 109q80 203 80 496q0 186 -37 321q-33 113 -45 113q-14 0 -58 -109 q-80 -203 -79 -495z" />
<glyph unicode="&#xd9;" horiz-adv-x="600" d="M-96 1296l321 23l-47 -105q2 -238 19 -702q14 -195 30 -279q25 -119 74 -131q39 -12 53 68q10 61 15 256l18 797l-68 125l353 -72l-82 -98q-2 -281 -6 -560q-8 -336 -62 -503q-66 -219 -217 -219q-16 0 -33 4q-147 20 -219 223q-51 139 -57 328l-23 753zM59 1735 q0 59 34 105t91 46q47 0 90 -37t62 -96l117 -381l-287 178q-14 6 -29 19l-16 10l2 2q-63 61 -64 154z" />
<glyph unicode="&#xda;" horiz-adv-x="616" d="M-96 1296l321 23l-47 -105q2 -238 19 -702q14 -195 30 -279q25 -119 74 -131q39 -12 53 68q10 61 15 256l18 797l-68 125l353 -72l-82 -98q-2 -281 -6 -560q-8 -336 -62 -503q-66 -219 -217 -219q-16 0 -33 4q-147 20 -219 223q-51 139 -57 328l-23 753zM70 1372l114 381 q18 59 61.5 96t92.5 37q57 0 91 -46t34 -105q0 -93 -66 -154l2 -2l-14 -10q-14 -12 -31 -19z" />
<glyph unicode="&#xdb;" horiz-adv-x="600" d="M-96 1296l321 23l-47 -105q2 -238 19 -702q14 -195 30 -279q25 -119 74 -131q39 -12 53 68q10 61 15 256l18 797l-68 125l353 -72l-82 -98q-2 -281 -6 -560q-8 -336 -62 -503q-66 -219 -217 -219q-16 0 -33 4q-147 20 -219 223q-51 139 -57 328l-23 753zM-72 1563l107 55 l282 407l215 -387l93 -36l-308 -189l50 105l-68 120l-106 -151l12 -80z" />
<glyph unicode="&#xdc;" horiz-adv-x="620" d="M-96 1296l321 23l-47 -105q2 -238 19 -702q14 -195 30 -279q25 -119 74 -131q39 -12 53 68q10 61 15 256l18 797l-68 125l353 -72l-82 -98q-2 -281 -6 -560q-8 -336 -62 -503q-66 -219 -217 -219q-16 0 -33 4q-147 20 -219 223q-51 139 -57 328l-23 753zM0 1530 q0 66 37 111t90 45t90 -45t37 -111q0 -63 -37 -109.5t-90 -46.5t-90 46t-37 110zM289 1546q0 59 27.5 101.5t70.5 48.5q63 8 107 -56q38 -54 38 -122q0 -57 -27.5 -99.5t-72.5 -48.5q-63 -8 -106 55q-37 55 -37 121z" />
<glyph unicode="&#xdd;" horiz-adv-x="679" d="M-106 1327l376 88l-84 -141l66 -326l115 375l-99 137l391 -119l-90 -61l-233 -758l16 -459l70 -83l-359 -60l84 154l-16 452l-149 723zM88 1425l115 381q18 59 61 96t92 37q57 0 91 -46t34 -105q1 -93 -65 -154l4 -2l-17 -10q-14 -12 -30 -18z" />
<glyph unicode="&#xde;" horiz-adv-x="614" d="M29 1268q115 23 202 22q152 0 373 -86l-119 -1214l-393 -45q-25 215 -41 663q-10 330 -22 660zM66 1247q6 -315 10 -631q8 -438 24 -632l340 32l135 1164q-203 84 -350 84q-72 0 -159 -17zM92 940q0 76 25 94q43 33 106 41l15 -121q-12 25 -29 25q-31 0 -62 -84 q-23 -61 -41 -37q-14 20 -14 82zM94 565q0 109 58 137l20 3l2 -46q-18 -10 -31 -26q-35 -37 -37 -92q-2 -20 -4 -23q-8 0 -8 47zM109 274q0 297 71 322l31 2q12 0 22 -6q25 -12 35 -39q12 59 72 51q39 -6 76 -131t37 -242q-1 -42 -7 -75q-10 -41 -43 -41q-25 0 -91 30.5 t-97 30.5q-45 0 -63 -53q-8 -29 -17 -29q-27 0 -26 180zM127 805q0 31 20.5 54.5t51.5 23.5q39 0 59 -35q-2 6 -2 12q0 33 22.5 55.5t55.5 22.5q31 0 53.5 -22.5t22.5 -55.5q0 -31 -22.5 -53.5t-53.5 -22.5q-43 0 -66 35q2 -6 2 -14q0 -29 -20.5 -52.5t-50.5 -23.5 q-31 0 -51.5 23.5t-20.5 52.5zM143 805q0 -59 56 -60q55 1 55 60q0 61 -55 61t-56 -61zM145 383q-6 -109 2 -197q27 29 64 29q35 0 100 -30.5t88 -32.5q20 -4 21 88q0 104 -23 206q-27 117 -63 123q-18 2 -25.5 -24.5t-23.5 -147.5q-53 154 -76 166l-21 -2q-37 -18 -43 -178 zM158 805q0 47 41 47t41 -47q0 -45 -41 -45t-41 45zM174 797q0 -25 21 -25q20 0 20 25q0 27 -20 26q-20 0 -21 -26zM186 670l31 14q8 -14 16 -29q23 92 39 80q14 -14 31 -71l21 26l26 -22l-18 -33q-20 8 -72 -25q-6 12 -59 27zM268 1044q0 35 8 89l70 8q70 2 117 -115 q10 -23 10 -33q0 -8 -6 -8t-54 29.5t-75 29.5q-20 0 -36.5 -20t-20.5 -20q-12 0 -13 40zM272 860q0 -59 62 -59q59 0 59 59q0 61 -59 62q-61 0 -62 -62zM287 860q0 47 47 47q45 0 45 -47q0 -45 -45 -45q-47 0 -47 45zM313 850q0 -25 27 -25q25 0 25 25q0 27 -25 27 q-27 0 -27 -27zM346 684l4 59l23 2q100 -16 100 -170q0 -41 -6 -40q-4 3 -4 34q0 121 -117 115zM395 561l17 86l37 -41l4 -59l12 -31l-21 -98l-6 37zM414 745l10 64l78 -49l-25 -109l-6 31zM428 831l18 97l78 -29l-18 -119zM455 956l6 25h14l8 18l-12 37l2 23l64 -19 l-15 -108zM471 1098l16 86l72 -25l-12 -84z" />
<glyph unicode="&#xdf;" horiz-adv-x="714" d="M-20 580l96 268l-41 358q143 76 282 76q23 0 218 -12l-13 -326q111 -14 168 -209l8 -67q-6 27 -47 69q-53 53 -112 54q-12 0 -23 -5l-16 -393q80 0 80 -84q0 -102 -88 -155l-3 -82l-323 -13l-6 56q-41 12 -63.5 73.5t-16.5 128.5q8 80 45 109l-31 260q-47 -35 -114 -106z M31 662q96 94 166 94q51 0 73 -58q45 -111 45 -178q0 -74 -53 -78q-12 -2 -12 -10q0 -18 41 -44t82 -26q57 0 78 60q-117 84 -117 184q0 72 65 137q76 74 144 74q78 0 129 -86q-57 188 -168 189q-86 0 -191 -132q-66 117 -131 117q-51 0 -92 -74zM100 313 q-6 -63 14.5 -120.5t61.5 -59.5q43 -4 127 43q27 16 45 17q16 0 43 -17.5t47 -17.5q68 0 107 90q16 33 16 61q0 61 -61 62q-12 0 -30.5 -4.5t-94.5 -32.5q-66 -23 -90 -23q-43 0 -74 62q-25 45 -51 45q-14 0 -29 -15q-25 -25 -31 -90zM119 279q0 117 41 116q16 0 33 -33 q37 -72 92 -71q27 0 84 20q71 29 106 37q12 2 23 2q41 0 41 -45q0 -41 -32 -84t-69 -43q-16 0 -32 12q-31 23 -58 23q-25 0 -78 -31.5t-94 -27.5q-57 4 -57 125zM133 604q0 -63 62 -63q61 0 61 63t-61 64q-61 0 -62 -64zM135 248l21 24l-21 19v-43zM141 317l41 -28l13 43 l-35 26zM143 209l56 -41l14 76l-43 20zM143 604q0 53 52 53q51 0 51 -53t-51 -53t-52 53zM156 600q0 -43 18 -43q19 0 19 43t-19 43q-18 0 -18 -43zM199 270l47 -16l8 31l-47 28zM231 176l70 35v27l-70 4v-66zM268 281l2 -33l62 10l-4 29zM326 244l4 -21l73 -8v35zM354 291 l4 -31l70 8l-14 45zM389 608q0 -59 45 -59t45 59q0 61 -45 62q-45 0 -45 -62zM399 608q0 51 35 51t35 -51q0 -49 -35 -49t-35 49zM422 602q0 -39 18 -39q19 0 19 39t-19 39q-18 0 -18 -39zM424 199l45 -2l25 55l-52 -2zM444 319l15 -51l53 21l-12 49z" />
<glyph unicode="&#xe0;" horiz-adv-x="606" d="M-147 715l118 96q8 215 76 363q92 205 270 188q283 -25 283 -563q0 -37 -4 -176l-18 -598l110 -150l-209 35q-199 12 -332 86q-180 100 -172 285q8 154 146 231q106 59 268 66l2 57q16 156 6 291q-8 92 -20 137q-25 90 -78 94q-123 12 -123 -385v-14l92 -129zM59 1735 q0 59 34 105t91 46q47 0 90 -37t62 -96l117 -381l-287 178q-14 6 -29 19l-16 10l2 2q-63 61 -64 154zM180 262q0 -90 195 -133l8 244q-92 -4 -147.5 -37t-55.5 -74z" />
<glyph unicode="&#xe1;" horiz-adv-x="616" d="M-147 715l118 96q8 215 76 363q92 205 270 188q283 -25 283 -563q0 -37 -4 -176l-18 -598l110 -150l-209 35q-199 12 -332 86q-180 100 -172 285q8 154 146 231q106 59 268 66l2 57q16 156 6 291q-8 92 -20 137q-25 90 -78 94q-123 12 -123 -385v-14l92 -129zM70 1372 l114 381q18 59 61.5 96t92.5 37q57 0 91 -46t34 -105q0 -93 -66 -154l2 -2l-14 -10q-14 -12 -31 -19zM180 262q0 -90 195 -133l8 244q-92 -4 -147.5 -37t-55.5 -74z" />
<glyph unicode="&#xe2;" horiz-adv-x="630" d="M-147 715l118 96q8 215 76 363q92 205 270 188q283 -25 283 -563q0 -37 -4 -176l-18 -598l110 -150l-209 35q-199 12 -332 86q-180 100 -172 285q8 154 146 231q106 59 268 66l2 57q16 156 6 291q-8 92 -20 137q-25 90 -78 94q-123 12 -123 -385v-14l92 -129zM-51 1563 l106 55l283 407l215 -387l92 -36l-307 -189l49 105l-68 120l-106 -151l12 -80zM180 262q0 -90 195 -133l8 244q-92 -4 -147.5 -37t-55.5 -74z" />
<glyph unicode="&#xe3;" horiz-adv-x="673" d="M-147 715l118 96q8 215 76 363q92 205 270 188q283 -25 283 -563q0 -37 -4 -176l-18 -598l110 -150l-209 35q-199 12 -332 86q-180 100 -172 285q8 154 146 231q106 59 268 66l2 57q16 156 6 291q-8 92 -20 137q-25 90 -78 94q-123 12 -123 -385v-14l92 -129zM-98 1456 l75 45q16 78 27 101q72 178 254 178q147 0 234 -129q4 6 59 86l-19 86l299 -148l-108 -51q-147 -221 -248 -221q-57 0 -106 65q-20 29 -41 60q-29 37 -49 43q-10 2 -21 2q-45 0 -72 -80l52 -90zM180 262q0 -90 195 -133l8 244q-92 -4 -147.5 -37t-55.5 -74z" />
<glyph unicode="&#xe4;" horiz-adv-x="604" d="M-147 715l118 96q8 215 76 363q92 205 270 188q283 -25 283 -563q0 -37 -4 -176l-18 -598l110 -150l-209 35q-199 12 -332 86q-180 100 -172 285q8 154 146 231q106 59 268 66l2 57q16 156 6 291q-8 92 -20 137q-25 90 -78 94q-123 12 -123 -385v-14l92 -129zM0 1530 q0 66 37 111t90 45t90 -45t37 -111q0 -63 -37 -109.5t-90 -46.5t-90 46t-37 110zM180 262q0 -90 195 -133l8 244q-92 -4 -147.5 -37t-55.5 -74zM289 1546q0 59 27.5 101.5t70.5 48.5q63 8 107 -56q38 -54 38 -122q0 -57 -27.5 -99.5t-72.5 -48.5q-63 -8 -106 55 q-37 55 -37 121z" />
<glyph unicode="&#xe5;" horiz-adv-x="628" d="M-147 715l118 96q8 215 76 363q92 205 270 188q283 -25 283 -563q0 -37 -4 -176l-18 -598l110 -150l-209 35q-199 12 -332 86q-180 100 -172 285q8 154 146 231q106 59 268 66l2 57q16 156 6 291q-8 92 -20 137q-25 90 -78 94q-123 12 -123 -385v-14l92 -129zM45 1587 q0 76 78 129t188 53q111 0 190 -53t79 -129t-79 -130t-190 -54t-188.5 54t-77.5 130zM133 1550q4 -45 53.5 -74.5t116.5 -25.5q68 4 113 41t41 82q-2 47 -52.5 75.5t-117.5 24.5q-66 -4 -111 -40t-43 -83zM180 262q0 -90 195 -133l8 244q-92 -4 -147.5 -37t-55.5 -74z" />
<glyph unicode="&#xe6;" horiz-adv-x="1155" d="M-147 715l118 96q8 215 76 363q92 205 270 188q141 -12 213 -160q80 121 220 133q227 18 333 -233q74 -178 74 -432q0 -61 -8 -150l-12 -49l-68 -4l-371 -47q82 -330 160 -330q55 0 55 115q0 31 -8 125l-102 43l385 41l-80 -103q2 -33 -2 -80q-20 -346 -248 -346 q-150 0 -276 269l-4 -129l110 -150l-209 35q-199 12 -332 86q-180 100 -172 285q8 154 146 231q106 59 268 66l2 57q16 156 6 291q-8 92 -20 137q-25 90 -78 94q-123 12 -123 -385v-14l92 -129zM180 262q0 -90 195 -133l8 244q-92 -4 -147.5 -37t-55.5 -74zM641 799 q0 -82 14 -176l297 34q6 248 -61 379q-51 104 -117 94q-49 -8 -88 -86q-45 -94 -45 -245z" />
<glyph unicode="&#xe7;" horiz-adv-x="595" d="M-4 526q23 360 55 512q82 369 279 353q143 -10 211 -129q57 -94 57 -238q0 -41 -6 -82l51 -154l-387 101l135 98q6 41 6 72q0 121 -84 127q-25 2 -45 -72q-16 -57 -39 -215q-29 -213 -28 -393q0 -45 2 -80l325 145l-8 -125q31 -98 31 -182q0 -147 -88 -221h2 q10 -39 10 -74q0 -115 -100 -188q-84 -63 -215 -84l-41 -51l-76 309l94 -55q131 18 131 75q0 10 -4 23v4q-121 31 -194 158q-86 145 -74 366zM205 424q8 -100 43 -164q27 -51 57 -61q20 -6 33 26q16 53 -12 156z" />
<glyph unicode="&#xe8;" horiz-adv-x="729" d="M-14 817q0 223 71 361q82 156 242 170q227 18 332 -234q76 -178 76 -432q0 -61 -9 -152l-12 -49l-68 -4l-370 -45q82 -330 160 -330q57 0 57 97q0 23 -8 104l-74 68l309 94l-37 -94q23 -473 -247 -473q-162 0 -295 305q-127 291 -127 614zM59 1735q0 59 34 105t91 46 q47 0 90 -37t62 -96l117 -381l-287 178q-14 6 -29 19l-16 10l2 2q-63 61 -64 154zM188 811q0 -82 17 -178l297 37q6 248 -62 379q-53 104 -116 94q-51 -8 -88 -88q-47 -92 -48 -244z" />
<glyph unicode="&#xe9;" horiz-adv-x="729" d="M-14 817q0 223 71 361q82 156 242 170q227 18 332 -234q76 -178 76 -432q0 -61 -9 -152l-12 -49l-68 -4l-370 -45q82 -330 160 -330q59 0 59 103q0 27 -6 98l-94 62l325 100l-37 -94q23 -473 -247 -473q-162 0 -295 305q-127 291 -127 614zM70 1372l114 381 q18 59 61.5 96t92.5 37q57 0 91 -46t34 -105q0 -93 -66 -154l2 -2l-14 -10q-14 -12 -31 -19zM188 811q0 -82 17 -178l297 37q6 248 -62 379q-53 104 -116 94q-51 -8 -88 -88q-47 -92 -48 -244z" />
<glyph unicode="&#xea;" horiz-adv-x="729" d="M-51 1563l106 55l283 407l215 -387l92 -36l-307 -189l49 105l-68 120l-106 -151l12 -80zM-14 817q0 223 71 361q82 156 242 170q227 18 332 -234q76 -178 76 -432q0 -61 -9 -152l-12 -49l-68 -4l-370 -45q82 -330 160 -330q59 0 59 95q0 23 -6 96l-92 51l323 121l-37 -94 q23 -473 -247 -473q-162 0 -295 305q-127 291 -127 614zM188 811q0 -82 17 -178l297 37q6 248 -62 379q-53 104 -116 94q-51 -8 -88 -88q-47 -92 -48 -244z" />
<glyph unicode="&#xeb;" horiz-adv-x="729" d="M-14 817q0 223 71 361q82 156 242 170q227 18 332 -234q76 -178 76 -432q0 -61 -9 -152l-12 -49l-68 -4l-370 -45q82 -330 160 -330q55 0 55 93q0 20 -8 110l-84 74l321 86l-37 -94q23 -473 -247 -473q-162 0 -295 305q-127 291 -127 614zM41 1530q0 66 37 111t90 45 t90 -45t37 -111q0 -63 -37 -109.5t-90 -46.5t-90 46t-37 110zM188 811q0 -82 17 -178l297 37q6 248 -62 379q-53 104 -116 94q-51 -8 -88 -88q-47 -92 -48 -244zM330 1546q0 59 27.5 101.5t70.5 48.5q63 8 107 -56q38 -54 38 -122q0 -57 -27.5 -99.5t-72.5 -48.5 q-63 -8 -106 55q-37 55 -37 121z" />
<glyph unicode="&#xec;" horiz-adv-x="344" d="M-104 1489q0 59 33.5 105t90.5 46q47 0 90.5 -36.5t61.5 -96.5l117 -381l-287 179q-14 6 -29 18l-16 10l2 2q-63 61 -63 154zM-94 1020l391 63l-29 -98l29 -938l115 -117l-406 4l86 109l-29 903z" />
<glyph unicode="&#xed;" horiz-adv-x="362" d="M-94 1020l391 63l-29 -98l29 -938l115 -117l-406 4l86 109l-29 903zM-33 1147l115 381q18 59 61 96t93 37q57 0 90.5 -46t33.5 -106q1 -92 -65 -153l2 -2l-14 -11q-14 -12 -31 -18z" />
<glyph unicode="&#xee;" horiz-adv-x="389" d="M-231 1282l108 55l283 408l215 -387l92 -39l-307 -186l47 102l-68 121l-104 -150l10 -82zM-94 1020l391 63l-29 -98l29 -938l115 -117l-406 4l86 109l-29 903z" />
<glyph unicode="&#xef;" horiz-adv-x="352" d="M-143 1305q0 66 36.5 110.5t90.5 44.5q53 0 90 -44.5t37 -110.5q0 -63 -37 -109.5t-90 -46.5t-90 46t-37 110zM-94 1020l391 63l-29 -98l29 -938l115 -117l-406 4l86 109l-29 903zM145 1321q0 59 28 101t71 48q63 8 106 -55q39 -55 39 -123q0 -57 -27.5 -99t-72.5 -48 q-63 -8 -107 55q-37 55 -37 121z" />
<glyph unicode="&#xf0;" horiz-adv-x="714" d="M-20 580l96 268l-41 358q143 76 282 76q23 0 218 -12l-13 -326q111 -14 168 -209l8 -67q-6 27 -47 69q-53 53 -112 54q-12 0 -23 -5l-16 -393q80 0 80 -84q0 -102 -88 -155l-3 -82l-323 -13l-6 56q-41 12 -63.5 73.5t-16.5 128.5q8 80 45 109l-31 260q-47 -35 -114 -106z M31 662q96 94 166 94q51 0 73 -58q45 -111 45 -178q0 -74 -53 -78q-12 -2 -12 -10q0 -18 41 -44t82 -26q57 0 78 60q-117 84 -117 184q0 72 65 137q76 74 144 74q78 0 129 -86q-57 188 -168 189q-86 0 -191 -132q-66 117 -131 117q-51 0 -92 -74zM100 313 q-6 -63 14.5 -120.5t61.5 -59.5q43 -4 127 43q27 16 45 17q16 0 43 -17.5t47 -17.5q68 0 107 90q16 33 16 61q0 61 -61 62q-12 0 -30.5 -4.5t-94.5 -32.5q-66 -23 -90 -23q-43 0 -74 62q-25 45 -51 45q-14 0 -29 -15q-25 -25 -31 -90zM119 279q0 117 41 116q16 0 33 -33 q37 -72 92 -71q27 0 84 20q71 29 106 37q12 2 23 2q41 0 41 -45q0 -41 -32 -84t-69 -43q-16 0 -32 12q-31 23 -58 23q-25 0 -78 -31.5t-94 -27.5q-57 4 -57 125zM133 604q0 -63 62 -63q61 0 61 63t-61 64q-61 0 -62 -64zM135 248l21 24l-21 19v-43zM141 317l41 -28l13 43 l-35 26zM143 209l56 -41l14 76l-43 20zM143 604q0 53 52 53q51 0 51 -53t-51 -53t-52 53zM156 600q0 -43 18 -43q19 0 19 43t-19 43q-18 0 -18 -43zM199 270l47 -16l8 31l-47 28zM231 176l70 35v27l-70 4v-66zM268 281l2 -33l62 10l-4 29zM326 244l4 -21l73 -8v35zM354 291 l4 -31l70 8l-14 45zM389 608q0 -59 45 -59t45 59q0 61 -45 62q-45 0 -45 -62zM399 608q0 51 35 51t35 -51q0 -49 -35 -49t-35 49zM422 602q0 -39 18 -39q19 0 19 39t-19 39q-18 0 -18 -39zM424 199l45 -2l25 55l-52 -2zM444 319l15 -51l53 21l-12 49z" />
<glyph unicode="&#xf1;" horiz-adv-x="665" d="M-109 1464l76 45q16 76 27 99q72 180 254 180q147 0 233 -131q4 6 60 86l-19 88l299 -150l-108 -49q-147 -221 -248 -221q-59 0 -107 66q-20 29 -41 57q-29 39 -49 43q-12 4 -20 4q-45 0 -72 -80l49 -90zM-104 1331l260 -26q104 59 196 59q215 0 236 -305 q27 -387 55 -1053l72 -90l-402 -35l125 146q-31 647 -55 1020q-8 121 -57 120q-31 0 -136 -90l41 -1030l84 -127l-346 -10l60 123l-49 1181z" />
<glyph unicode="&#xf2;" horiz-adv-x="616" d="M-29 811q0 215 45 375q74 266 240 266q156 0 250 -239.5t94 -571.5q0 -213 -45 -375q-74 -266 -240 -266q-156 0 -250 239.5t-94 571.5zM59 1776q0 59 34 105t91 46q47 0 90 -37t62 -96l117 -381l-287 178q-14 6 -29 19l-16 10l2 2q-63 61 -64 154zM176 811 q0 -293 80 -496q43 -109 57 -108q12 0 45 115q37 133 37 319q0 293 -80 496q-43 109 -57 108q-12 0 -45 -112q-37 -135 -37 -322z" />
<glyph unicode="&#xf3;" horiz-adv-x="612" d="M-29 811q0 215 45 375q74 266 240 266q156 0 250 -239.5t94 -571.5q0 -213 -45 -375q-74 -266 -240 -266q-156 0 -250 239.5t-94 571.5zM70 1454l114 381q18 59 61.5 96t92.5 37q57 0 91 -46t34 -105q0 -93 -66 -154l2 -2l-14 -10q-14 -12 -31 -19zM176 811 q0 -293 80 -496q43 -109 57 -108q12 0 45 115q37 133 37 319q0 293 -80 496q-43 109 -57 108q-12 0 -45 -112q-37 -135 -37 -322z" />
<glyph unicode="&#xf4;" horiz-adv-x="612" d="M-92 1624l106 55l283 408l215 -387l92 -37l-307 -188l49 104l-67 121l-107 -152l12 -80zM-29 811q0 215 45 375q74 266 240 266q156 0 250 -239.5t94 -571.5q0 -213 -45 -375q-74 -266 -240 -266q-156 0 -250 239.5t-94 571.5zM176 811q0 -293 80 -496q43 -109 57 -108 q12 0 45 115q37 133 37 319q0 293 -80 496q-43 109 -57 108q-12 0 -45 -112q-37 -135 -37 -322z" />
<glyph unicode="&#xf5;" horiz-adv-x="608" d="M-96 1524l76 45q16 78 26 100q72 180 254 180q147 0 234 -131q4 6 59 86l-18 88l299 -149l-109 -51q-147 -219 -248 -219q-57 0 -106 63q-20 31 -41 59q-29 37 -49 43q-10 2 -21 2q-45 0 -72 -77l52 -93zM-29 811q0 215 45 375q74 266 240 266q156 0 250 -239.5 t94 -571.5q0 -213 -45 -375q-74 -266 -240 -266q-156 0 -250 239.5t-94 571.5zM176 811q0 -293 80 -496q43 -109 57 -108q12 0 45 115q37 133 37 319q0 293 -80 496q-43 109 -57 108q-12 0 -45 -112q-37 -135 -37 -322z" />
<glyph unicode="&#xf6;" horiz-adv-x="612" d="M-29 811q0 215 45 375q74 266 240 266q156 0 250 -239.5t94 -571.5q0 -213 -45 -375q-74 -266 -240 -266q-156 0 -250 239.5t-94 571.5zM0 1632q0 66 37 111t90 45t90 -45t37 -111q0 -63 -37 -109t-90 -46t-90 46t-37 109zM176 811q0 -293 80 -496q43 -109 57 -108 q12 0 45 115q37 133 37 319q0 293 -80 496q-43 109 -57 108q-12 0 -45 -112q-37 -135 -37 -322zM289 1649q0 59 27.5 101t70.5 48q63 8 107 -55q38 -55 38 -123q0 -57 -27.5 -99t-72.5 -48q-63 -8 -106 55q-37 55 -37 121z" />
<glyph unicode="&#xf7;" horiz-adv-x="614" d="M29 1268q115 23 202 22q152 0 373 -86l-119 -1214l-393 -45q-25 215 -41 663q-10 330 -22 660zM66 1247q6 -315 10 -631q8 -438 24 -632l340 32l135 1164q-203 84 -350 84q-72 0 -159 -17zM92 940q0 76 25 94q43 33 106 41l15 -121q-12 25 -29 25q-31 0 -62 -84 q-23 -61 -41 -37q-14 20 -14 82zM94 565q0 109 58 137l20 3l2 -46q-18 -10 -31 -26q-35 -37 -37 -92q-2 -20 -4 -23q-8 0 -8 47zM109 274q0 297 71 322l31 2q12 0 22 -6q25 -12 35 -39q12 59 72 51q39 -6 76 -131t37 -242q-1 -42 -7 -75q-10 -41 -43 -41q-25 0 -91 30.5 t-97 30.5q-45 0 -63 -53q-8 -29 -17 -29q-27 0 -26 180zM127 805q0 31 20.5 54.5t51.5 23.5q39 0 59 -35q-2 6 -2 12q0 33 22.5 55.5t55.5 22.5q31 0 53.5 -22.5t22.5 -55.5q0 -31 -22.5 -53.5t-53.5 -22.5q-43 0 -66 35q2 -6 2 -14q0 -29 -20.5 -52.5t-50.5 -23.5 q-31 0 -51.5 23.5t-20.5 52.5zM143 805q0 -59 56 -60q55 1 55 60q0 61 -55 61t-56 -61zM145 383q-6 -109 2 -197q27 29 64 29q35 0 100 -30.5t88 -32.5q20 -4 21 88q0 104 -23 206q-27 117 -63 123q-18 2 -25.5 -24.5t-23.5 -147.5q-53 154 -76 166l-21 -2q-37 -18 -43 -178 zM158 805q0 47 41 47t41 -47q0 -45 -41 -45t-41 45zM174 797q0 -25 21 -25q20 0 20 25q0 27 -20 26q-20 0 -21 -26zM186 670l31 14q8 -14 16 -29q23 92 39 80q14 -14 31 -71l21 26l26 -22l-18 -33q-20 8 -72 -25q-6 12 -59 27zM268 1044q0 35 8 89l70 8q70 2 117 -115 q10 -23 10 -33q0 -8 -6 -8t-54 29.5t-75 29.5q-20 0 -36.5 -20t-20.5 -20q-12 0 -13 40zM272 860q0 -59 62 -59q59 0 59 59q0 61 -59 62q-61 0 -62 -62zM287 860q0 47 47 47q45 0 45 -47q0 -45 -45 -45q-47 0 -47 45zM313 850q0 -25 27 -25q25 0 25 25q0 27 -25 27 q-27 0 -27 -27zM346 684l4 59l23 2q100 -16 100 -170q0 -41 -6 -40q-4 3 -4 34q0 121 -117 115zM395 561l17 86l37 -41l4 -59l12 -31l-21 -98l-6 37zM414 745l10 64l78 -49l-25 -109l-6 31zM428 831l18 97l78 -29l-18 -119zM455 956l6 25h14l8 18l-12 37l2 23l64 -19 l-15 -108zM471 1098l16 86l72 -25l-12 -84z" />
<glyph unicode="&#xf8;" horiz-adv-x="632" d="M-8 539q0 332 94 571.5t250 239.5q165 -1 239 -267q45 -160 46 -374q0 -332 -94.5 -571.5t-250.5 -239.5q-166 0 -239 266q-45 160 -45 375zM199 483q4 -154 36 -266.5t44 -112.5q41 0 90 238q41 199 45 291zM203 682zM203 682l209 125q-6 127 -33 223q-33 113 -45 113 q-35 0 -84 -207q-41 -172 -47 -254z" />
<glyph unicode="&#xf9;" horiz-adv-x="608" d="M-96 1296l321 23l-47 -105q2 -238 19 -702q14 -195 30 -279q25 -119 74 -131q39 -12 53 68q10 61 15 256l18 797l-68 125l353 -72l-82 -98q-2 -281 -6 -560q-8 -336 -62 -503q-66 -219 -217 -219q-16 0 -33 4q-147 20 -219 223q-51 139 -57 328l-23 753zM39 1735 q0 59 33.5 105t91.5 46q47 0 90 -37t61 -96l117 -381l-287 178q-14 6 -28 19l-17 10l2 2q-63 61 -63 154z" />
<glyph unicode="&#xfa;" horiz-adv-x="608" d="M-96 1296l321 23l-47 -105q2 -238 19 -702q14 -195 30 -279q25 -119 74 -131q39 -12 53 68q10 61 15 256l18 797l-68 125l353 -72l-82 -98q-2 -281 -6 -560q-8 -336 -62 -503q-66 -219 -217 -219q-16 0 -33 4q-147 20 -219 223q-51 139 -57 328l-23 753zM70 1372l114 381 q18 59 61.5 96t92.5 37q57 0 91 -46t34 -105q0 -93 -66 -154l2 -2l-14 -10q-14 -12 -31 -19z" />
<glyph unicode="&#xfb;" horiz-adv-x="616" d="M-96 1296l321 23l-47 -105q2 -238 19 -702q14 -195 30 -279q25 -119 74 -131q39 -12 53 68q10 61 15 256l18 797l-68 125l353 -72l-82 -98q-2 -281 -6 -560q-8 -336 -62 -503q-66 -219 -217 -219q-16 0 -33 4q-147 20 -219 223q-51 139 -57 328l-23 753zM-51 1563l106 55 l283 407l215 -387l92 -36l-307 -189l49 105l-68 120l-106 -151l12 -80z" />
<glyph unicode="&#xfc;" horiz-adv-x="616" d="M-96 1296l321 23l-47 -105q2 -238 19 -702q14 -195 30 -279q25 -119 74 -131q39 -12 53 68q10 61 15 256l18 797l-68 125l353 -72l-82 -98q-2 -281 -6 -560q-8 -336 -62 -503q-66 -219 -217 -219q-16 0 -33 4q-147 20 -219 223q-51 139 -57 328l-23 753zM0 1530 q0 66 37 111t90 45t90 -45t37 -111q0 -63 -37 -109.5t-90 -46.5t-90 46t-37 110zM289 1546q0 59 27.5 101.5t70.5 48.5q63 8 107 -56q38 -54 38 -122q0 -57 -27.5 -99.5t-72.5 -48.5q-63 -8 -106 55q-37 55 -37 121z" />
<glyph unicode="&#xfd;" horiz-adv-x="684" d="M-106 1266l376 88l-84 -142l66 -325l115 375l-99 137l391 -119l-90 -61l-233 -758l16 -459l70 -84l-359 -59l84 153l-16 453l-149 723zM88 1384l115 381q18 59 61 96t92 37q57 0 91 -46t34 -105q1 -93 -65 -154l4 -2l-17 -10q-14 -12 -30 -18z" />
<glyph unicode="&#xfe;" d="M-20 1219q141 53 272 53q76 0 381 -43q-25 -358 -49 -717q-35 -492 -72 -547q-178 -6 -375 60q-10 242 -51 577q-47 377 -106 617zM0 1202q0 -12 45 -12t45 12q0 14 -45 15q-45 0 -45 -15zM31 1135q0 -31 39 -31t39 31t-39 30q-39 0 -39 -30zM53 993l33 -202 q84 -27 143 -54q145 -66 150 -114l31 6q92 215 161 198l7 199l-205 -301zM76 1057q0 -23 28 -23q29 0 29 23q0 20 -29 20t-28 -20zM88 1001l88 -47l326 13l43 45zM121 418q0 -82 41 -191q-10 31 -10 62q-1 92 77 164l-10 77h-29q-70 -14 -69 -112zM184 242q0 -133 72 -160 q41 -16 80 -16q33 0 57 12q90 72 90 180q0 37 -18 92q-22 66 -53 66q-29 0 -70 -80q-47 55 -86 55q-25 0 -41 -22q-31 -45 -31 -127zM188 614q-2 0 11.5 9.5t38.5 9.5q37 -1 88 -17q-6 20 -15 35q-23 35 -55 39q-31 2 -55.5 -37t-12.5 -39zM215 254q0 59 25 96q10 14 24 15 q35 0 80 -60q33 63 64 64q25 0 43 -43t18 -82q0 -53 -37 -92q-25 -18 -47 -37q-37 -14 -117 16q-53 20 -53 123zM223 1229l23 -47l139 14l16 37q-39 23 -88 22q-47 0 -90 -26zM227 936l131 -152l107 164zM229 1137l15 -103l143 10l14 113zM262 549q-2 -92 21 -92q6 0 18 13 t25 13q23 0 39 -39l12 -6q29 47 41 47q6 0 9 -18t7 -21.5t10 -3.5q27 0 54 80l-105 53zM442 625q0 -2 2 -2l18 15q19 15 36 15q28 1 53 -26q-8 74 -53 65q-43 -6 -47 -55q-8 -10 -9 -12zM483 424q47 -59 47 -121q0 -53 -38 -94q68 25 67 133q0 48 -14 107l-21 28zM514 1192 q0 -23 47 -23q49 0 49 23t-49 22q-47 0 -47 -22zM522 1120q0 -31 39 -30q39 -1 39 30q0 29 -39 29t-39 -29zM532 1051q0 -25 23 -25t23 25q0 23 -23 22q-23 0 -23 -22z" />
<glyph unicode="&#xff;" horiz-adv-x="593" d="M-106 1266l376 88l-84 -142l66 -325l115 375l-99 137l391 -119l-90 -61l-233 -758l16 -459l70 -84l-359 -59l84 153l-16 453l-149 723zM0 1530q0 66 37 111t90 45t90 -45t37 -111q0 -63 -37 -109.5t-90 -46.5t-90 46t-37 110zM289 1546q0 59 27.5 101.5t70.5 48.5 q63 8 107 -56q38 -54 38 -122q0 -57 -27.5 -99.5t-72.5 -48.5q-63 -8 -106 55q-37 55 -37 121z" />
<glyph unicode="&#x152;" horiz-adv-x="983" d="M-29 811q0 215 45 375q74 266 240 266q94 0 172 -100l45 6l485 47l93 -354l-164 141l-230 -23l23 -479l149 -12l101 108l-29 -391l-96 80l-115 10l10 -231l142 10l127 146l-41 -344l-391 -31l-152 -19q-33 -16 -70 -16q-156 0 -250 239.5t-94 571.5zM176 811 q0 -293 80 -496q43 -109 57 -108q12 0 45 115q37 133 37 319q0 293 -80 496q-43 109 -57 108q-12 0 -45 -112q-37 -135 -37 -322z" />
<glyph unicode="&#x153;" horiz-adv-x="1110" d="M-29 811q0 215 45 375q74 266 240 266q129 0 221 -176q82 141 234 156q227 18 331 -234q76 -178 76 -432q0 -61 -8 -150l-12 -51l-68 -4l-371 -45q82 -330 160 -330q55 0 55 68q0 4 -8 98l-108 84l391 68l-88 -107q18 -416 -242 -415q-147 0 -272 258q-76 -240 -232 -240 t-250 239.5t-94 571.5zM176 811q0 -293 80 -496q43 -109 57 -108q12 0 45 115q37 133 37 319q0 293 -80 496q-43 109 -57 108q-12 0 -45 -112q-37 -135 -37 -322zM602 895q0 -82 14 -178l297 37q6 248 -61 379q-53 104 -117 94q-51 -8 -88 -86q-45 -94 -45 -246z" />
<glyph unicode="&#x178;" horiz-adv-x="581" d="M-106 1327l376 88l-84 -141l66 -326l115 375l-99 137l391 -119l-90 -61l-233 -758l16 -459l70 -83l-359 -60l84 154l-16 452l-149 723zM0 1653q0 66 37 110.5t90 44.5t90 -44.5t37 -110.5q0 -63 -37 -109.5t-90 -46.5t-90 46t-37 110zM289 1669q0 59 27.5 101t70.5 49 q63 8 107 -56q38 -55 38 -123q0 -57 -27.5 -99t-72.5 -48q-63 -8 -106 55q-37 55 -37 121z" />
<glyph unicode="&#x2c6;" horiz-adv-x="655" d="M-72 1501l107 55l282 408l215 -387l93 -37l-308 -188l50 104l-68 121l-106 -152l12 -79z" />
<glyph unicode="&#x2dc;" horiz-adv-x="614" d="M29 1268q115 23 202 22q152 0 373 -86l-119 -1214l-393 -45q-25 215 -41 663q-10 330 -22 660zM66 1247q6 -315 10 -631q8 -438 24 -632l340 32l135 1164q-203 84 -350 84q-72 0 -159 -17zM92 940q0 76 25 94q43 33 106 41l15 -121q-12 25 -29 25q-31 0 -62 -84 q-23 -61 -41 -37q-14 20 -14 82zM94 565q0 109 58 137l20 3l2 -46q-18 -10 -31 -26q-35 -37 -37 -92q-2 -20 -4 -23q-8 0 -8 47zM109 274q0 297 71 322l31 2q12 0 22 -6q25 -12 35 -39q12 59 72 51q39 -6 76 -131t37 -242q-1 -42 -7 -75q-10 -41 -43 -41q-25 0 -91 30.5 t-97 30.5q-45 0 -63 -53q-8 -29 -17 -29q-27 0 -26 180zM127 805q0 31 20.5 54.5t51.5 23.5q39 0 59 -35q-2 6 -2 12q0 33 22.5 55.5t55.5 22.5q31 0 53.5 -22.5t22.5 -55.5q0 -31 -22.5 -53.5t-53.5 -22.5q-43 0 -66 35q2 -6 2 -14q0 -29 -20.5 -52.5t-50.5 -23.5 q-31 0 -51.5 23.5t-20.5 52.5zM143 805q0 -59 56 -60q55 1 55 60q0 61 -55 61t-56 -61zM145 383q-6 -109 2 -197q27 29 64 29q35 0 100 -30.5t88 -32.5q20 -4 21 88q0 104 -23 206q-27 117 -63 123q-18 2 -25.5 -24.5t-23.5 -147.5q-53 154 -76 166l-21 -2q-37 -18 -43 -178 zM158 805q0 47 41 47t41 -47q0 -45 -41 -45t-41 45zM174 797q0 -25 21 -25q20 0 20 25q0 27 -20 26q-20 0 -21 -26zM186 670l31 14q8 -14 16 -29q23 92 39 80q14 -14 31 -71l21 26l26 -22l-18 -33q-20 8 -72 -25q-6 12 -59 27zM268 1044q0 35 8 89l70 8q70 2 117 -115 q10 -23 10 -33q0 -8 -6 -8t-54 29.5t-75 29.5q-20 0 -36.5 -20t-20.5 -20q-12 0 -13 40zM272 860q0 -59 62 -59q59 0 59 59q0 61 -59 62q-61 0 -62 -62zM287 860q0 47 47 47q45 0 45 -47q0 -45 -45 -45q-47 0 -47 45zM313 850q0 -25 27 -25q25 0 25 25q0 27 -25 27 q-27 0 -27 -27zM346 684l4 59l23 2q100 -16 100 -170q0 -41 -6 -40q-4 3 -4 34q0 121 -117 115zM395 561l17 86l37 -41l4 -59l12 -31l-21 -98l-6 37zM414 745l10 64l78 -49l-25 -109l-6 31zM428 831l18 97l78 -29l-18 -119zM455 956l6 25h14l8 18l-12 37l2 23l64 -19 l-15 -108zM471 1098l16 86l72 -25l-12 -84z" />
<glyph unicode="&#x2000;" horiz-adv-x="1043" />
<glyph unicode="&#x2001;" horiz-adv-x="2087" />
<glyph unicode="&#x2002;" horiz-adv-x="1043" />
<glyph unicode="&#x2003;" horiz-adv-x="2087" />
<glyph unicode="&#x2004;" horiz-adv-x="695" />
<glyph unicode="&#x2005;" horiz-adv-x="521" />
<glyph unicode="&#x2006;" horiz-adv-x="347" />
<glyph unicode="&#x2007;" horiz-adv-x="347" />
<glyph unicode="&#x2008;" horiz-adv-x="260" />
<glyph unicode="&#x2009;" horiz-adv-x="417" />
<glyph unicode="&#x200a;" horiz-adv-x="115" />
<glyph unicode="&#x2010;" horiz-adv-x="800" d="M0 770l25 -319l145 45l467 -4l84 -119l78 395l-64 -70l-614 -12z" />
<glyph unicode="&#x2011;" horiz-adv-x="800" d="M0 770l25 -319l145 45l467 -4l84 -119l78 395l-64 -70l-614 -12z" />
<glyph unicode="&#x2012;" horiz-adv-x="800" d="M0 770l25 -319l145 45l467 -4l84 -119l78 395l-64 -70l-614 -12z" />
<glyph unicode="&#x2013;" horiz-adv-x="614" d="M29 1268q115 23 202 22q152 0 373 -86l-119 -1214l-393 -45q-25 215 -41 663q-10 330 -22 660zM66 1247q6 -315 10 -631q8 -438 24 -632l340 32l135 1164q-203 84 -350 84q-72 0 -159 -17zM92 940q0 76 25 94q43 33 106 41l15 -121q-12 25 -29 25q-31 0 -62 -84 q-23 -61 -41 -37q-14 20 -14 82zM94 565q0 109 58 137l20 3l2 -46q-18 -10 -31 -26q-35 -37 -37 -92q-2 -20 -4 -23q-8 0 -8 47zM109 274q0 297 71 322l31 2q12 0 22 -6q25 -12 35 -39q12 59 72 51q39 -6 76 -131t37 -242q-1 -42 -7 -75q-10 -41 -43 -41q-25 0 -91 30.5 t-97 30.5q-45 0 -63 -53q-8 -29 -17 -29q-27 0 -26 180zM127 805q0 31 20.5 54.5t51.5 23.5q39 0 59 -35q-2 6 -2 12q0 33 22.5 55.5t55.5 22.5q31 0 53.5 -22.5t22.5 -55.5q0 -31 -22.5 -53.5t-53.5 -22.5q-43 0 -66 35q2 -6 2 -14q0 -29 -20.5 -52.5t-50.5 -23.5 q-31 0 -51.5 23.5t-20.5 52.5zM143 805q0 -59 56 -60q55 1 55 60q0 61 -55 61t-56 -61zM145 383q-6 -109 2 -197q27 29 64 29q35 0 100 -30.5t88 -32.5q20 -4 21 88q0 104 -23 206q-27 117 -63 123q-18 2 -25.5 -24.5t-23.5 -147.5q-53 154 -76 166l-21 -2q-37 -18 -43 -178 zM158 805q0 47 41 47t41 -47q0 -45 -41 -45t-41 45zM174 797q0 -25 21 -25q20 0 20 25q0 27 -20 26q-20 0 -21 -26zM186 670l31 14q8 -14 16 -29q23 92 39 80q14 -14 31 -71l21 26l26 -22l-18 -33q-20 8 -72 -25q-6 12 -59 27zM268 1044q0 35 8 89l70 8q70 2 117 -115 q10 -23 10 -33q0 -8 -6 -8t-54 29.5t-75 29.5q-20 0 -36.5 -20t-20.5 -20q-12 0 -13 40zM272 860q0 -59 62 -59q59 0 59 59q0 61 -59 62q-61 0 -62 -62zM287 860q0 47 47 47q45 0 45 -47q0 -45 -45 -45q-47 0 -47 45zM313 850q0 -25 27 -25q25 0 25 25q0 27 -25 27 q-27 0 -27 -27zM346 684l4 59l23 2q100 -16 100 -170q0 -41 -6 -40q-4 3 -4 34q0 121 -117 115zM395 561l17 86l37 -41l4 -59l12 -31l-21 -98l-6 37zM414 745l10 64l78 -49l-25 -109l-6 31zM428 831l18 97l78 -29l-18 -119zM455 956l6 25h14l8 18l-12 37l2 23l64 -19 l-15 -108zM471 1098l16 86l72 -25l-12 -84z" />
<glyph unicode="&#x2014;" d="M-20 1219q141 53 272 53q76 0 381 -43q-25 -358 -49 -717q-35 -492 -72 -547q-178 -6 -375 60q-10 242 -51 577q-47 377 -106 617zM0 1202q0 -12 45 -12t45 12q0 14 -45 15q-45 0 -45 -15zM31 1135q0 -31 39 -31t39 31t-39 30q-39 0 -39 -30zM53 993l33 -202 q84 -27 143 -54q145 -66 150 -114l31 6q92 215 161 198l7 199l-205 -301zM76 1057q0 -23 28 -23q29 0 29 23q0 20 -29 20t-28 -20zM88 1001l88 -47l326 13l43 45zM121 418q0 -82 41 -191q-10 31 -10 62q-1 92 77 164l-10 77h-29q-70 -14 -69 -112zM184 242q0 -133 72 -160 q41 -16 80 -16q33 0 57 12q90 72 90 180q0 37 -18 92q-22 66 -53 66q-29 0 -70 -80q-47 55 -86 55q-25 0 -41 -22q-31 -45 -31 -127zM188 614q-2 0 11.5 9.5t38.5 9.5q37 -1 88 -17q-6 20 -15 35q-23 35 -55 39q-31 2 -55.5 -37t-12.5 -39zM215 254q0 59 25 96q10 14 24 15 q35 0 80 -60q33 63 64 64q25 0 43 -43t18 -82q0 -53 -37 -92q-25 -18 -47 -37q-37 -14 -117 16q-53 20 -53 123zM223 1229l23 -47l139 14l16 37q-39 23 -88 22q-47 0 -90 -26zM227 936l131 -152l107 164zM229 1137l15 -103l143 10l14 113zM262 549q-2 -92 21 -92q6 0 18 13 t25 13q23 0 39 -39l12 -6q29 47 41 47q6 0 9 -18t7 -21.5t10 -3.5q27 0 54 80l-105 53zM442 625q0 -2 2 -2l18 15q19 15 36 15q28 1 53 -26q-8 74 -53 65q-43 -6 -47 -55q-8 -10 -9 -12zM483 424q47 -59 47 -121q0 -53 -38 -94q68 25 67 133q0 48 -14 107l-21 28zM514 1192 q0 -23 47 -23q49 0 49 23t-49 22q-47 0 -47 -22zM522 1120q0 -31 39 -30q39 -1 39 30q0 29 -39 29t-39 -29zM532 1051q0 -25 23 -25t23 25q0 23 -23 22q-23 0 -23 -22z" />
<glyph unicode="&#x2018;" d="M-20 1219q141 53 272 53q76 0 381 -43q-25 -358 -49 -717q-35 -492 -72 -547q-178 -6 -375 60q-10 242 -51 577q-47 377 -106 617zM0 1202q0 -12 45 -12t45 12q0 14 -45 15q-45 0 -45 -15zM31 1135q0 -31 39 -31t39 31t-39 30q-39 0 -39 -30zM53 993l33 -202 q84 -27 143 -54q145 -66 150 -114l31 6q92 215 161 198l7 199l-205 -301zM76 1057q0 -23 28 -23q29 0 29 23q0 20 -29 20t-28 -20zM88 1001l88 -47l326 13l43 45zM121 418q0 -82 41 -191q-10 31 -10 62q-1 92 77 164l-10 77h-29q-70 -14 -69 -112zM184 242q0 -133 72 -160 q41 -16 80 -16q33 0 57 12q90 72 90 180q0 37 -18 92q-22 66 -53 66q-29 0 -70 -80q-47 55 -86 55q-25 0 -41 -22q-31 -45 -31 -127zM188 614q-2 0 11.5 9.5t38.5 9.5q37 -1 88 -17q-6 20 -15 35q-23 35 -55 39q-31 2 -55.5 -37t-12.5 -39zM215 254q0 59 25 96q10 14 24 15 q35 0 80 -60q33 63 64 64q25 0 43 -43t18 -82q0 -53 -37 -92q-25 -18 -47 -37q-37 -14 -117 16q-53 20 -53 123zM223 1229l23 -47l139 14l16 37q-39 23 -88 22q-47 0 -90 -26zM227 936l131 -152l107 164zM229 1137l15 -103l143 10l14 113zM262 549q-2 -92 21 -92q6 0 18 13 t25 13q23 0 39 -39l12 -6q29 47 41 47q6 0 9 -18t7 -21.5t10 -3.5q27 0 54 80l-105 53zM442 625q0 -2 2 -2l18 15q19 15 36 15q28 1 53 -26q-8 74 -53 65q-43 -6 -47 -55q-8 -10 -9 -12zM483 424q47 -59 47 -121q0 -53 -38 -94q68 25 67 133q0 48 -14 107l-21 28zM514 1192 q0 -23 47 -23q49 0 49 23t-49 22q-47 0 -47 -22zM522 1120q0 -31 39 -30q39 -1 39 30q0 29 -39 29t-39 -29zM532 1051q0 -25 23 -25t23 25q0 23 -23 22q-23 0 -23 -22z" />
<glyph unicode="&#x2019;" horiz-adv-x="714" d="M-20 580l96 268l-41 358q143 76 282 76q23 0 218 -12l-13 -326q111 -14 168 -209l8 -67q-6 27 -47 69q-53 53 -112 54q-12 0 -23 -5l-16 -393q80 0 80 -84q0 -102 -88 -155l-3 -82l-323 -13l-6 56q-41 12 -63.5 73.5t-16.5 128.5q8 80 45 109l-31 260q-47 -35 -114 -106z M31 662q96 94 166 94q51 0 73 -58q45 -111 45 -178q0 -74 -53 -78q-12 -2 -12 -10q0 -18 41 -44t82 -26q57 0 78 60q-117 84 -117 184q0 72 65 137q76 74 144 74q78 0 129 -86q-57 188 -168 189q-86 0 -191 -132q-66 117 -131 117q-51 0 -92 -74zM100 313 q-6 -63 14.5 -120.5t61.5 -59.5q43 -4 127 43q27 16 45 17q16 0 43 -17.5t47 -17.5q68 0 107 90q16 33 16 61q0 61 -61 62q-12 0 -30.5 -4.5t-94.5 -32.5q-66 -23 -90 -23q-43 0 -74 62q-25 45 -51 45q-14 0 -29 -15q-25 -25 -31 -90zM119 279q0 117 41 116q16 0 33 -33 q37 -72 92 -71q27 0 84 20q71 29 106 37q12 2 23 2q41 0 41 -45q0 -41 -32 -84t-69 -43q-16 0 -32 12q-31 23 -58 23q-25 0 -78 -31.5t-94 -27.5q-57 4 -57 125zM133 604q0 -63 62 -63q61 0 61 63t-61 64q-61 0 -62 -64zM135 248l21 24l-21 19v-43zM141 317l41 -28l13 43 l-35 26zM143 209l56 -41l14 76l-43 20zM143 604q0 53 52 53q51 0 51 -53t-51 -53t-52 53zM156 600q0 -43 18 -43q19 0 19 43t-19 43q-18 0 -18 -43zM199 270l47 -16l8 31l-47 28zM231 176l70 35v27l-70 4v-66zM268 281l2 -33l62 10l-4 29zM326 244l4 -21l73 -8v35zM354 291 l4 -31l70 8l-14 45zM389 608q0 -59 45 -59t45 59q0 61 -45 62q-45 0 -45 -62zM399 608q0 51 35 51t35 -51q0 -49 -35 -49t-35 49zM422 602q0 -39 18 -39q19 0 19 39t-19 39q-18 0 -18 -39zM424 199l45 -2l25 55l-52 -2zM444 319l15 -51l53 21l-12 49z" />
<glyph unicode="&#x201a;" d="M-20 1219q141 53 272 53q76 0 381 -43q-25 -358 -49 -717q-35 -492 -72 -547q-178 -6 -375 60q-10 242 -51 577q-47 377 -106 617zM0 1202q0 -12 45 -12t45 12q0 14 -45 15q-45 0 -45 -15zM31 1135q0 -31 39 -31t39 31t-39 30q-39 0 -39 -30zM53 993l33 -202 q84 -27 143 -54q145 -66 150 -114l31 6q92 215 161 198l7 199l-205 -301zM76 1057q0 -23 28 -23q29 0 29 23q0 20 -29 20t-28 -20zM88 1001l88 -47l326 13l43 45zM121 418q0 -82 41 -191q-10 31 -10 62q-1 92 77 164l-10 77h-29q-70 -14 -69 -112zM184 242q0 -133 72 -160 q41 -16 80 -16q33 0 57 12q90 72 90 180q0 37 -18 92q-22 66 -53 66q-29 0 -70 -80q-47 55 -86 55q-25 0 -41 -22q-31 -45 -31 -127zM188 614q-2 0 11.5 9.5t38.5 9.5q37 -1 88 -17q-6 20 -15 35q-23 35 -55 39q-31 2 -55.5 -37t-12.5 -39zM215 254q0 59 25 96q10 14 24 15 q35 0 80 -60q33 63 64 64q25 0 43 -43t18 -82q0 -53 -37 -92q-25 -18 -47 -37q-37 -14 -117 16q-53 20 -53 123zM223 1229l23 -47l139 14l16 37q-39 23 -88 22q-47 0 -90 -26zM227 936l131 -152l107 164zM229 1137l15 -103l143 10l14 113zM262 549q-2 -92 21 -92q6 0 18 13 t25 13q23 0 39 -39l12 -6q29 47 41 47q6 0 9 -18t7 -21.5t10 -3.5q27 0 54 80l-105 53zM442 625q0 -2 2 -2l18 15q19 15 36 15q28 1 53 -26q-8 74 -53 65q-43 -6 -47 -55q-8 -10 -9 -12zM483 424q47 -59 47 -121q0 -53 -38 -94q68 25 67 133q0 48 -14 107l-21 28zM514 1192 q0 -23 47 -23q49 0 49 23t-49 22q-47 0 -47 -22zM522 1120q0 -31 39 -30q39 -1 39 30q0 29 -39 29t-39 -29zM532 1051q0 -25 23 -25t23 25q0 23 -23 22q-23 0 -23 -22z" />
<glyph unicode="&#x201c;" horiz-adv-x="714" d="M-20 580l96 268l-41 358q143 76 282 76q23 0 218 -12l-13 -326q111 -14 168 -209l8 -67q-6 27 -47 69q-53 53 -112 54q-12 0 -23 -5l-16 -393q80 0 80 -84q0 -102 -88 -155l-3 -82l-323 -13l-6 56q-41 12 -63.5 73.5t-16.5 128.5q8 80 45 109l-31 260q-47 -35 -114 -106z M31 662q96 94 166 94q51 0 73 -58q45 -111 45 -178q0 -74 -53 -78q-12 -2 -12 -10q0 -18 41 -44t82 -26q57 0 78 60q-117 84 -117 184q0 72 65 137q76 74 144 74q78 0 129 -86q-57 188 -168 189q-86 0 -191 -132q-66 117 -131 117q-51 0 -92 -74zM100 313 q-6 -63 14.5 -120.5t61.5 -59.5q43 -4 127 43q27 16 45 17q16 0 43 -17.5t47 -17.5q68 0 107 90q16 33 16 61q0 61 -61 62q-12 0 -30.5 -4.5t-94.5 -32.5q-66 -23 -90 -23q-43 0 -74 62q-25 45 -51 45q-14 0 -29 -15q-25 -25 -31 -90zM119 279q0 117 41 116q16 0 33 -33 q37 -72 92 -71q27 0 84 20q71 29 106 37q12 2 23 2q41 0 41 -45q0 -41 -32 -84t-69 -43q-16 0 -32 12q-31 23 -58 23q-25 0 -78 -31.5t-94 -27.5q-57 4 -57 125zM133 604q0 -63 62 -63q61 0 61 63t-61 64q-61 0 -62 -64zM135 248l21 24l-21 19v-43zM141 317l41 -28l13 43 l-35 26zM143 209l56 -41l14 76l-43 20zM143 604q0 53 52 53q51 0 51 -53t-51 -53t-52 53zM156 600q0 -43 18 -43q19 0 19 43t-19 43q-18 0 -18 -43zM199 270l47 -16l8 31l-47 28zM231 176l70 35v27l-70 4v-66zM268 281l2 -33l62 10l-4 29zM326 244l4 -21l73 -8v35zM354 291 l4 -31l70 8l-14 45zM389 608q0 -59 45 -59t45 59q0 61 -45 62q-45 0 -45 -62zM399 608q0 51 35 51t35 -51q0 -49 -35 -49t-35 49zM422 602q0 -39 18 -39q19 0 19 39t-19 39q-18 0 -18 -39zM424 199l45 -2l25 55l-52 -2zM444 319l15 -51l53 21l-12 49z" />
<glyph unicode="&#x201d;" horiz-adv-x="614" d="M29 1268q115 23 202 22q152 0 373 -86l-119 -1214l-393 -45q-25 215 -41 663q-10 330 -22 660zM66 1247q6 -315 10 -631q8 -438 24 -632l340 32l135 1164q-203 84 -350 84q-72 0 -159 -17zM92 940q0 76 25 94q43 33 106 41l15 -121q-12 25 -29 25q-31 0 -62 -84 q-23 -61 -41 -37q-14 20 -14 82zM94 565q0 109 58 137l20 3l2 -46q-18 -10 -31 -26q-35 -37 -37 -92q-2 -20 -4 -23q-8 0 -8 47zM109 274q0 297 71 322l31 2q12 0 22 -6q25 -12 35 -39q12 59 72 51q39 -6 76 -131t37 -242q-1 -42 -7 -75q-10 -41 -43 -41q-25 0 -91 30.5 t-97 30.5q-45 0 -63 -53q-8 -29 -17 -29q-27 0 -26 180zM127 805q0 31 20.5 54.5t51.5 23.5q39 0 59 -35q-2 6 -2 12q0 33 22.5 55.5t55.5 22.5q31 0 53.5 -22.5t22.5 -55.5q0 -31 -22.5 -53.5t-53.5 -22.5q-43 0 -66 35q2 -6 2 -14q0 -29 -20.5 -52.5t-50.5 -23.5 q-31 0 -51.5 23.5t-20.5 52.5zM143 805q0 -59 56 -60q55 1 55 60q0 61 -55 61t-56 -61zM145 383q-6 -109 2 -197q27 29 64 29q35 0 100 -30.5t88 -32.5q20 -4 21 88q0 104 -23 206q-27 117 -63 123q-18 2 -25.5 -24.5t-23.5 -147.5q-53 154 -76 166l-21 -2q-37 -18 -43 -178 zM158 805q0 47 41 47t41 -47q0 -45 -41 -45t-41 45zM174 797q0 -25 21 -25q20 0 20 25q0 27 -20 26q-20 0 -21 -26zM186 670l31 14q8 -14 16 -29q23 92 39 80q14 -14 31 -71l21 26l26 -22l-18 -33q-20 8 -72 -25q-6 12 -59 27zM268 1044q0 35 8 89l70 8q70 2 117 -115 q10 -23 10 -33q0 -8 -6 -8t-54 29.5t-75 29.5q-20 0 -36.5 -20t-20.5 -20q-12 0 -13 40zM272 860q0 -59 62 -59q59 0 59 59q0 61 -59 62q-61 0 -62 -62zM287 860q0 47 47 47q45 0 45 -47q0 -45 -45 -45q-47 0 -47 45zM313 850q0 -25 27 -25q25 0 25 25q0 27 -25 27 q-27 0 -27 -27zM346 684l4 59l23 2q100 -16 100 -170q0 -41 -6 -40q-4 3 -4 34q0 121 -117 115zM395 561l17 86l37 -41l4 -59l12 -31l-21 -98l-6 37zM414 745l10 64l78 -49l-25 -109l-6 31zM428 831l18 97l78 -29l-18 -119zM455 956l6 25h14l8 18l-12 37l2 23l64 -19 l-15 -108zM471 1098l16 86l72 -25l-12 -84z" />
<glyph unicode="&#x201e;" horiz-adv-x="714" d="M-20 580l96 268l-41 358q143 76 282 76q23 0 218 -12l-13 -326q111 -14 168 -209l8 -67q-6 27 -47 69q-53 53 -112 54q-12 0 -23 -5l-16 -393q80 0 80 -84q0 -102 -88 -155l-3 -82l-323 -13l-6 56q-41 12 -63.5 73.5t-16.5 128.5q8 80 45 109l-31 260q-47 -35 -114 -106z M31 662q96 94 166 94q51 0 73 -58q45 -111 45 -178q0 -74 -53 -78q-12 -2 -12 -10q0 -18 41 -44t82 -26q57 0 78 60q-117 84 -117 184q0 72 65 137q76 74 144 74q78 0 129 -86q-57 188 -168 189q-86 0 -191 -132q-66 117 -131 117q-51 0 -92 -74zM100 313 q-6 -63 14.5 -120.5t61.5 -59.5q43 -4 127 43q27 16 45 17q16 0 43 -17.5t47 -17.5q68 0 107 90q16 33 16 61q0 61 -61 62q-12 0 -30.5 -4.5t-94.5 -32.5q-66 -23 -90 -23q-43 0 -74 62q-25 45 -51 45q-14 0 -29 -15q-25 -25 -31 -90zM119 279q0 117 41 116q16 0 33 -33 q37 -72 92 -71q27 0 84 20q71 29 106 37q12 2 23 2q41 0 41 -45q0 -41 -32 -84t-69 -43q-16 0 -32 12q-31 23 -58 23q-25 0 -78 -31.5t-94 -27.5q-57 4 -57 125zM133 604q0 -63 62 -63q61 0 61 63t-61 64q-61 0 -62 -64zM135 248l21 24l-21 19v-43zM141 317l41 -28l13 43 l-35 26zM143 209l56 -41l14 76l-43 20zM143 604q0 53 52 53q51 0 51 -53t-51 -53t-52 53zM156 600q0 -43 18 -43q19 0 19 43t-19 43q-18 0 -18 -43zM199 270l47 -16l8 31l-47 28zM231 176l70 35v27l-70 4v-66zM268 281l2 -33l62 10l-4 29zM326 244l4 -21l73 -8v35zM354 291 l4 -31l70 8l-14 45zM389 608q0 -59 45 -59t45 59q0 61 -45 62q-45 0 -45 -62zM399 608q0 51 35 51t35 -51q0 -49 -35 -49t-35 49zM422 602q0 -39 18 -39q19 0 19 39t-19 39q-18 0 -18 -39zM424 199l45 -2l25 55l-52 -2zM444 319l15 -51l53 21l-12 49z" />
<glyph unicode="&#x2022;" horiz-adv-x="614" d="M29 1268q115 23 202 22q152 0 373 -86l-119 -1214l-393 -45q-25 215 -41 663q-10 330 -22 660zM66 1247q6 -315 10 -631q8 -438 24 -632l340 32l135 1164q-203 84 -350 84q-72 0 -159 -17zM92 940q0 76 25 94q43 33 106 41l15 -121q-12 25 -29 25q-31 0 -62 -84 q-23 -61 -41 -37q-14 20 -14 82zM94 565q0 109 58 137l20 3l2 -46q-18 -10 -31 -26q-35 -37 -37 -92q-2 -20 -4 -23q-8 0 -8 47zM109 274q0 297 71 322l31 2q12 0 22 -6q25 -12 35 -39q12 59 72 51q39 -6 76 -131t37 -242q-1 -42 -7 -75q-10 -41 -43 -41q-25 0 -91 30.5 t-97 30.5q-45 0 -63 -53q-8 -29 -17 -29q-27 0 -26 180zM127 805q0 31 20.5 54.5t51.5 23.5q39 0 59 -35q-2 6 -2 12q0 33 22.5 55.5t55.5 22.5q31 0 53.5 -22.5t22.5 -55.5q0 -31 -22.5 -53.5t-53.5 -22.5q-43 0 -66 35q2 -6 2 -14q0 -29 -20.5 -52.5t-50.5 -23.5 q-31 0 -51.5 23.5t-20.5 52.5zM143 805q0 -59 56 -60q55 1 55 60q0 61 -55 61t-56 -61zM145 383q-6 -109 2 -197q27 29 64 29q35 0 100 -30.5t88 -32.5q20 -4 21 88q0 104 -23 206q-27 117 -63 123q-18 2 -25.5 -24.5t-23.5 -147.5q-53 154 -76 166l-21 -2q-37 -18 -43 -178 zM158 805q0 47 41 47t41 -47q0 -45 -41 -45t-41 45zM174 797q0 -25 21 -25q20 0 20 25q0 27 -20 26q-20 0 -21 -26zM186 670l31 14q8 -14 16 -29q23 92 39 80q14 -14 31 -71l21 26l26 -22l-18 -33q-20 8 -72 -25q-6 12 -59 27zM268 1044q0 35 8 89l70 8q70 2 117 -115 q10 -23 10 -33q0 -8 -6 -8t-54 29.5t-75 29.5q-20 0 -36.5 -20t-20.5 -20q-12 0 -13 40zM272 860q0 -59 62 -59q59 0 59 59q0 61 -59 62q-61 0 -62 -62zM287 860q0 47 47 47q45 0 45 -47q0 -45 -45 -45q-47 0 -47 45zM313 850q0 -25 27 -25q25 0 25 25q0 27 -25 27 q-27 0 -27 -27zM346 684l4 59l23 2q100 -16 100 -170q0 -41 -6 -40q-4 3 -4 34q0 121 -117 115zM395 561l17 86l37 -41l4 -59l12 -31l-21 -98l-6 37zM414 745l10 64l78 -49l-25 -109l-6 31zM428 831l18 97l78 -29l-18 -119zM455 956l6 25h14l8 18l-12 37l2 23l64 -19 l-15 -108zM471 1098l16 86l72 -25l-12 -84z" />
<glyph unicode="&#x2026;" horiz-adv-x="931" d="M0 152q0 74 41 126t98 52q59 0 100.5 -52t41.5 -126t-41 -125.5t-101 -51.5q-57 0 -98 51.5t-41 125.5zM313 150q0 74 41 126t99 52q57 0 98 -52t41 -126q0 -72 -41 -124.5t-98 -52.5t-98.5 52.5t-41.5 124.5zM627 158q0 74 41 126t98 52q59 0 100 -52t41 -126t-41 -125 t-100 -51q-57 0 -98 51t-41 125z" />
<glyph unicode="&#x202f;" horiz-adv-x="417" />
<glyph unicode="&#x2039;" horiz-adv-x="614" d="M29 1268q115 23 202 22q152 0 373 -86l-119 -1214l-393 -45q-25 215 -41 663q-10 330 -22 660zM66 1247q6 -315 10 -631q8 -438 24 -632l340 32l135 1164q-203 84 -350 84q-72 0 -159 -17zM92 940q0 76 25 94q43 33 106 41l15 -121q-12 25 -29 25q-31 0 -62 -84 q-23 -61 -41 -37q-14 20 -14 82zM94 565q0 109 58 137l20 3l2 -46q-18 -10 -31 -26q-35 -37 -37 -92q-2 -20 -4 -23q-8 0 -8 47zM109 274q0 297 71 322l31 2q12 0 22 -6q25 -12 35 -39q12 59 72 51q39 -6 76 -131t37 -242q-1 -42 -7 -75q-10 -41 -43 -41q-25 0 -91 30.5 t-97 30.5q-45 0 -63 -53q-8 -29 -17 -29q-27 0 -26 180zM127 805q0 31 20.5 54.5t51.5 23.5q39 0 59 -35q-2 6 -2 12q0 33 22.5 55.5t55.5 22.5q31 0 53.5 -22.5t22.5 -55.5q0 -31 -22.5 -53.5t-53.5 -22.5q-43 0 -66 35q2 -6 2 -14q0 -29 -20.5 -52.5t-50.5 -23.5 q-31 0 -51.5 23.5t-20.5 52.5zM143 805q0 -59 56 -60q55 1 55 60q0 61 -55 61t-56 -61zM145 383q-6 -109 2 -197q27 29 64 29q35 0 100 -30.5t88 -32.5q20 -4 21 88q0 104 -23 206q-27 117 -63 123q-18 2 -25.5 -24.5t-23.5 -147.5q-53 154 -76 166l-21 -2q-37 -18 -43 -178 zM158 805q0 47 41 47t41 -47q0 -45 -41 -45t-41 45zM174 797q0 -25 21 -25q20 0 20 25q0 27 -20 26q-20 0 -21 -26zM186 670l31 14q8 -14 16 -29q23 92 39 80q14 -14 31 -71l21 26l26 -22l-18 -33q-20 8 -72 -25q-6 12 -59 27zM268 1044q0 35 8 89l70 8q70 2 117 -115 q10 -23 10 -33q0 -8 -6 -8t-54 29.5t-75 29.5q-20 0 -36.5 -20t-20.5 -20q-12 0 -13 40zM272 860q0 -59 62 -59q59 0 59 59q0 61 -59 62q-61 0 -62 -62zM287 860q0 47 47 47q45 0 45 -47q0 -45 -45 -45q-47 0 -47 45zM313 850q0 -25 27 -25q25 0 25 25q0 27 -25 27 q-27 0 -27 -27zM346 684l4 59l23 2q100 -16 100 -170q0 -41 -6 -40q-4 3 -4 34q0 121 -117 115zM395 561l17 86l37 -41l4 -59l12 -31l-21 -98l-6 37zM414 745l10 64l78 -49l-25 -109l-6 31zM428 831l18 97l78 -29l-18 -119zM455 956l6 25h14l8 18l-12 37l2 23l64 -19 l-15 -108zM471 1098l16 86l72 -25l-12 -84z" />
<glyph unicode="&#x203a;" d="M-20 1219q141 53 272 53q76 0 381 -43q-25 -358 -49 -717q-35 -492 -72 -547q-178 -6 -375 60q-10 242 -51 577q-47 377 -106 617zM0 1202q0 -12 45 -12t45 12q0 14 -45 15q-45 0 -45 -15zM31 1135q0 -31 39 -31t39 31t-39 30q-39 0 -39 -30zM53 993l33 -202 q84 -27 143 -54q145 -66 150 -114l31 6q92 215 161 198l7 199l-205 -301zM76 1057q0 -23 28 -23q29 0 29 23q0 20 -29 20t-28 -20zM88 1001l88 -47l326 13l43 45zM121 418q0 -82 41 -191q-10 31 -10 62q-1 92 77 164l-10 77h-29q-70 -14 -69 -112zM184 242q0 -133 72 -160 q41 -16 80 -16q33 0 57 12q90 72 90 180q0 37 -18 92q-22 66 -53 66q-29 0 -70 -80q-47 55 -86 55q-25 0 -41 -22q-31 -45 -31 -127zM188 614q-2 0 11.5 9.5t38.5 9.5q37 -1 88 -17q-6 20 -15 35q-23 35 -55 39q-31 2 -55.5 -37t-12.5 -39zM215 254q0 59 25 96q10 14 24 15 q35 0 80 -60q33 63 64 64q25 0 43 -43t18 -82q0 -53 -37 -92q-25 -18 -47 -37q-37 -14 -117 16q-53 20 -53 123zM223 1229l23 -47l139 14l16 37q-39 23 -88 22q-47 0 -90 -26zM227 936l131 -152l107 164zM229 1137l15 -103l143 10l14 113zM262 549q-2 -92 21 -92q6 0 18 13 t25 13q23 0 39 -39l12 -6q29 47 41 47q6 0 9 -18t7 -21.5t10 -3.5q27 0 54 80l-105 53zM442 625q0 -2 2 -2l18 15q19 15 36 15q28 1 53 -26q-8 74 -53 65q-43 -6 -47 -55q-8 -10 -9 -12zM483 424q47 -59 47 -121q0 -53 -38 -94q68 25 67 133q0 48 -14 107l-21 28zM514 1192 q0 -23 47 -23q49 0 49 23t-49 22q-47 0 -47 -22zM522 1120q0 -31 39 -30q39 -1 39 30q0 29 -39 29t-39 -29zM532 1051q0 -25 23 -25t23 25q0 23 -23 22q-23 0 -23 -22z" />
<glyph unicode="&#x205f;" horiz-adv-x="521" />
<glyph unicode="&#x2122;" horiz-adv-x="614" d="M29 1268q115 23 202 22q152 0 373 -86l-119 -1214l-393 -45q-25 215 -41 663q-10 330 -22 660zM66 1247q6 -315 10 -631q8 -438 24 -632l340 32l135 1164q-203 84 -350 84q-72 0 -159 -17zM92 940q0 76 25 94q43 33 106 41l15 -121q-12 25 -29 25q-31 0 -62 -84 q-23 -61 -41 -37q-14 20 -14 82zM94 565q0 109 58 137l20 3l2 -46q-18 -10 -31 -26q-35 -37 -37 -92q-2 -20 -4 -23q-8 0 -8 47zM109 274q0 297 71 322l31 2q12 0 22 -6q25 -12 35 -39q12 59 72 51q39 -6 76 -131t37 -242q-1 -42 -7 -75q-10 -41 -43 -41q-25 0 -91 30.5 t-97 30.5q-45 0 -63 -53q-8 -29 -17 -29q-27 0 -26 180zM127 805q0 31 20.5 54.5t51.5 23.5q39 0 59 -35q-2 6 -2 12q0 33 22.5 55.5t55.5 22.5q31 0 53.5 -22.5t22.5 -55.5q0 -31 -22.5 -53.5t-53.5 -22.5q-43 0 -66 35q2 -6 2 -14q0 -29 -20.5 -52.5t-50.5 -23.5 q-31 0 -51.5 23.5t-20.5 52.5zM143 805q0 -59 56 -60q55 1 55 60q0 61 -55 61t-56 -61zM145 383q-6 -109 2 -197q27 29 64 29q35 0 100 -30.5t88 -32.5q20 -4 21 88q0 104 -23 206q-27 117 -63 123q-18 2 -25.5 -24.5t-23.5 -147.5q-53 154 -76 166l-21 -2q-37 -18 -43 -178 zM158 805q0 47 41 47t41 -47q0 -45 -41 -45t-41 45zM174 797q0 -25 21 -25q20 0 20 25q0 27 -20 26q-20 0 -21 -26zM186 670l31 14q8 -14 16 -29q23 92 39 80q14 -14 31 -71l21 26l26 -22l-18 -33q-20 8 -72 -25q-6 12 -59 27zM268 1044q0 35 8 89l70 8q70 2 117 -115 q10 -23 10 -33q0 -8 -6 -8t-54 29.5t-75 29.5q-20 0 -36.5 -20t-20.5 -20q-12 0 -13 40zM272 860q0 -59 62 -59q59 0 59 59q0 61 -59 62q-61 0 -62 -62zM287 860q0 47 47 47q45 0 45 -47q0 -45 -45 -45q-47 0 -47 45zM313 850q0 -25 27 -25q25 0 25 25q0 27 -25 27 q-27 0 -27 -27zM346 684l4 59l23 2q100 -16 100 -170q0 -41 -6 -40q-4 3 -4 34q0 121 -117 115zM395 561l17 86l37 -41l4 -59l12 -31l-21 -98l-6 37zM414 745l10 64l78 -49l-25 -109l-6 31zM428 831l18 97l78 -29l-18 -119zM455 956l6 25h14l8 18l-12 37l2 23l64 -19 l-15 -108zM471 1098l16 86l72 -25l-12 -84z" />
<glyph unicode="&#x25fc;" horiz-adv-x="1382" d="M0 0v1382h1382v-1382h-1382z" />
</font>
</defs>
</svg>
