<?xml version="1.0" standalone="no"?>
<!DOCTYPE svg PUBLIC "-//W3C//DTD SVG 1.1//EN" "http://www.w3.org/Graphics/SVG/1.1/DTD/svg11.dtd" >
<svg xmlns="http://www.w3.org/2000/svg">
<metadata></metadata>
<defs>
<font id="miss_smarty_pantsmedium" horiz-adv-x="1024" >
<font-face units-per-em="2048" ascent="1638" descent="-410" />
<missing-glyph horiz-adv-x="614" />
<glyph horiz-adv-x="2048" />
<glyph horiz-adv-x="2048" />
<glyph unicode="&#xd;" horiz-adv-x="681" />
<glyph unicode=" "  horiz-adv-x="614" />
<glyph unicode="&#x09;" horiz-adv-x="614" />
<glyph unicode="&#xa0;" horiz-adv-x="614" />
<glyph unicode="!" horiz-adv-x="204" d="M63 1405q-2 23 10.5 41t32 21t36 -10.5t20.5 -33.5q14 -117 23.5 -229.5t9.5 -257.5v-215q0 -72 -6.5 -257t-6.5 -224q0 -23 -15 -38.5t-35.5 -15.5t-34 17.5t-13.5 40.5q0 39 6 224t6 255v209q0 143 -8 252.5t-25 220.5zM106 49.5q0 20.5 14.5 34.5t35 14t35 -14 t14.5 -34.5t-14.5 -35t-35 -14.5t-35 14.5t-14.5 35z" />
<glyph unicode="&#x22;" horiz-adv-x="397" d="M92 1346q0 20 14.5 34.5t35 14.5t34.5 -14.5t14 -34.5q0 -55 4.5 -167t4.5 -167q0 -20 -14.5 -34.5t-35 -14.5t-35 14t-14.5 35q0 55 -4 166.5t-4 167.5zM252 1329q-2 20 10 36.5t32.5 18.5t37 -10.5t18.5 -32.5q6 -49 10 -104l7 -121l6 -102q2 -20 -11.5 -35.5t-34 -18 t-36 11t-17.5 34.5q-2 37 -5 102.5t-7 119.5t-10 101z" />
<glyph unicode="#" horiz-adv-x="1433" d="M123 569q-2 20 11 36t33.5 18t36 -11.5t17.5 -33.5l2 -23q125 31 285 41q-2 49 -12 242l-2 61q-125 6 -267 23l-4 -11q-8 -20 -26.5 -27t-38 1t-26.5 26.5t1 36.5q10 29 19 43q2 4 2 6v15q0 29 2 53q2 20 16 33.5t34.5 12.5t34 -15.5t13.5 -34.5q-2 -23 -2 -43 q125 -14 235 -21q-4 160 -2 283h-16q-20 2 -34.5 17.5t-12.5 35t17.5 33.5t33.5 12l47 -4h10h2l43 15q18 6 37 -3.5t25 -29t-3 -38t-30 -24.5l-20 -6q-4 -127 4 -295q156 -6 295 6v88q4 186 4 213l-21 -2q-18 -2 -33.5 12.5t-17.5 34t12.5 35t34.5 17.5q68 4 117 6 q20 0 35.5 -13.5t15.5 -34t-12 -34.5t-33 -16q0 -29 -4 -220v-75q145 20 272 59l-10 27q-6 20 3 38.5t28.5 24.5t38 -3t24.5 -28q16 -51 33 -108q6 -20 -4 -37.5t-29 -24.5q-33 -10 -53 19q-139 -45 -301 -66q0 -35 4 -65q12 -125 37 -244q176 4 270 -12l-2 4 q-2 20 10.5 36.5t32 19.5t36 -9.5t20.5 -30.5l6 -45q4 -18 4 -24v-27v-43q0 -20 -14.5 -34.5t-35 -14.5t-34.5 14.5t-14 34.5v18q-90 16 -256 15q59 -238 163 -412l11 2q20 2 36.5 -10t18.5 -32.5t-10.5 -37t-32.5 -18.5q-14 -2 -25.5 -3t-13.5 -1h-8h-4q-2 -2 -5 -3t-16 -5 l-26 -11q-20 -6 -38 3.5t-25 29t2 36.5t28 26l8 2q-104 186 -166 432h-24q-4 0 -158 1t-154 -1q2 -63 2 -119q18 -2 31.5 -16.5t13.5 -32.5q0 -20 -14 -34.5t-35 -14.5q-59 0 -119 4q-20 2 -33.5 17.5t-11.5 35.5t17.5 33.5t36.5 11.5l16 -2q0 53 -2 113q-158 -10 -283 -43 q-2 -18 -16 -30.5t-33 -12.5q-20 0 -34.5 14t-14.5 35q0 47 -6 108zM592 895l2 -51q8 -190 10 -244q72 2 108 2t104.5 -1t103.5 -1h4q-23 117 -35 238l-4 63q-137 -10 -293 -6z" />
<glyph unicode="$" horiz-adv-x="1009" d="M90 220.5q6 19.5 25 29.5q27 14 85 43t87 45q18 10 37.5 4t30 -23.5t4 -37t-22.5 -29.5l-45 -25q20 -80 97 -127t177 -47q104 -2 178 42t88 118q18 92 -67 213q-51 70 -223 244t-232 270q-102 168 -65 324q31 127 143 170q98 37 215 -7q102 -39 178 -129t88 -213l37 9 q20 2 36.5 -10.5t20 -32t-9 -36t-30.5 -20.5q-68 -10 -179 -51q-18 -6 -36.5 2t-25.5 27.5t1 38t29 26.5l61 21q-4 98 -62.5 172t-141.5 104.5t-147.5 6t-82.5 -102.5q-27 -115 55 -248q53 -88 217 -252q178 -180 234 -256q111 -156 86 -290q-25 -117 -131.5 -178.5 t-233.5 -59.5q-123 0 -225 59.5t-139 169.5l-41 -20q-16 -10 -36 -4t-30 23.5t-4 37zM453 1604q-2 20 11 35.5t33.5 17.5t36 -11.5t17.5 -33.5l6 -68q2 -20 -11.5 -35.5t-33.5 -17.5t-35.5 11.5t-17.5 33.5zM549 -119q-2 18 11 34.5t32.5 19t36 -11.5t18.5 -34 q6 -70 12 -127q2 -20 -11 -35.5t-33.5 -17.5t-36 11.5t-17.5 33.5q-6 68 -12 127z" />
<glyph unicode="%" horiz-adv-x="1314" d="M100 158.5q0 19.5 15.5 34t35 14.5t33.5 -14l21 -23q164 293 367.5 572.5t482.5 617.5l-37 55q-12 18 -7 38t22.5 31t37 5.5t29.5 -21.5q57 -92 125 -147q14 -12 16 -32.5t-11 -36t-33.5 -17.5t-37.5 12q-20 18 -39 37q-281 -340 -484.5 -621.5t-363.5 -572.5l17 -22 q10 -16 7 -37t-19.5 -32t-37 -8t-30.5 19l-25 31q-10 16 -11 19t-9 10l-8 10l-17 14q-12 14 -25.5 29.5t-13.5 35zM219 1077q-2 63 33 130t96 106q16 10 35.5 5t32.5 -24q0 -2 2 -6q43 -18 69.5 -59t30.5 -88q8 -59 -18.5 -114.5t-87.5 -78.5q-86 -31 -142 13 q-51 39 -51 116zM317 1079q0 -31 12.5 -41t49.5 4q51 18 43 88q-8 64 -55 72q-51 -55 -50 -123zM745 162q-2 63 33 129.5t96 105.5q16 10 36 5t32 -23q0 -2 2 -6q43 -18 69.5 -59.5t30.5 -88.5q8 -59 -18.5 -114.5t-87.5 -77.5q-86 -31 -141 12q-51 39 -52 117zM844 164 q0 -31 12 -41t49 4q51 18 43 88q-8 64 -55 72q-51 -55 -49 -123z" />
<glyph unicode="&#x26;" horiz-adv-x="966" d="M63 788q2 47 21 111q37 133 111 256q88 143 188 197q135 70 252 -37q72 -66 90 -164l4 2q20 6 37.5 -4t24 -29.5t-4 -37t-28.5 -23.5q-59 -16 -135 -33q-18 -6 -36 5t-23 30.5t6.5 37t31.5 21.5l29 6q-14 70 -62 115q-66 61 -139 23q-78 -39 -151 -160 q-68 -113 -101 -232q-14 -51 -16 -88q0 -10 1 -18t1 -10v-2q10 -10 31 -11q31 2 77 23q29 12 58 29q29 14 59.5 33.5t38.5 25.5q6 4 17.5 10t26.5 15.5t24 15.5q20 12 28 16l8 4q10 4 19 3q23 0 37 -17q16 -20 10 -47l-12 -18l-4 -5l-7 -6q-66 -51 -151.5 -152.5 t-142.5 -205.5q-139 -254 6 -344q20 -12 86 -8q123 6 225 157q70 102 117 252q-39 -6 -74 -6q-20 0 -34.5 14.5t-14.5 35t14.5 34.5t34.5 14q35 0 67.5 6.5t85 20.5t76.5 19q18 6 36 -5.5t23 -31t-6.5 -37t-31.5 -21.5q-16 -4 -66 -18q-2 -2 -2 -4q-53 -193 -143 -328 q-131 -190 -303 -201q-96 -6 -144 25q-63 39 -93.5 97.5t-25.5 124t24.5 127t56.5 124.5q41 76 100 154q-53 -20 -96 -23q-72 -2 -113 49q-25 33 -23 94z" />
<glyph unicode="'" horiz-adv-x="204" d="M33 1511q0 20 14 35t34.5 15t35 -15t14.5 -35q0 -211 21 -333q2 -20 -9.5 -37t-32 -20t-37 8.5t-20.5 31.5q-20 131 -20 350z" />
<glyph unicode="(" horiz-adv-x="348" d="M79 976.5q30 280.5 111 526.5q6 18 24.5 27.5t38 3.5t29 -25t3.5 -39q-80 -233 -107.5 -503.5t8 -551t142.5 -487.5q10 -18 4 -37.5t-24.5 -28.5t-38 -3t-27.5 24q-115 221 -154 517t-9 576.5z" />
<glyph unicode=")" horiz-adv-x="354" d="M44 -104.5q-7 18.5 1 36.5q96 227 141 496.5t26 550.5t-112 494q-8 20 -1 38.5t26.5 26.5t38 1t26.5 -26q98 -229 120 -526t-26 -576.5t-149 -514.5q-8 -20 -26.5 -27.5t-38 0.5t-26.5 26.5z" />
<glyph unicode="*" horiz-adv-x="751" d="M87 1223.5q-3 19.5 8 37t30.5 20.5t38.5 -7l168 -115q-2 31 -10 90l-13 90q-2 20 10.5 37t33 19t37 -10.5t18.5 -32.5q2 -27 11 -93.5t13 -103.5q61 59 107 121q12 14 32.5 17t36 -9t18.5 -32.5t-10 -37.5q-55 -72 -131 -145q92 -47 183 -80q20 -8 28.5 -26.5t1 -38 t-26 -27.5t-36.5 -2q-96 37 -193 86q0 -129 -32 -229q-6 -18 -24.5 -27.5t-38 -3.5t-29 24.5t-3.5 38.5q25 74 29 164q-63 -51 -147 -110q-16 -10 -37 -7t-32 19t-8 36.5t19 33.5q104 72 178 133l-211 139q-16 12 -19 31.5z" />
<glyph unicode="+" horiz-adv-x="630" d="M68.5 669.5q5.5 20.5 21.5 32t37 5.5q78 -16 145 -19q-2 84 0 156q0 20 15.5 33.5t36 13.5t34 -15.5t13.5 -35.5q-2 -68 0 -148q66 8 137 33q20 6 38.5 -3t25 -28.5t-3 -38t-27.5 -24.5q-86 -29 -168 -37q2 -61 8 -166q2 -20 -12.5 -34.5t-35 -16.5t-34.5 12t-16 35 q-6 100 -9 166q-78 2 -168 22q-20 4 -31.5 20.5t-6 37z" />
<glyph unicode="," horiz-adv-x="260" d="M52 -108.5q1 20.5 16 34.5q47 43 57 70q10 31 -10 84q-6 20 3 37.5t28.5 25t37 -2t25.5 -27.5q29 -86 8 -148q-16 -51 -84 -112q-14 -12 -34.5 -12.5t-34 15t-12.5 36z" />
<glyph unicode="-" horiz-adv-x="542" d="M74 606.5q2 20.5 17.5 33.5t35.5 11q94 -8 346 11q20 2 35.5 -11.5t17.5 -34t-11 -36t-34 -17.5q-262 -18 -362 -10q-20 2 -33.5 17.5t-11.5 36z" />
<glyph unicode="." horiz-adv-x="204" d="M82 67.5q0 20.5 14.5 35t35 14.5t34.5 -14.5t14 -35t-14 -35t-34.5 -14.5t-35 14.5t-14.5 35z" />
<glyph unicode="/" horiz-adv-x="948" d="M42 20.5q-5 20.5 5 36.5l346 619q268 481 430 731q10 16 30.5 21.5t37 -6t22 -32t-7.5 -36.5q-162 -250 -427 -730.5t-345 -615.5q-10 -18 -30.5 -23t-38 5t-22.5 30.5z" />
<glyph unicode="0" horiz-adv-x="966" d="M72 770q18 276 123 465q125 223 321 229h6q16 2 29 -6q106 -66 184 -165t121 -210.5t62.5 -238.5t13.5 -246q-4 -119 -29 -233q-18 -90 -61 -168q-41 -78 -107.5 -143.5t-152.5 -86t-195 9.5q-176 57 -262 306q-72 213 -53 487zM170 762q-16 -254 49 -449 q68 -201 197 -241q141 -45 248.5 50t144.5 263q23 104 27 216t-13.5 224.5t-55.5 212t-102.5 186.5t-152.5 142q-137 -8 -231 -178q-92 -168 -111 -426z" />
<glyph unicode="1" horiz-adv-x="567" d="M99.5 1137.5q3.5 19.5 19.5 31.5l41 45l80 89q59 66 77 83q20 20 33 29q10 8 19 12q27 12 51 0q8 -4 14 -13t8 -13l2 -6q2 -8 5 -19q2 -14 4 -39q2 -39 2 -104q0 -96 -2 -170q-6 -209 -4 -488q4 -313 0 -487h30q20 0 34.5 -14.5t14.5 -35t-14 -34.5t-35 -14 q-139 0 -166 -2q-20 -2 -35.5 11t-17.5 33.5t11.5 36t34 17.5t44.5 2q4 147 1 488.5t3 490.5q2 70 2 166v51l-45 -47l-78 -88q-43 -47 -57 -57q-16 -12 -35.5 -9.5t-32 19t-9 36z" />
<glyph unicode="2" horiz-adv-x="880" d="M94 70l2 6q0 8 2 20q4 14 13 39q14 41 41 109q53 133 75 174q25 47 105 184q90 154 123 217q137 264 118 389q-12 84 -57 117q-39 27 -94 12q-53 -16 -98 -64t-62 -120l17 -2q20 -2 32.5 -18.5t10 -37t-18.5 -32.5t-37 -10q-47 6 -125 10q-20 2 -33.5 16.5t-12.5 35 t15.5 33.5t34.5 13h19q18 100 83.5 174t147.5 97q100 27 176 -27q82 -55 101 -184q23 -156 -131 -447q-41 -82 -123 -221q-84 -143 -105 -180q-18 -37 -71 -166q-25 -63 -37 -103l-2 -6q20 -2 51 -6q74 -6 192 -8q190 0 320 8q-2 18 -2 39t13.5 36t33.5 15t35.5 -13.5 t15.5 -33.5q2 -68 2 -121q0 -20 -14 -34.5t-35 -14.5q-31 0 -45 29q-135 -8 -324 -8q-123 2 -200 8q-47 4 -76 10q-43 10 -61 31q-6 8 -10.5 18t-4.5 17z" />
<glyph unicode="3" d="M51 337.5q-2 20.5 10.5 37t32.5 18.5q47 4 158 33q20 6 37.5 -5t22.5 -30.5t-6 -37t-30 -21.5l-47 -13q-4 -117 62 -186q70 -72 190 -80q123 -8 230.5 53.5t142.5 172.5q33 104 -8 219.5t-127 189.5q-70 57 -144 62q-8 2 -47 2q-18 0 -28 2q-16 6 -27 18q-14 16 -12 37 q2 18 14 33l6 6q4 2 6 2q2 2 5 2q2 2 4 2l12 4l35 12q49 20 67 31q201 115 160 281q-16 61 -66.5 102t-115.5 49q-61 8 -110.5 -19.5t-67.5 -86.5l59 -21q18 -6 27.5 -24.5t3.5 -38t-24.5 -28.5t-39.5 -3q-43 14 -174 66q-20 6 -28.5 24.5t-1 38t25.5 27.5t37 0l22 -8 q33 98 112 140t171 32q92 -12 168 -72q74 -61 96 -154q31 -121 -26 -217q-55 -96 -160 -164q53 -20 102 -63q109 -90 160 -233.5t8 -278.5q-47 -150 -185 -227.5t-288 -67.5q-160 10 -256 111q-86 92 -88 233l-25 -4q-20 -2 -36.5 10t-18.5 32.5z" />
<glyph unicode="4" d="M108.5 1396.5q-2.5 20.5 10 37t33.5 18.5l69 8q8 4 21 4q6 0 10 -2l72 8q20 2 35.5 -11t17.5 -33.5t-11.5 -36t-33.5 -17.5l-41 -4q6 -344 -33 -577q-6 -27 -14 -92.5t-15 -98.5q-2 -12 -10 -27q27 -4 66 -6q90 -6 231 -4q55 0 113 2q-20 455 2 830l-39 -6 q-20 -2 -35.5 10t-18.5 32.5t9.5 36t32.5 19.5q76 10 151 16q20 2 35.5 -11t17.5 -33.5t-11 -36t-34 -17.5h-10q-23 -377 -2 -838q96 4 147 11v16q0 20 14.5 34.5t35 14.5t35 -14.5t14.5 -34.5v-33v-14v-6v-4l6 -17q4 -12 9 -31.5t-5 -37t-29.5 -23.5t-37 4t-23.5 31l-6 16 q-55 -6 -156 -10q10 -190 29 -418v-6l43 4q20 2 36.5 -10t18.5 -32.5t-10 -37t-33 -18.5q-35 -4 -92 -6q-63 -4 -86 -6q-20 -2 -35.5 11t-17.5 33.5t11 36t34 17.5q14 2 33 2v4q-18 229 -29 424q-57 -2 -115 -2q-145 -2 -239 4q-53 2 -86 8q-18 4 -33 8q-25 8 -35 25 q-27 35 -4 82q2 6 5 11t4 7t1 4v2q8 35 16.5 99.5t12.5 91.5q39 221 33 551l-29 -4q-20 -2 -36.5 10t-19 32.5z" />
<glyph unicode="5" horiz-adv-x="1003" d="M43 434.5q0 20.5 14.5 34.5t34.5 14q55 0 117 6q20 2 35.5 -11t17.5 -33.5t-11 -36t-34 -17.5l-20 -2q14 -152 99 -242t198 -102q117 -12 220 63.5t142 237.5q20 78 16 202t-36 232q-78 254 -258 277q-31 4 -57.5 -6.5t-44 -24.5t-56.5 -51q-2 -2 -8 -10q-14 -23 -17 -25 q-14 -18 -28 -29q-33 -20 -66 -2q-51 25 -33 92l4 17q2 8 3 11t2.5 5t1.5 4q0 14 -1.5 41t-1.5 37q0 6 -1 24.5t-3 50.5t-4 54q-4 53 -4 82v31q0 8 2 14q0 12 6 21q10 23 37 28q10 4 27 4q23 2 63 2q63 0 181 -6q61 -2 163.5 -9t126.5 -7v8q0 20 14.5 34.5t35 14.5t35 -14 t14.5 -35q0 -84 6 -133q2 -20 -10.5 -36.5t-33 -18.5t-36.5 10t-18 33l-5 37q-27 2 -131 9t-168 9q-113 6 -174 6h-37q0 -27 5 -78q2 -20 4 -54t3 -53.5t1 -27.5q0 -2 2 -47q47 47 96 70.5t117 15.5q129 -16 213 -111.5t127 -234.5q37 -121 41 -257t-21 -230 q-47 -195 -179 -293.5t-288 -81.5q-152 18 -260 134t-125 304h-6q-20 0 -34.5 14.5t-14.5 35z" />
<glyph unicode="6" d="M61 700q8 190 65.5 364.5t152.5 274.5q98 104 202 119q100 14 183 -51q66 -53 103.5 -141.5t37.5 -182.5h10q20 0 35.5 -13t15.5 -33.5t-13 -36t-34 -15.5q-55 -2 -57 -2t-17 -4l-47 -10q-20 -2 -37.5 9t-20.5 30.5t8 37t30 21.5l29 4q2 78 -27 149.5t-78 108.5 q-49 39 -106 31q-72 -10 -148 -90q-78 -82 -129 -239t-58 -335t32.5 -325.5t123.5 -227.5q-16 340 175 531q45 45 110.5 74.5t130.5 31.5q76 2 135 -39q59 -39 82 -125q35 -129 -12 -276q-45 -145 -145 -248q-111 -113 -244 -129q-152 -18 -287 98q-111 94 -160 267 q-49 174 -41 372zM418 78q59 -25 121 -17q96 10 182 99q86 86 124 207.5t11 224.5q-27 92 -121 90q-45 -2 -93 -23.5t-81 -54.5q-176 -176 -141 -508q0 -8 -2 -18z" />
<glyph unicode="7" horiz-adv-x="847" d="M41 1397q-2 20 10 36.5t33 18.5q37 4 51 -31q33 0 90 2l144 7l133 4q125 4 188 4q43 0 66 -4q14 0 24 -4q10 -2 17 -7q18 -12 24 -30q6 -20 -2 -52l-16 -47q-16 -45 -51 -116l-93 -187q-66 -139 -118 -280q80 2 127 0q18 0 32.5 -15.5t14.5 -35t-15.5 -34t-35.5 -14.5 q-41 0 -158 2q-88 -270 -123 -534h43q20 0 34.5 -14.5t14.5 -35t-14.5 -34.5t-34.5 -14h-182q-20 0 -34.5 14t-14.5 34.5t14 35t35 14.5h41q33 264 118 534q-57 0 -104 4q-20 2 -33.5 17.5t-11.5 36t17.5 34t35.5 11.5q57 -4 129 -4q57 160 133 319l95 189q31 68 47 110l4 8 h-25q-63 0 -186 -4l-127 -4q-80 -4 -138.5 -6t-93.5 -2v-27q0 -20 -14 -34.5t-34.5 -14.5t-35 14.5t-14.5 34.5q0 55 -6 101z" />
<glyph unicode="8" horiz-adv-x="751" d="M63.5 335.5q-0.5 106.5 30.5 194.5t90 191q41 70 105 168l-13 8q-41 33 -77 98q-39 68 -43 119q-6 90 41 172t125 125q84 47 167 25q94 -23 152 -123q10 -18 5 -38t-23.5 -30t-38 -4.5t-29.5 23.5q-37 63 -90 77q-45 12 -96 -16q-53 -29 -86 -86t-29 -117q2 -31 29.5 -79 t54.5 -68l6 -4l10 16q100 150 133 225q8 20 26.5 27.5t38 -0.5t27 -26.5t-0.5 -36.5q-35 -86 -142 -244l-10 -17q53 -33 84 -61q147 -137 209 -330q74 -227 -33 -393q-47 -74 -135 -121q-86 -47 -174 -39q-172 14 -260 166q-53 92 -53.5 198.5zM162 338q0 -82 41 -152 q61 -106 182 -116q59 -6 123 28q63 33 96 86q80 127 23 310q-53 170 -183 286q-24 25 -73 54q-63 -94 -101 -162q-55 -94 -82.5 -173t-25.5 -161z" />
<glyph unicode="9" horiz-adv-x="962" d="M63 825q-31 129 23.5 273.5t159.5 242.5q117 109 250 117q152 12 280 -110q111 -100 151 -291t15.5 -402t-106.5 -387t-211 -252q-104 -55 -189.5 -40.5t-148.5 81.5q-53 57 -80 137t-21 162q-41 8 -77 21q-20 6 -29.5 24.5t-3.5 38t24.5 28.5t36.5 3q80 -25 201 -39 q20 -2 32.5 -18.5t10.5 -37t-18.5 -32.5t-36.5 -10q-23 4 -41 6q-4 -131 73 -215q90 -96 217 -23q102 59 174 214t95 350q23 193 -11 357.5t-118 248.5q-4 -199 -45 -299q-27 -70 -78 -140.5t-115 -119.5q-49 -37 -100 -54.5t-112.5 -10.5t-117.5 50q-29 20 -53 57.5 t-31 69.5zM158 846q4 -14 19.5 -37t27.5 -33q98 -72 213 15q51 39 94 99t68 120q10 29 17 56.5t11 65t5 56t3 71t2 66.5q1 6 3 14q-57 27 -119 23q-98 -8 -189 -92q-90 -82 -134 -202t-21 -222z" />
<glyph unicode=":" horiz-adv-x="262" d="M94 192.5q0 20.5 14.5 35t35 14.5t35 -14.5t14.5 -35t-14.5 -35t-35 -14.5t-35 14.5t-14.5 35zM106 868.5q0 20.5 14.5 35t35 14.5t35 -14.5t14.5 -35t-14.5 -35t-35 -14.5t-35 14.5t-14.5 35z" />
<glyph unicode=";" horiz-adv-x="243" d="M19.5 -106.5q3.5 20.5 19.5 30.5q43 31 55 51q14 23 19 68q2 20 17 33.5t35.5 11.5t34 -17.5t11.5 -35.5q-6 -70 -35 -113q-23 -35 -80 -76q-16 -12 -36.5 -9t-32 19.5t-8 37zM94 868.5q0 20.5 14.5 35t35 14.5t35 -14.5t14.5 -35t-14.5 -35t-35 -14.5t-35 14.5t-14.5 35 z" />
<glyph unicode="&#x3c;" horiz-adv-x="819" d="M55 580q0 10 1 19t5 13l2 6q2 4 9 9q4 6 12 14l43 37l129 102q188 143 287 203q18 12 37.5 7t31 -22.5t6 -37t-21.5 -29.5q-102 -63 -281 -201l-127 -98l-20 -18q18 -14 47 -33q59 -37 170 -90q156 -74 320 -137q18 -6 26 -24.5t1 -38t-25.5 -28t-38.5 -0.5 q-172 66 -324 138q-115 55 -182 98q-41 25 -66 47q-35 33 -41 64z" />
<glyph unicode="=" horiz-adv-x="817" d="M84 521.5q-2 19.5 11.5 35.5t31.5 18q303 33 584 7q20 -2 33.5 -17.5t11.5 -36t-17.5 -34t-36.5 -11.5q-262 25 -563 -6q-20 -2 -36.5 11.5t-18.5 33zM94 743.5q2 20.5 17.5 33.5t35.5 11q227 -18 574 46q18 2 35.5 -9.5t20.5 -31t-8 -37t-32 -21.5q-358 -63 -598 -45 q-20 2 -33.5 17.5t-11.5 36z" />
<glyph unicode="&#x3e;" horiz-adv-x="759" d="M99.5 958.5q-7.5 18.5 2 37t27.5 25.5t37 -1q137 -66 311 -172q106 -68 170 -117q39 -31 60 -53q33 -37 34 -68q2 -18 -10 -35q-4 -6 -10 -10q-6 -8 -16 -16q-18 -14 -54 -35q-53 -35 -157 -96q-221 -131 -281 -160q-18 -8 -36.5 -1t-28 25.5t-2 37t25.5 28.5 q66 31 272 154l154 94l31 20q-14 16 -43 39q-57 45 -160 109q-170 104 -301 166q-18 10 -25.5 28.5z" />
<glyph unicode="?" horiz-adv-x="878" d="M69.5 1063.5q-6.5 19.5 4 37t30 23.5t37.5 -4q43 72 123 139.5t168 106.5q119 53 215 37q121 -18 182 -133q98 -182 -102 -402q-29 -31 -156 -151q-86 -80 -110 -123q-61 -102 -41 -301q20 2 39 4q20 2 35.5 -11.5t17.5 -34t-11.5 -35.5t-33.5 -17q-74 -6 -176 -27 q-20 -2 -37.5 9.5t-21 30.5t8 36.5t29.5 21.5q29 4 54 9q-27 236 51 364q35 55 129 145q125 117 151 148q51 53 77 98t32 95.5t-21 95.5q-39 72 -110 82q-70 10 -160 -31q-78 -35 -147 -94q-68 -60 -103 -117l27 -21q16 -14 18 -33.5t-11 -36t-32.5 -18.5t-36.5 11l-36 30 q-10 8 -12.5 10.5t-47.5 26.5q-16 10 -22.5 29.5zM340 69.5q0 20.5 14.5 35t35 14.5t34.5 -14.5t14 -35t-14 -35t-34.5 -14.5t-35 14.5t-14.5 35z" />
<glyph unicode="@" horiz-adv-x="1583" d="M85 378.5q-40 151.5 17 352.5q49 154 172 313q121 160 271 254q174 111 338 99q190 -14 329 -193q43 -55 74 -133t41 -149q14 -109 -24 -240q-51 -170 -166 -197q-68 -16 -128.5 23t-88.5 100l-2 -4q-59 -125 -158 -190q-39 -27 -79 -38t-88 0t-89 48q-123 113 -74 305 q41 156 166 279q137 133 254 100q139 -37 139 -289q0 -16 -10 -31q0 -2 2 -18q2 -55 23 -108q12 -39 46.5 -64t65.5 -18q57 14 92 131q33 111 21 198q-8 59 -35 125t-59 109q-113 145 -261 155q-129 10 -276 -81q-135 -86 -246.5 -231.5t-154.5 -283.5q-37 -113 -30 -209 t42 -167q37 -72 102 -127q96 -82 240 -117q141 -33 303 -6q242 39 528 405q-14 25 -24 45q-10 18 -4 38t24.5 29t38 2.5t27.5 -24.5q12 -23 25.5 -43t37 -53t33.5 -45q10 -16 7 -36.5t-19.5 -32t-37 -8.5t-32.5 20l-16 24q-299 -375 -572 -420q-180 -29 -344 9.5t-280 136.5 q-121 104 -161 255.5zM526 705q-35 -135 43 -207q59 -55 136 -2q76 51 122 149q18 37 31 90v4l-2 6v19q-2 52 35 72q-4 162 -68 178q-61 16 -159 -78q-104 -102 -138 -231z" />
<glyph unicode="A" horiz-adv-x="1552" d="M96 30.5q0 20.5 14.5 35t34.5 14.5h101l110 301l-106 -19v-4q0 -20 -14.5 -34.5t-35 -14.5t-34.5 14.5t-14 34.5q0 51 -5 129q0 20 13.5 35t34 16t35 -12.5t16.5 -33.5l2 -31l145 24l191 592l63 185q25 76 43 118q10 27 17 41q4 8 8 15l8 12q16 15 36 15q4 0 9 -1 q23 -4 37 -24q6 -8 12 -21q8 -18 19 -49q14 -47 34 -129q10 -43 20.5 -91t19 -82t8.5 -38q43 -176 74.5 -288.5t86 -264t127 -273.5t162.5 -218l74 51q16 10 36 7q18 -2 30 -20q9 -13 9 -29q-1 -5 -1 -9q-4 -20 -21 -31q-27 -18 -195 -148q-13 -10 -28 -10q-4 0 -8 1 q-20 3 -32.5 18.5t-9.5 36t17 32.5l51 39q-184 199 -307 529q-205 -2 -516 -54q-59 -170 -117 -317h51q20 0 35 -14.5t15 -35t-14.5 -34.5t-35.5 -14h-120h-2h-3h-131q-20 0 -34.5 14t-14.5 34.5zM502 504q260 39 446 45q-55 162 -125 455q-2 6 -9 39.5t-19 82.5l-21 88 q-8 39 -16 68l-19 -53q-53 -156 -61 -180z" />
<glyph unicode="B" horiz-adv-x="1120" d="M43 98v6q0 17 10 31q55 68 82 148q8 18 25.5 27t37 2t29 -24.5t2.5 -37.5q-14 -39 -32 -74q53 -39 125 -57q6 35 6 72.5t-1 93t-1 80.5q0 475 -64 856q-25 -12 -37 -25q-16 -14 -36.5 -12t-34 17.5t-11.5 35.5t17 33q31 27 84 53l-13 61q-6 20 5.5 37t31.5 22q6 2 13 2 q13 -1 25 -9q16 -12 20 -31l8 -39q74 29 143 45q64 13 117 13q39 0 72 -7q106 -20 141 -108q14 -34 14 -69q0 -84 -78 -177q-41 -49 -112 -107q28 3 56 3q192 0 325 -154q88 -102 88 -265v-14q-4 -154 -115 -276.5t-272 -186.5q-124 -54 -271 -54h-25q-161 5 -272 83 l-14 -18q-12 -16 -32.5 -18.5t-37 10t-18.5 32.5zM354 1268q31 -178 47 -371l113 90q115 92 154 139q55 65 55 115q0 16 -6 31q-16 39 -72 49q-23 5 -51 5q-42 0 -96 -11q-70 -16 -144 -47zM412 778q12 -197 12 -413q0 -18 1 -76v-54v-46q-1 -42 -5 -83h9q122 0 247 50 q141 55 231 155q92 100 94 219v8q0 126 -63 201q-103 121 -253 121q-43 0 -91 -10q-68 -14 -137 -49q-20 -8 -43 -23h-2z" />
<glyph unicode="C" d="M60 365q-12 75 -12 157q0 188 63 410q39 129 117.5 267t160.5 206q51 41 100 49q11 2 22 2q49 0 89 -37q80 -74 100 -317q33 2 60 2q20 0 34.5 -14.5t14.5 -35t-14.5 -34.5t-34.5 -14q-4 0 -193 -11q-20 -2 -34.5 12.5t-16.5 35t12.5 35t34.5 16.5q16 0 39 2 q-16 203 -70 252q-12 12 -26 10q-23 -4 -53 -29q-70 -57 -141.5 -182t-106.5 -244q-60 -197 -59 -372q0 -169 41 -277q42 -108 112 -158q45 -33 96 -33q61 0 129 48q154 109 285 413q-35 23 -64 45q-16 14 -18 34t11.5 36t33 18t35.5 -10q55 -45 186 -121q17 -10 23 -30 q2 -7 2 -13q0 -13 -6 -25q-10 -18 -29.5 -23t-38.5 5l-51 31q-139 -319 -313 -440q-86 -61 -176 -65h-11q-83 0 -151 50q-142 100 -182 349z" />
<glyph unicode="D" horiz-adv-x="1042" d="M63 1214.5q0 20.5 15 34.5q51 51 75.5 92t57.5 121q5 18 25 26q11 5 22 5q8 0 16 -3q18 -7 26.5 -26.5t0.5 -38.5l-8 -22q18 6 59 20q86 28 173 28q16 0 32 -1q104 -6 193.5 -41t160.5 -111q72 -78 111 -186q37 -102 38 -204q0 -27 -4 -54q-12 -129 -60 -238.5 t-134 -212.5q-111 -135 -265 -240.5t-314 -162.5q14 -25 26 -49q8 -18 1 -37q-8 -20 -26 -28q-10 -5 -20 -5t-18 3q-20 7 -27 26q-12 29 -29.5 54.5t-50.5 65.5t-45 58q-12 14 -9 34.5t18.5 33t36 9.5t32.5 -20l2 -2q1 283 1 495q0 425 -3 568l-25 -26q-14 -14 -34.5 -14.5 t-35 14t-14.5 35zM270 1262q3 -141 3 -610q0 -234 -1 -550q143 53 279 148q137 96 235 215q175 212 175 427q0 93 -33 187q-59 171 -213 237q-85 36 -178 37q-75 0 -156 -24q-61 -18 -80 -33q-16 -10 -31 -34z" />
<glyph unicode="E" horiz-adv-x="903" d="M80 662q16 436 53 665q-2 2 -2 4q-2 20 10.5 35.5t32.5 19.5q51 6 199 35q131 25 196 31l-4 27q-2 20 10.5 36.5t32.5 18.5h6q18 0 32 -10q16 -12 18 -33l16 -133q2 -20 -10.5 -36.5t-33 -19t-36.5 10t-18 33.5v10q-61 -6 -191 -31q-125 -25 -164 -31q-35 -242 -49 -637 q49 8 101.5 22.5t124 37t104.5 31.5q-2 4 -2 18v20q0 20 13 36t33.5 16t36 -13.5t15.5 -33.5v-23q0 -10 1 -14t1 -9v-4v-2q0 -2 4 -14l15 -45q6 -20 -4.5 -37.5t-30 -24t-36.5 4t-24 28.5v2q-23 -6 -105.5 -31.5t-138 -41t-110.5 -23.5q-1 -57 -2 -109q0 -102 6 -180 q4 -84 17 -133q8 -43 16 -49q23 -22 85 -22h8q68 2 167 26q150 35 281 96l-6 21q-6 18 3 36.5t28.5 24.5t38 -3t24.5 -29q20 -66 47 -123q4 -10 4 -20q0 -9 -3 -18q-7 -20 -25.5 -28t-38 -1t-27.5 26l-11 22q-137 -63 -292 -100q-111 -27 -189 -27h-9q-100 0 -151 45 q-31 27 -47 103q-12 57 -18 147q-6 87 -6 200q0 92 4 200z" />
<glyph unicode="F" horiz-adv-x="679" d="M24 -12q-2 7 -2 12q0 12 8 24q12 16 31 21l48 10q0 131 9 587q5 274 5 471q0 132 -2 230q-2 39 37 50q6 4 14 4q66 6 197 28q133 23 196 27l-4 27q-2 20 10.5 36.5t32.5 18.5h6q17 0 31 -10q16 -12 18 -33l17 -133v-5q0 -17 -10 -31q-12 -16 -33 -19t-37 9.5t-18 33.5v10 q-51 -4 -191 -29q-109 -18 -166 -24q1 -79 1 -177q0 -195 -5 -462q45 10 94 23t115 34l96 31v22q0 20 13.5 35.5t34 15.5t36 -13t15.5 -34v-22q0 -10 1 -14.5t1 -8.5v-4v-2q0 -2 4 -14l14 -45q6 -20 -4 -38t-29.5 -24t-37 4.5t-23.5 28.5l-4 14q-18 -4 -96 -28.5t-129.5 -38 t-102.5 -23.5q-8 -330 -8 -491q37 4 74 4q20 0 34.5 -14.5t14.5 -35t-14.5 -35t-34.5 -14.5q-74 0 -199 -26q-7 -2 -14 -2q-12 0 -22 7q-16 12 -22 32z" />
<glyph unicode="G" horiz-adv-x="942" d="M20 586q-2 31 -2 62q0 126 27 251q31 156 94 270q113 205 252 263q55 23 112 23q109 0 224 -83q18 23 39 43q14 14 34.5 14.5t35 -14t14.5 -35t-14 -34.5q-43 -43 -109 -146q-10 -16 -30.5 -21t-37 6t-21.5 31.5t7 36.5l25 39q-88 64 -167 64q-39 0 -75 -15 q-106 -45 -203 -221q-55 -100 -86 -243q-23 -114 -23 -230q0 -29 1 -57q8 -154 57 -279t139 -196q75 -61 149 -61l81 18q102 45 188 190q78 137 98 279q5 36 5 63q0 69 -29 88q-10 8 -41 6q-35 -2 -88 -18q-35 -10 -94 -33l-64 -24l12 -56q2 -20 -9 -37.5t-30.5 -20.5t-37 8 t-21.5 30q-25 127 -47 176q-8 18 -1 37.5t25.5 28t38 1t27.5 -25.5q10 -25 19 -45l53 20q59 23 102 35q61 18 109 23q9 1 17 1q54 0 87 -24q69 -50 69 -174q0 -34 -5 -74q-20 -160 -111 -313q-100 -172 -233 -231q-61 -27 -122 -27q-105 0 -208 82q-111 90 -168 234.5 t-64 314.5z" />
<glyph unicode="H" horiz-adv-x="1146" d="M18 711v5q0 16 12 30q14 16 34 18t35.5 -11.5t17.5 -33.5q6 -63 6 -66q82 16 168 29q10 204 10 373t-10 303l-62 4q-20 2 -33.5 17.5t-11.5 36t17.5 33.5t36.5 11q45 -4 90 -4q73 0 147 10q20 2 36.5 -10t18.5 -32.5t-10 -37t-33 -18.5q-49 -6 -98 -8q10 -134 10 -300 t-10 -364q219 25 477 27q-16 213 -16 637q-18 -1 -37 -1t-39 1q-20 0 -33.5 15.5t-13.5 36t15.5 33.5t35.5 13q23 -1 46 -1q90 0 163 13h6q17 0 31 -9q16 -11 19.5 -31.5t-8 -37t-31.5 -20.5q-29 -4 -56 -6q0 -248 4 -388t20.5 -329.5t53.5 -358.5t100 -353l50 20q18 8 38 0 q19 -9 26 -27q3 -9 3 -17q0 -11 -4 -21q-8 -20 -27 -25q-113 -45 -178 -88q-11 -8 -25 -8q-5 0 -11 1q-20 5 -32 21.5t-6.5 36.5t21.5 31q27 18 55 33q-123 360 -162 731q-266 -2 -489 -29q-29 -516 -31 -580l33 -4q20 -4 31.5 -20.5t8.5 -37t-19.5 -31.5t-36.5 -9 q-96 17 -150 17q-11 0 -20 -1q-20 -2 -35.5 11.5t-18 34t11 36t34.5 17.5q31 2 63 0q4 90 29 555q-94 -14 -185 -35q-8 -2 -14 -4q-20 -2 -36.5 11.5t-18.5 31.5z" />
<glyph unicode="I" horiz-adv-x="968" d="M43 1413q0 20 13.5 35.5t34 15.5t35.5 -13t15 -34l2 -41q178 2 627 49l-4 39q-2 20 11.5 36t33.5 18h5q16 0 30 -12q16 -14 18 -33q6 -70 13 -119q2 -20 -10.5 -37t-32.5 -19h-8q-31 0 -44 29q-238 -25 -282 -29q14 -201 37.5 -600t37.5 -598q2 0 293 31l-4 33 q-2 20 11.5 35.5t34 17.5t36 -11.5t17.5 -33.5q8 -86 12 -117v-5q-1 -18 -11 -32q-12 -16 -32 -18h-7q-33 0 -46 33q-475 -49 -650 -51q-6 -37 -43 -41h-6q-16 0 -30 10q-16 12 -19 33q-6 51 -16 114q-2 20 9 37t31.5 20t37 -8.5t20.5 -31.5l4 -35q119 2 260 12 q-14 201 -37.5 600.5t-38.5 597.5q-139 -10 -258 -12q-6 -37 -45 -39q-20 0 -35.5 13.5t-15.5 33.5q-2 57 -4 127z" />
<glyph unicode="J" horiz-adv-x="1058" d="M62 297q0 92 63 192q51 80 203 173l-29 47q-10 18 -5 37.5t23.5 29.5t38 5t29.5 -23q27 -47 121 -166q12 -16 10 -36.5t-18.5 -33t-37 -10.5t-32.5 18l-41 54l-4 -4q-135 -82 -176 -144q-48 -74 -48 -142q0 -62 40 -120q37 -55 104.5 -90t147.5 -39q13 -1 25 -1 q179 0 278 134q96 127 114 363q4 54 4 109q0 157 -34 317q-45 221 -123 348l-260 -66l8 -24q8 -20 0 -39t-27.5 -26t-38 1t-24.5 27q-25 61 -45 123q-6 20 3 38.5t28.5 24.5t38 -3t24.5 -28v-2q18 6 86 23l92 22q27 6 84 23l92 25q33 8 81 22t89 28.5t82 31.5 q-10 16 -5 34.5t21 28.5q13 8 28 8q4 0 8 -1q20 -3 32 -21l72 -103q10 -13 10 -28q0 -4 -1 -8q-3 -19 -19.5 -31.5t-36 -9t-31.5 19.5l-21 27q-121 -47 -272 -91q80 -145 125 -371q33 -168 33 -325q0 -55 -4 -110q-20 -264 -133 -416q-132 -173 -362 -173q-13 0 -26 1 q-102 4 -190 49q-86 47 -139 123q-55 82 -55 178z" />
<glyph unicode="K" horiz-adv-x="1284" d="M33 1356q-2 7 -2 15q0 13 6 23q10 18 29 23q16 4 32 13l31 12q12 4 31 16l28 17l35 18q25 14 33 20q11 7 23 7q5 0 13 -2q20 -5 31 -22t6 -37.5t-24 -31.5l-37 -20q45 -315 68 -649q51 86 137 196q164 209 336 375l-21 29q-12 16 -9 36.5t19.5 32t37 8t30.5 -19.5 q18 -23 109 -160q10 -16 7 -35.5t-20.5 -30.5t-37 -8t-31.5 21l-29 43q-166 -164 -313 -352q-104 -133 -156 -229q-42 -79 -42 -121q0 -11 3 -19q10 -35 64 -73q51 -39 135 -76q145 -68 270 -90q79 -16 164 -16q96 0 199 20l12 47q6 18 23.5 28.5t37 4t29.5 -23.5 q6 -11 6 -23q0 -7 -2 -15q-31 -111 -39 -172q-2 -20 -18 -32.5t-36.5 -10.5t-33 18.5t-10.5 36.5q2 18 6 37q-91 -14 -177 -14q-92 0 -177 16q-137 27 -295 99q-92 43 -154 88l-6 4q6 -166 6 -336q12 0 89 6q20 2 35.5 -11t17.5 -33.5t-11.5 -36t-33.5 -17.5 q-150 -12 -207 -23h-5q-15 0 -31 10q-18 12 -21 31t8.5 36t31.5 22l29 4q0 700 -86 1327q-41 -20 -82 -33q-20 -6 -37.5 3.5t-23.5 29.5z" />
<glyph unicode="L" horiz-adv-x="884" d="M35 1417.5q0 20.5 15.5 33.5t35.5 13q59 -2 178 -2q20 0 34.5 -14t14.5 -34.5t-14 -35t-35 -14.5h-18h-21q-61 -334 -61 -928q0 -121 6 -198q6 -66 16 -107q10 -39 19 -47q24 -22 88 -22h5q68 1 167 26q156 37 287 100l-15 45q-6 18 3.5 37t28.5 25t37.5 -3t24.5 -30 q20 -66 48 -123q4 -9 4 -19q1 -8 -3 -18q-8 -20 -26 -28t-36.5 -1t-26.5 23q-139 -66 -304 -104q-111 -27 -188 -27h-9q-100 0 -151 45q-31 29 -49 99q-10 49 -18 120q-6 82 -6 207q0 586 61 928q-25 2 -45.5 2t-33.5 15.5t-13 36z" />
<glyph unicode="M" horiz-adv-x="1433" d="M26 -36q-1 4 -1 8q0 15 9 28q11 16 32 20l55 9v4q0 227 10 675.5t10 667.5h-51q-20 0 -34.5 14.5t-14.5 35t14.5 35t34.5 14.5q106 0 189 8h5q16 1 30 -11q16 -14 18 -34.5t-11.5 -36t-33.5 -17.5l-47 -4q0 -158 -4 -360l28 47q63 92 133 121q29 12 58 12q64 0 125 -57 q82 -78 122 -236q39 213 160 373q78 106 170 145q47 19 90 19q78 0 148 -60q90 -80 106 -303q4 -55 4 -123q0 -135 -16 -317q-12 -115 -55 -455q-29 -209 -33 -297q33 4 67 7q20 0 36 -13.5t16 -34t-13.5 -36t-33.5 -15.5q-92 -2 -197 -43q-10 -4 -19.5 -4t-19.5 4 q-18 8 -25.5 27.5t1 38t26.5 24.5q35 14 64 23q2 90 32 332q43 338 56 452q16 174 16 301q0 66 -4 121q-12 183 -74 237q-40 35 -84 35q-24 0 -49 -10q-68 -29 -131 -112q-129 -176 -158 -449q-6 -47 -12 -147.5t-15.5 -185.5t-27.5 -160q0 -6 -1 -9.5t-3 -7.5 q-6 -12 -16 -18q-16 -12 -37 -8q-18 2 -31 16q-6 10 -10 20v13v28q0 10 2 35t2 33q0 16 6 78q2 45 2 74q-2 174 -23 290q-31 176 -104 244q-32 31 -62 31q-10 0 -20 -4q-41 -16 -86 -84q-78 -117 -115 -269q0 -4 -2 -8q-10 -469 -10 -694q23 2 45 2q20 0 34.5 -14.5 t14.5 -35t-14 -34.5t-35 -14q-51 0 -182 -23q-20 -2 -36.5 10t-19.5 32z" />
<glyph unicode="N" horiz-adv-x="966" d="M20 1462q14 14 35 13q13 -1 28 -1q72 0 171 17h6q16 1 30 -9q16 -12 19.5 -32t-7.5 -36.5t-32 -20.5l-32 -4q0 -137 -2 -302q35 78 75 144q160 263 341 263q25 0 50 -5q117 -25 175 -152q25 -53 38 -129q14 -74 19 -112l8 -123q4 -125 4 -191.5t-2 -204t-2 -208.5 q0 -344 57 -531q41 14 95 31q18 6 36 -3q19 -8 25 -28q2 -8 2 -16q0 -10 -5 -22q-9 -18 -30 -25q-156 -47 -260 -103q-11 -6 -23 -6q-7 0 -15 2q-20 6 -29 24.5t-2.5 38t24.5 27.5q45 25 90 43q-63 205 -63 568q0 72 2 206l2 203v36q0 60 -4 151q-4 82 -8 120 q-4 41 -16.5 103.5t-33.5 107.5q-37 82 -104 95q-16 4 -32 4q-124 0 -257 -215q-57 -96 -101 -208t-63 -198q-12 -504 -12 -721h25q20 0 34.5 -14t14.5 -34.5t-14.5 -35t-34.5 -14.5q-66 0 -142 -4q-20 -2 -34.5 12t-16.5 34.5t12.5 35t34.5 16.5l23 2q0 219 12 713 q-4 10 -2 20l2 2q8 375 8 590q-22 -1 -44.5 -1t-43.5 1q-19 2 -33 16q-13 14 -13 33q-1 23 15 37z" />
<glyph unicode="O" horiz-adv-x="948" d="M72 770q18 276 123 465q125 223 321 229h6h6q12 0 23 -6q106 -66 184 -165t121 -211q42 -111 62 -238q15 -97 16 -190q0 -28 -2 -56q-4 -119 -29 -233q-18 -90 -61 -168q-41 -78 -107.5 -143.5t-152.5 -85.5q-35 -8 -74 -9q-57 0 -121 18q-176 57 -262 306 q-57 169 -57 375q0 55 4 112zM170 762q-3 -50 -3 -98q0 -194 52 -351q68 -201 197 -241q45 -14 87 -15q87 0 161 65q108 95 145 263q23 104 27 216q1 21 1 42q-1 91 -15 183q-18 112 -55.5 211.5t-102 186.5t-152.5 142q-137 -8 -231 -178q-92 -168 -111 -426z" />
<glyph unicode="P" horiz-adv-x="841" d="M23 1313q70 70 219 120t290 52h9q161 0 250 -68q82 -64 82 -173q0 -40 -11 -87q-37 -164 -272 -375q-150 -133 -314 -233q2 -336 7 -514l79 -4q20 -2 34 -17.5t12 -35.5t-18 -34q-14 -12 -31 -12h-5q-40 3 -96 3t-127 -3q-20 0 -35.5 13.5t-15.5 34t13 36t34 15.5 q33 2 57 2q-4 174 -6 477q-18 6 -28.5 23.5t-4 37t24.5 29.5l6 4q-4 449 -10 690q-47 -25 -74 -51q-14 -14 -34 -14q-22 0 -36 14t-14 34q0 21 15 36zM264 1331q6 -248 10 -667q135 88 250 192q211 186 244 322q7 32 7 59q1 68 -45 103q-60 46 -180 46h-15q-134 -2 -271 -49 v-6z" />
<glyph unicode="Q" horiz-adv-x="1116" d="M72 770q18 276 123 465q125 223 321 229h6h6q13 0 23 -6q106 -66 184 -165t121 -210.5t62 -238.5q15 -97 15 -190q0 -28 -1 -56q-4 -121 -29 -233q-27 -123 -94 -224q125 -106 262 -125l16 52q6 18 24.5 27t38 3t28.5 -24q6 -12 6 -24q0 -7 -2 -15q-51 -154 -62 -191 q-4 -20 -22 -32q-11 -7 -24 -7q-6 0 -12 1q-20 6 -31 23t-5 36q6 27 14 57q-156 25 -292 144q-110 -108 -244 -108q-56 0 -117 19q-176 57 -262 306q-57 169 -57 375q0 55 4 112zM170 762q-3 -50 -3 -98q0 -195 52 -351q68 -201 197 -241q45 -14 86 -14q94 0 174 73 q-42 43 -101 113q-20 -14 -43 -27q-18 -10 -37.5 -4t-29.5 23.5t-4 37t22 29.5q78 43 148 103q16 14 36.5 12t34 -17.5t11.5 -36t-17 -32.5l-41 -33l82 -90q49 78 72 176q23 104 27 216q1 21 1 42q0 91 -15 183q-17 112 -55 211.5t-102.5 186.5t-152.5 142 q-137 -8 -231 -178q-92 -168 -111 -426z" />
<glyph unicode="R" horiz-adv-x="1204" d="M27 1277.5q0 20.5 14 35.5q70 70 219.5 120t290.5 52h9q161 0 249 -68q83 -65 83 -174q0 -40 -11 -86q-37 -164 -273 -375q-127 -113 -266 -204q121 -203 336 -344.5t434 -151.5v18q0 20 13.5 36t34 16t34.5 -14t16 -34l13 -144q-1 -16 -11 -30q-12 -16 -32 -19 q-4 -1 -7 -1q-15 0 -29 10q-16 12 -20 33l-4 31q-233 6 -458.5 143t-366.5 342q2 -266 6 -434l80 -4q20 -2 33.5 -17.5t11.5 -36t-17.5 -34t-35.5 -11.5q-40 3 -95.5 3t-127.5 -3q-20 0 -36 13.5t-16 34t13.5 36t33.5 15.5q33 2 58 2q-4 174 -6 477q-18 6 -28.5 23.5 t-4.5 37t24 29.5l7 4q-4 449 -11 690q-47 -25 -73 -51q-14 -14 -35 -14t-35 14t-14 34.5zM283 1331q6 -248 10 -667q135 88 250 192q211 186 243 322q7 32 7 59q1 68 -45 103q-60 46 -180 46h-15q-133 -2 -270 -49v-6z" />
<glyph unicode="S" horiz-adv-x="907" d="M47 220q6 20 25 30q27 14 85 43t87 45q18 10 37.5 4t30 -23.5t4 -37t-22.5 -29.5l-45 -25q20 -80 97 -127t177 -47h9q98 0 169 42q74 44 88 118q3 16 3 33q0 80 -70 180q-51 70 -223 244t-232 270q-75 123 -75 240q0 42 10 84q31 127 143 170q45 17 93 16q58 0 122 -23 q102 -39 178 -129t88 -213l37 9q20 2 36 -10t20 -32q1 -4 1 -9q1 -15 -9 -27q-12 -16 -31 -21q-68 -10 -179 -51q-18 -6 -36.5 2t-25.5 27.5t1 38t29 26.5l61 21q-4 98 -63 172q-58 75 -141 105q-46 17 -86 16q-31 0 -61 -10q-64 -24 -83 -103q-7 -28 -7 -58q0 -90 62 -190 q53 -88 217 -252q178 -180 234 -256q91 -127 90 -240q0 -25 -4 -50q-25 -117 -131 -179q-103 -60 -226 -59h-8q-123 0 -225 59.5t-139 169.5l-41 -20q-16 -10 -36 -4t-30 24q-6 11 -6 22q0 7 2 14z" />
<glyph unicode="T" horiz-adv-x="954" d="M10 1337q-2 7 -2 14q0 11 6 23q10 19 27.5 26t36 -2t26.5 -28q10 -31 17 -55q379 117 825 137q-2 14 -2 31q0 20 13.5 35.5t34 15.5t35.5 -13.5t15 -33.5q2 -78 27 -146q2 -8 2 -16q0 -13 -5 -23q-9 -18 -28.5 -24t-38 3t-24.5 28q-8 25 -12 47q-201 -10 -392 -39 q10 -213 14.5 -628t12.5 -613q43 6 98 10q20 2 36 -11.5t18 -34t-11.5 -35.5t-33.5 -17q-158 -12 -261 -49q-7 -2 -14 -2q-10 0 -22 5q-18 9 -25.5 27.5t1.5 37t28 26.5q43 14 88 24v2q-8 205 -12.5 619t-12.5 622q-176 -33 -334 -81q2 -18 2 -39t-13 -36.5t-33.5 -15.5 t-36 13.5t-15.5 34.5q-2 74 -35 161z" />
<glyph unicode="U" d="M37 1270q1 16 13 30q14 14 34 17q133 6 197 31q18 6 36.5 -3.5t25.5 -28t-2 -36.5t-28 -27q-35 -12 -75 -20q-18 -156 -18 -318.5t18 -332.5q23 -207 73 -342q55 -145 138 -183q36 -17 70 -17q68 0 126 69q59 72 123 233q76 201 117 524q22 171 22 300q0 110 -16 190 q-31 0 -68 2q-20 2 -33.5 17.5t-11.5 36t17.5 33.5t35.5 11q19 -2 38 -2q69 0 139 23q7 2 14 2q10 1 22 -5q18 -10 25 -30q2 -8 2 -15q0 -11 -5 -22q-9 -18 -30 -25q-25 -8 -47 -12q16 -88 16 -204q0 -136 -22 -312q-43 -328 -125 -545q-70 -182 -139 -264 q-90 -105 -197 -105q-55 0 -114 27q-119 55 -189 238q-55 145 -78 366q-20 173 -20 345q0 153 16 305q-14 0 -49 -2q-20 -2 -34 12q-16 16 -17 39z" />
<glyph unicode="V" horiz-adv-x="1155" d="M12 1360q2 21 19 33q78 61 139 104q16 10 36.5 7t32 -19.5t8.5 -37t-20 -32.5l-37 -24q4 -2 5 -7q156 -299 301 -903l67 -282l2 6q51 180 66 223q57 166 148 356.5t165 317.5l193 330l-45 38q-14 12 -16.5 33t11 36t33.5 17q3 0 6 1q17 0 31 -13l146 -127q16 -13 18 -33 v-5q1 -17 -11 -31q-14 -16 -34.5 -17.5t-34.5 12.5l-29 23l-188 -322q-72 -127 -159 -308t-140 -341q-8 -23 -66 -217l-32 -110l-13 -37q-2 -6 -4 -11q0 -4 -2 -6q0 -4 -2 -6q-2 -4 -6 -6q-8 -12 -20 -16q-9 -3 -18 -3q-15 0 -30 9q-10 6 -16 18q-6 8 -14 25l-17 57l-16 78 l-68 287q-141 586 -288 874l-21 -16q-16 -12 -36 -10q-22 2 -34 18q-10 13 -10 30v7z" />
<glyph unicode="W" horiz-adv-x="1427" d="M12 1330q6 20 21 30q131 86 166 110q16 12 36.5 9.5t32 -19t8 -37t-19.5 -30.5l-41 -31q141 -567 184 -895q8 -72 17 -180q55 182 155 454l70 183l14 37q2 6 3 10t4 6q2 4 6 8q6 6 12 10q20 12 43 2q6 -2 11 -6t7 -6l2 -4q2 -2 4.5 -5t4.5 -7q4 -6 8 -19l22 -49 q29 -68 35 -84q35 -104 105 -254q115 -254 116 -256l19 -45q10 162 22 244q70 444 246 926l-27 4q-18 4 -29.5 21.5t-8.5 36.5q4 18 21 30q14 10 32 10h6q104 -20 199 -29q20 -2 34 -17q12 -13 11 -30v-6q-2 -20 -17.5 -33.5t-36.5 -11.5l-86 8q-178 -481 -245 -926 q-14 -84 -25 -288q-6 -94 -8 -121v-2l53 14q20 6 37.5 -5t23 -30.5t-6 -37t-29.5 -21.5l-103 -29q-66 -18 -92 -24q-18 -6 -36.5 4t-23.5 29.5t5 38t31 22.5l20 6q0 2 -2 23v6q-31 94 -74 192q-2 4 -117 256q-78 168 -108 262q-2 8 -14 39l-43 -114q-150 -406 -217 -666v-2 v-4v-8v-11q-2 -6 -3 -10l25 -8q18 -8 27.5 -26.5t2.5 -37t-25 -27.5q-11 -5 -23 -5q-8 0 -15 2q-125 45 -170 53q-20 4 -31.5 20.5t-8.5 37t19.5 31.5t37.5 9q25 -4 49 -12v2l-8 111q-18 252 -25 297q-43 326 -172 850l-43 -27q-16 -12 -36 -7t-32 21q-8 11 -8 25q0 6 2 13z " />
<glyph unicode="X" horiz-adv-x="1167" d="M18 49q-1 5 -1 9q-1 15 9 27q12 15 33 18t37 -9l43 -33l396 607q-133 291 -279 682q-35 -8 -59 -13q-20 -2 -37 9.5t-20 32t8.5 37t31.5 20.5q31 4 90 16l92 18q20 2 37 -9t20 -31.5t-8.5 -37t-31.5 -20.5l-25 -4q125 -340 244 -600q203 332 342 612h-10 q-18 4 -30.5 20.5t-9.5 35.5q4 20 20 32q14 11 31 11h5q66 -10 139 -19q20 -2 32.5 -18.5t10.5 -37t-18 -32.5t-37 -10l-31 4q-156 -319 -395 -704q197 -412 400 -674q0 -2 2 -2l49 26q18 10 38 4t30 -24q6 -11 6 -22q0 -7 -2 -14q-6 -19 -23 -30q-35 -20 -178 -90 q-11 -6 -23 -6q-7 0 -15 2q-20 6 -29 24.5t-3 38t25 27.5l34 19q-190 248 -372 622l-367 -557q-2 -4 -4 -6l14 -12q14 -14 14.5 -35t-14 -35t-35 -14t-34.5 14q-16 16 -33.5 30.5t-48.5 36t-43 31.5q-13 12 -17 33z" />
<glyph unicode="Y" horiz-adv-x="942" d="M85 1432q5 20 23 31q11 7 23 7q7 0 14 -2q160 -39 250 -49q20 -2 32.5 -18.5t10.5 -37t-18.5 -32.5t-36.5 -10q-45 6 -94 14q-2 -14 -9.5 -78.5t-11.5 -107.5t-6 -109q-3 -44 -3 -83q0 -19 1 -37q4 -139 39 -207q34 -66 100 -66h4q86 2 181 174q76 139 112 291q4 20 9 53 q8 57 8 64l16 76l-72 20q-18 6 -28.5 23.5t-4 37t24 29.5t37.5 4q158 -45 244 -65q20 -4 32 -20q8 -12 8 -25q0 -6 -2 -13q-5 -20 -21.5 -31.5t-37.5 -4.5q-33 6 -67 14v-107q-2 -154 -4 -196q-1 -13 -1 -28q0 -84 19 -249q29 -244 35 -344q3 -37 3 -74q0 -49 -5 -98 q-6 -88 -23.5 -163.5t-61.5 -141.5t-112 -104q-88 -44 -178 -44h-11q-95 3 -184 39q-195 82 -233 232q-10 36 -10 72q0 95 67 188q49 68 123 113t160 55q15 2 30 2q70 0 136 -39l6 19q6 18 23.5 28t37 4t29.5 -23.5t4 -37.5q-41 -139 -55 -197q-4 -18 -21.5 -29.5t-37 -6 t-30.5 22.5t-5 38q8 39 20 82q-53 38 -114 38q-30 0 -62 -9q-98 -27 -163 -117q-48 -67 -48 -134q0 -22 6 -45q27 -102 174 -165q74 -31 149 -32h4q73 0 134 32q152 87 152 416q0 35 -2 73q-6 80 -35 340q-18 162 -19 240q-33 -82 -69 -150q-121 -221 -262 -225h-8 q-127 0 -187 121q-45 88 -51 245q-1 24 -1 49q0 39 2 82q3 72 8 122.5t12 111.5t10 76l-72 18q-18 4 -29 22q-9 12 -9 25q0 6 2 11z" />
<glyph unicode="Z" horiz-adv-x="1171" d="M8 53q0 6 2 13q0 2 2 6q0 2 2 4v2l4 6l11 20l37 62l96 164q94 160 207 334q-96 -8 -181 -27q-20 -2 -37.5 9t-20.5 30.5t8.5 37t29.5 21.5q123 25 268 33l185 281q8 12 151 225l51 76q-70 -2 -283.5 -9.5t-332.5 -7.5q-6 -27 -14 -53q-8 -18 -27 -27.5t-37 -2.5 t-27.5 25.5t-3.5 37.5q25 66 27 174q0 20 15.5 33.5t36 13.5t33.5 -15.5t13 -35.5q0 -33 -2 -51q117 0 329 6.5t300 9.5h2q2 0 8 2t14 4q11 2 20 2q39 0 60 -33q4 -8 5.5 -18t1.5 -14l-3 -7q0 -4 -4 -10l-6 -14q-8 -12 -22 -37l-72 -104l-152 -224l-145 -223q111 0 244 -6 q20 -2 33.5 -16.5t12.5 -35t-15.5 -33.5t-34.5 -13q-113 5 -211 5q-49 0 -94 -1q-141 -217 -244 -391l-90 -154q14 6 24 8q41 8 100 9q12 0 25 -1q78 -4 126 -10t121 -16.5t112 -14.5q78 -11 160 -11q24 0 48 1q108 4 187 37q-6 27 -12 61q-6 20 5 37t31.5 22t37 -6.5 t20.5 -31.5q25 -106 47 -174q2 -8 2 -16q0 -13 -5 -23q-9 -18 -29 -24q-8 -3 -15 -3q-11 -1 -23 5q-18 10 -24 28l-9 31q-95 -37 -217 -41q-27 -1 -52 -1q-90 0 -161 11q-51 4 -122 16l-113 17q-44 6 -112 9q-14 1 -26 1q-51 0 -85 -10q-4 0 -58 -25q-33 -16 -60.5 -16 t-49.5 16q-23 14 -23 41z" />
<glyph unicode="[" horiz-adv-x="409" d="M45 1386q2 27 6 44q4 29 21 45q18 18 59 28q25 6 62 8q20 2 54 4.5t42 2.5q20 2 35.5 -11.5t17.5 -34t-11.5 -36t-33.5 -17.5q-6 0 -41 -2t-55 -4q-31 -2 -49 -6q-2 0 -7 -2q0 -8 -2 -23q-2 -35 2 -94q0 -29 5 -102q4 -57 4 -74q-2 -143 4 -415.5t4 -397.5 q0 -12 -2 -36.5t-4 -59.5q-2 -31 -4 -60q-4 -51 -5 -82q2 -33 5 -41q6 -12 55 -14q23 0 59 4q45 4 58 4q20 0 34.5 -14t14.5 -34.5t-14.5 -35t-34.5 -14.5q-8 0 -48 -4q-45 -4 -71 -2q-113 0 -144 74q-10 25 -12 75q0 35 4 91q4 41 4 59q2 33 4 55.5t2 34.5q2 127 -4 399.5 t-4 413.5q0 14 -2 68q-6 76 -6 104q-4 66 -2 102z" />
<glyph unicode="\" horiz-adv-x="915" d="M77 1418q7 20 25.5 28t38 1t27.5 -26q127 -287 381 -762q260 -485 325 -618q10 -18 4 -37.5t-24 -29t-38 -3t-28 24.5l-327 622q-260 489 -383 762q-8 18 -1 38z" />
<glyph unicode="]" horiz-adv-x="409" d="M39 1466.5q0 20.5 14.5 35t34.5 14.5q8 0 49 4q43 2 70 2q113 -4 143 -76q10 -25 12 -76q0 -35 -4 -90q-4 -41 -4 -59q-2 -33 -4 -55.5t-2 -35.5q-2 -123 4 -353t6 -333v-43q0 -39 1 -93t1 -101q0 -94 -2 -148q0 -33 -2 -51q-2 -12 -2 -20q-2 -6 -4 -11q-4 -12 -12 -22 q-18 -18 -59 -29q-25 -4 -62 -8q-20 0 -57 -2q-31 -2 -39 -2q-20 -2 -35.5 11.5t-17.5 34t11.5 35.5t33.5 17q8 0 43 2q35 0 55 2q29 2 47 7q2 14 2 38q2 53 2 146q0 47 -1 101t-1 93v43q0 102 -6 333t-4 353q0 12 2 37t4 60q2 31 4 59q4 51 4 82q-2 33 -4 41q-6 12 -55 14 q-23 0 -60 -2q-45 -4 -57 -4q-20 0 -34.5 14.5t-14.5 35z" />
<glyph unicode="^" horiz-adv-x="491" d="M58.5 1108.5q-7.5 18.5 0.5 36.5l80 168l49 98l17 33q4 8 8 12q2 4 4 6q10 14 29 19q12 2 22.5 -1t14.5 -7l4 -5q4 -2 8 -6q2 -2 2 -4q2 -2 2 -4l2 -2l4 -8l12 -27l41 -86l95 -203q8 -18 0.5 -37.5t-25.5 -27.5t-37.5 -1t-28.5 25l-92 201l-16 35l-27 -53l-77 -166 q-10 -18 -29 -25.5t-37 2t-25.5 28z" />
<glyph unicode="_" horiz-adv-x="819" d="M31 -155.5q0 20.5 15.5 33.5t35.5 13q0 -4 328 -2l327 2q20 0 34.5 -14t14.5 -34.5t-14 -35t-35 -14.5q-74 0 -208 -1t-243.5 -1t-207.5 2q-20 0 -33.5 15.5t-13.5 36z" />
<glyph unicode="`" horiz-adv-x="317" d="M-20 1495q0 21 14 35t34.5 14t34.5 -14q104 -109 191 -227q10 -16 7 -37t-19.5 -32t-37 -8t-32.5 19q-80 115 -178 215q-14 14 -14 35z" />
<glyph unicode="a" horiz-adv-x="933" d="M61 315q14 88 70.5 171t136.5 128q86 45 171 44q35 0 70 -7q120 -26 202 -123q-4 45 -13 84q-31 188 -94 267q-39 49 -93 49q-33 0 -69 -16q-100 -46 -192 -169l14 -14q14 -14 12 -34.5t-16 -35t-34.5 -12.5t-35.5 17l-90 96q-14 14 -14 34.5t14.5 35t35 14.5t34.5 -15 l12 -12q102 131 219 184q61 28 115 28q95 0 166 -89q78 -98 113 -309q31 -183 31 -402q0 -86 -5 -178q20 6 41 11.5t38 -4.5q18 -12 23 -32q2 -7 2 -12q1 -14 -7 -26q-10 -18 -31 -21q-55 -14 -176 -61q-10 -4 -19.5 -4t-19.5 4q-19 8 -26 27.5t1 38t27 24.5l47 18v27v84 q-4 123 -10 164q-92 -98 -158 -150q-131 -102 -248 -102q-24 0 -47 4q-115 20 -166 102q-34 55 -34 126q0 22 3 46zM160 301q-3 -18 -2 -33q0 -41 18 -71q27 -45 98 -58q15 -3 31 -3q84 0 187 81q53 41 186 182q-48 105 -154 145q-44 17 -88 16q-60 0 -119 -32 q-59 -35 -103 -98t-54 -129z" />
<glyph unicode="b" horiz-adv-x="866" d="M26 1294q-3 8 -4 17q0 11 6 21q10 18 27 26q100 35 181 76q11 6 23 6q7 0 15 -2q20 -6 28.5 -24.5t2.5 -38t-24 -27.5l-43 -23q2 -4 2 -10q18 -279 22 -674q37 113 84 186q86 131 205 138h14q87 1 155 -45q73 -50 111 -132q37 -78 40 -166q0 -7 1 -14q0 -80 -32 -151 q-145 -311 -576 -373q0 -27 -2 -49l-2 -21q18 0 37 -2q20 -2 33.5 -17t11.5 -35t-18 -34q-14 -12 -30 -12h-5q-74 6 -209 6q-20 0 -34.5 14.5t-14.5 35t14 34.5t35 14h82v25q0 20 1 54t2 56.5t1 28.5q1 47 1 116.5t-1 162.5q-6 532 -23 823l-55 -20q-18 -6 -36 3t-26 27z M274 184q356 57 476 314q25 50 25 111q-1 5 -1 11q-2 68 -31 125q-58 121 -177 121h-11q-68 -4 -127 -92q-55 -84 -94 -242q-40 -155 -60 -348z" />
<glyph unicode="c" horiz-adv-x="819" d="M38 554q24 198 95 325q68 115 141 149q32 16 63 16q45 0 87 -34q94 -76 106 -267l56 9q20 2 36.5 -10.5t18.5 -33t-10.5 -37t-32.5 -18.5q-80 -10 -190 -49q-18 -6 -37 3t-26 27.5t2 37t28 26.5l59 19q-2 76 -23.5 135t-50.5 82q-20 16 -45 6q-45 -23 -96 -111 q-63 -109 -83 -287q-8 -66 -8 -126q0 -103 22 -191q35 -135 108 -155q15 -4 31 -4q84 0 213 116l45 41q16 16 33 35l24 27l37 39l45 51l-18 24q-12 16 -10.5 37t18 33t37 10t32.5 -18q10 -12 45 -59.5t56 -71.5q12 -12 12 -30v-5q-2 -21 -17.5 -34t-36 -11t-32.5 18l-24 29 l-41 -47l-33 -37q-6 -8 -25 -27l-37 -34l-45 -43q-157 -142 -281 -142q-29 0 -57 8q-127 37 -176 226q-24 96 -24 210q0 68 9 143z" />
<glyph unicode="d" horiz-adv-x="880" d="M66 711q47 195 194 250q43 16 83 16q144 0 257 -207q51 -92 92 -219q2 55 6 156.5t4 134.5q5 131 5 241q0 131 -7 230q-39 10 -71 14q-18 4 -29.5 21.5t-8.5 37t20 30.5q14 9 33 9h7l127 -28q76 -20 121 -27q19 -4 31 -20q9 -13 10 -29q0 -5 -1 -9q-3 -20 -19.5 -31 t-36.5 -9q-37 6 -80 16q5 -86 5 -198.5t-5 -251.5q-14 -397 -15 -480q0 -6 1.5 -29.5t2.5 -59.5t3 -64v-96v-23q14 4 45 10q18 2 36.5 -9t21.5 -30.5t-8 -37t-34 -21.5q-70 -12 -103.5 -23.5t-76.5 -40.5q-12 -8 -28 -8q-5 0 -9 1q-21 3 -32 20.5t-8 37t22 31.5q31 20 57 33 q0 2 2 12q0 29 -2 68q-124 -69 -234 -69q-75 0 -143 32q-150 72 -213 266q-37 110 -37 217q0 69 15 136zM162 688q-13 -57 -13 -115q0 -90 31 -184q55 -156 166 -209q46 -21 99 -21q93 0 206 66q7 4 17 6q-18 106 -31 166q-47 188 -123 326q-85 154 -177 154q-20 0 -40 -7 q-100 -39 -135 -182z" />
<glyph unicode="e" horiz-adv-x="972" d="M26 550q-3 9 -4 16q0 10 6 20q10 18 29 25t35 -1q27 -14 55 -20q18 117 62 213q98 221 276 235q10 1 20 1q62 0 105 -33q43 -35 56 -97q7 -31 7 -61q0 -73 -40 -143q-59 -104 -168 -165t-229 -61q-1 -15 -1 -30q0 -30 3 -58q10 -203 100 -282q39 -35 92 -35q70 0 164 63 q33 23 66.5 55.5t48.5 49.5l57 73l-25 31q-10 16 -7 36.5t19.5 32t37 8t32.5 -19.5q31 -45 125 -147q13 -15 13 -36q1 -20 -15 -32q-16 -14 -36.5 -14t-35.5 16l-43 48q-104 -129 -184 -183q-120 -81 -219 -81q-86 0 -156 61q-119 106 -133 350q-3 34 -3 69q0 17 1 35 q-45 10 -86 31q-17 10 -25 30zM246 578q92 2 174 49t127 127q27 46 27 92q0 20 -5 41q-6 29 -20 41q-14 13 -41 13q-7 0 -14 -1q-121 -10 -195 -178q-37 -84 -53 -184z" />
<glyph unicode="f" horiz-adv-x="819" d="M33 504l8 74q2 20 18.5 32.5t36 10t32.5 -17.5t11 -36q59 -10 109 -16q-2 29 -2 55q0 6 -5 117t-5 192q2 82 10 160q35 336 221 428q37 19 85 19q16 0 32 -2q109 -14 164 -127q41 -86 43 -219q1 -17 1 -34q0 -182 -61 -327l55 -16q18 -8 28 -25q5 -11 5 -21q0 -8 -3 -17 q-7 -19 -24.5 -28.5t-37.5 -3.5l-47 15q-35 12 -55.5 19t-50.5 20.5t-54 29.5q-16 10 -21.5 30t6 37t31 22.5t37.5 -7.5q18 -10 39 -20q55 128 55 300v23q-4 111 -35 179q-33 66 -88 71q-39 6 -59 -4q-137 -70 -168 -352q-8 -78 -10 -152q0 -78 5 -185t5 -118q0 -33 2 -67 q82 0 170 14v21q0 20 14.5 34.5t35 14.5t34.5 -14.5t14 -34.5q0 -68 2 -123q0 -20 -13 -36t-33.5 -16t-36 13.5t-15.5 34.5v8q-88 -14 -170 -15q2 -188 2 -403q27 -2 58 -6q20 -4 32.5 -19.5t9 -36t-18.5 -33.5q-12 -10 -28 -10q-4 0 -8 1q-81 11 -157 11q-22 0 -43 -1 q-20 0 -35 13t-16 33.5t12.5 35t33.5 16.5q33 2 62 2q0 215 -4 404q-55 6 -125 20q-16 -25 -47 -22q-20 2 -32 18q-11 14 -11 31v6z" />
<glyph unicode="g" horiz-adv-x="790" d="M61 578q27 205 117 311q82 97 192 97q13 0 27 -1q125 -14 219 -139l-10 106q-23 2 -41 4t-31.5 18.5t-11.5 36t19 33.5q15 11 32 11h5q25 -2 92 -15q53 -8 86 -10q20 0 33.5 -15.5t13.5 -36t-15.5 -33.5t-36 -13t-44.5 4q30 -314 30 -547q0 -147 -12 -262 q-33 -287 -139 -412q-82 -99 -202 -99q-74 0 -163 38l-16 -23q-12 -16 -33 -18h-5q-17 0 -31 10q-17 12 -19 32.5t10 37.5q41 51 70 125q6 18 24.5 26.5t38 1t27.5 -26t0 -38.5q-8 -23 -17 -41q59 -23 108 -23q81 0 134 62q86 102 115 358l4 41q-49 -55 -103 -84 q-70 -34 -136 -34q-43 0 -83 14q-88 29 -153 123q-55 80 -81 184q-18 71 -18 137q0 31 4 60zM160 565q-3 -25 -3 -51q0 -52 13 -110q20 -87 66 -152q47 -66 106 -86q22 -7 45 -7q45 0 96 25q31 14 61.5 47t47.5 60l47 78q0 82 -2 174q-2 4 -4 10q-27 150 -98.5 238 t-147.5 96q-7 1 -14 1q-66 0 -125 -69q-66 -76 -88 -254z" />
<glyph unicode="h" horiz-adv-x="872" d="M16 1450q0 20 15 34.5t35 14.5h192q20 0 34.5 -14.5t14.5 -34.5t-14 -34.5t-35 -14.5h-66q18 -666 19 -713q27 55 53 103q68 123 133 176q45 37 90 43q8 1 15 1q46 0 86 -32q61 -51 102 -195q33 -115 53 -278q26 -220 26 -406q0 -36 -1 -71l47 -4q17 -3 31 -19 q12 -14 12 -31q0 -23 -18 -37q-14 -12 -32 -12h-5l-158 17q-20 2 -33.5 17t-11.5 35.5t17.5 34t35.5 11.5l17 -2q1 33 1 67q0 176 -26 388q-20 162 -49 264q-33 113 -70 143q-14 12 -26 10q-16 -2 -39 -20q-51 -41 -111 -148q-47 -86 -86 -182t-49 -133q0 -6 -4 -10 q-2 -193 -12 -359q47 -2 75 -2q20 0 35 -14t15 -34.5t-14.5 -35t-35.5 -14.5q-29 0 -102 4q-39 3 -68 3q-14 0 -26 -1q-20 0 -35.5 13.5t-15.5 34t13 35.5t34 15h26q8 127 12 259q3 91 4 193q0 45 -1 93q-2 154 -4 250t-8.5 285.5t-8.5 257.5h-28q-20 0 -35 14.5t-15 34.5z " />
<glyph unicode="i" horiz-adv-x="323" d="M66 22q2 20 17 34t36 12q16 -2 33 -2q0 299 -13 841l-26 2q-20 2 -33.5 18.5t-11.5 36t18 33t35 11.5q59 -6 61 -7h6h7h65q20 0 34.5 -14t14.5 -34.5t-14 -35t-35 -14.5h-22q12 -539 12 -840h29q20 0 34.5 -14t14.5 -34.5t-14.5 -35t-34.5 -14.5q-104 0 -168 4 q-20 1 -34 17q-12 13 -12 30q1 3 1 6zM143 1189.5q0 20.5 14.5 35t35 14.5t35 -14.5t14.5 -35t-14.5 -34.5t-35 -14t-35 14t-14.5 34.5z" />
<glyph unicode="j" horiz-adv-x="299" d="M-200 -288q-9 28 -9 54q0 29 10 54q14 51 55.5 93t92.5 54q32 8 70 8q47 0 102 -12q18 220 18 451v46q-2 255 -18 492q-2 20 11 36t33.5 18t36 -11.5t17.5 -33.5q18 -248 19 -511q1 -15 1 -30q0 -248 -24 -486q74 -27 137 -63l8 10q12 18 32 21.5t37 -8t20 -30.5 q1 -5 1 -9q0 -15 -8 -27q-45 -70 -90 -127q-12 -16 -31.5 -19.5t-36 9t-19.5 32t9 35.5l23 31q-47 27 -98 47q-25 -92 -68 -153q-45 -63 -104 -82q-26 -9 -54 -9q-47 0 -96 27q-59 33 -77 93zM-106 -209q-5 -16 -5 -29q0 -37 37 -57q26 -16 49 -16q11 0 21 4q29 10 53 47 q35 49 55 127q-48 11 -86 11q-25 0 -45 -5q-25 -6 -47 -29.5t-32 -52.5zM94 1165.5q0 20.5 14.5 34.5t35 14t35 -14t14.5 -34.5t-14.5 -35t-35 -14.5t-35 14.5t-14.5 35z" />
<glyph unicode="k" horiz-adv-x="964" d="M16 1424v5q0 17 12 31q14 16 33 17q61 4 117 10h5q17 1 31 -11q16 -14 19 -32.5t-7.5 -33.5t-28.5 -19q25 -340 26 -842q18 33 47 74q84 125 238 313l-21 27q-12 16 -10 36.5t18.5 32.5t37 10t32.5 -18q12 -14 23 -29l10 -16l8 -8l6 -8l13 -11l20 -20q14 -14 14 -34.5 t-14 -35t-34.5 -14.5t-35.5 14q-141 -172 -223 -293q-76 -115 -104 -186q-14 -35 -15 -53v-2q27 -10 99 -11q74 0 184 13q125 16 297 47l-6 10q-8 18 -1 37.5t25.5 28t38 1t27.5 -25.5q39 -88 61 -143q4 -9 4 -18t-4 -19q-8 -19 -26.5 -27t-36.5 0t-27 27l-14 35h-2 q-195 -35 -326 -50q-115 -14 -194 -14q-68 0 -109 10v-206v-3l41 5q20 2 36.5 -10.5t19 -33t-10 -37t-33.5 -18.5q-106 -12 -188 -12q-20 0 -34.5 14.5t-14.5 35t14.5 34.5t34.5 14h37v11v219v241q0 63 -1 213t-4 240t-8.5 213t-13.5 231l-28 -2q-20 -2 -36 12t-18 34z" />
<glyph unicode="l" horiz-adv-x="299" d="M39 1402.5q0 20.5 13.5 36t33.5 15.5q53 2 125 2q20 0 34.5 -14.5t14.5 -34.5q0 -18 -12 -32.5t-31 -16.5q6 -285 6 -1315l13 2q20 2 36 -10q17 -13 19 -33v-5q-1 -17 -11 -31q-12 -16 -32 -19q-55 -6 -115 -6q-20 0 -34.5 14t-14.5 35q0 18 11 31.5t30 17.5 q0 1036 -6 1319l-29 -2q-20 0 -35.5 13t-15.5 33.5z" />
<glyph unicode="m" horiz-adv-x="1228" d="M20 1024q0 20 15 34.5t35 14.5h127q20 0 34.5 -14.5t14.5 -34.5q0 -18 -12.5 -32.5t-30.5 -16.5q6 -66 10 -137q41 51 92 67q27 9 54 9q45 0 92 -25q90 -47 131 -195q2 -8 4 -18q12 45 26 86q82 227 232 262q39 10 74 9q68 0 120 -36q82 -59 113 -215q20 -102 20 -257 v-42q-2 -100 -14 -309q-8 -142 -8 -198v-19h16q20 0 34.5 -14.5t14.5 -35t-14 -34.5t-35 -14h-49h-16q-4 0 -8.5 -1t-18.5 -5l-33 -7h-6q-18 0 -32 10q-18 12 -20.5 31t8.5 36.5t30 21.5l31 6v22q0 63 8 207q12 207 14 303v31q0 153 -18 250q-23 117 -74 151q-28 20 -68 20 q-21 0 -45 -5q-98 -25 -163 -203q-47 -125 -66 -303q-1 -9 -1 -29t1 -51q1 -17 1 -33q0 -39 -7 -67q0 -4 -2 -9.5t-6 -9.5q-6 -12 -21 -18q-27 -14 -51 6q-10 6 -14 18q-4 6 -4 15q-2 8 -3 30q-2 57 -2 60q-12 139 -12 141q-20 145 -33 193q-29 104 -79 133q-26 13 -48 13 q-11 0 -22 -3q-27 -10 -53 -45q-47 -66 -58 -162q6 -201 6 -524v-6h52q20 0 34.5 -14.5t14.5 -35t-14.5 -35t-34.5 -14.5q-121 0 -187 -4q-18 -2 -33.5 12.5t-17.5 34t12.5 35t34 17.5t41.5 2v8q0 311 -6 500q-2 8 -2 18q0 6 2 10q-8 197 -23 365h-34q-20 0 -35 14.5 t-15 34.5z" />
<glyph unicode="n" horiz-adv-x="759" d="M7 996q-1 4 -1 8q0 16 10 28q12 16 31 21q53 8 109 14h5q17 -1 31 -11q16 -12 18.5 -32t-10 -36.5t-32.5 -18.5h-2q8 -109 12 -221l25 51q57 106 123 162q68 59 143 59q19 0 39 -4q59 -12 103 -52t67 -96q61 -143 65 -475q0 -55 -1 -239v-68q0 -123 3 -145l19 -4 q20 -5 32 -21q8 -12 8 -24q0 -6 -2 -12q-6 -20 -22 -32q-11 -8 -23 -8q-7 0 -14 2q-55 10 -112 17q-20 2 -33.5 17t-11.5 35.5t17 34t36 11.5h8q-3 30 -3 144v62q1 169 1 228q-4 313 -57 440q-31 74 -101 87q-9 2 -19 2q-40 0 -80 -35q-50 -43 -99 -133q-76 -141 -107 -299 q-2 -188 -10 -390l14 3q20 2 37 -10.5t19 -33t-10.5 -37t-32.5 -18.5q-59 -6 -125 -6q-20 0 -34.5 14.5t-14.5 35t14 34.5t35 14q8 197 10 381q-2 8 -2 19l2 4q0 258 -14 493l-7 -2q-20 -2 -36.5 10t-19.5 32z" />
<glyph unicode="o" horiz-adv-x="722" d="M41 547q14 115 56 217t122 179t180 87q11 0 21 -2q12 0 24 -6q106 -55 173 -169t88 -239q11 -68 11 -138q0 -55 -7 -111q-27 -205 -129 -312q-84 -89 -191 -89q-53 0 -113 22q-98 37 -158 131q-59 93 -75 203q-9 58 -9 119q0 53 7 108zM137 535q-6 -49 -6 -95 q0 -108 33 -197q47 -128 145 -163q41 -15 77 -16q70 0 124 57q82 86 102 256q5 47 5 93q-1 122 -39 236q-54 158 -172 226q-100 -14 -174 -126t-95 -271z" />
<glyph unicode="p" horiz-adv-x="778" d="M13 -328q-1 5 -1 9q0 15 10 29q11 16 31 20q23 4 51 8q10 174 13 368h-33q-20 0 -34.5 14.5t-14.5 35t14 35t35 14.5h33q0 274 -19 782q0 20 13.5 35.5t34 15.5t36 -13t15.5 -34l4 -131q109 135 239 150q11 1 21 1q70 0 133 -35q72 -40 119 -114q47 -72 60 -161 q5 -33 5 -66q0 -57 -14 -115q-23 -92 -98.5 -180t-196.5 -150q-117 -59 -254 -75q-2 -193 -12 -365l39 6q20 2 35.5 -10t18.5 -32.5t-9.5 -36t-32.5 -19.5q-154 -20 -184 -27h-6q-17 0 -31 9q-17 12 -20 32zM207 690q8 -270 8 -477q115 16 209 63q102 53 164.5 125t79.5 146 q12 47 12 92q0 25 -4 49q-10 68 -45 121q-67 103 -161 103q-10 0 -19 -1q-131 -12 -238 -211q-2 -6 -6 -10z" />
<glyph unicode="q" horiz-adv-x="753" d="M39 539q-5 41 -5 79q0 86 26 160q36 107 108 174q59 53 126 66q19 4 39 4q51 0 107 -25q78 -43 140 -143q0 66 -2 127q0 18 14 33.5t33.5 15.5t35 -14.5t15.5 -34.5v-40q0 -145 -10 -599q-2 -84 -2 -145q20 6 45 14q18 8 36.5 0t25.5 -27q3 -10 3 -18q0 -11 -4 -20 q-8 -19 -29 -25q-43 -18 -79 -27v-80q0 -158 6 -288l30 2q20 2 36 -11.5t18 -34t-11.5 -36t-33.5 -17.5q-16 -2 -32 -3t-19 -1t-11 -1t-10 -2t-17.5 -5t-31.5 -6q-6 -2 -13 -2l-23 7q-18 11 -23 30.5t6.5 37t31.5 21.5l6 2q-8 137 -8 303v68q-12 -1 -24 -1q-59 0 -127 17 q-78 16 -156 73.5t-123 121.5q-78 117 -94 250zM136 552q14 -110 79 -206q35 -53 97.5 -98t119.5 -60q59 -13 108 -13q12 0 23 1q2 72 4 168q2 20 4 116.5t4 149.5q-2 2 -2 4q-70 238 -180 295q-30 16 -60 16q-49 0 -97 -44q-55 -51 -84 -135q-20 -57 -20 -127q0 -32 4 -67z " />
<glyph unicode="r" horiz-adv-x="669" d="M57 -2q-1 5 -1 10q0 16 8 28q12 18 32 21l29 4v15v28v21q-4 70 -10 223q-14 371 -58 578v6q-1 18 9 32q12 18 31.5 20.5t37 -8.5t21.5 -30q37 -193 51 -446q39 106 88 196q123 215 276 277v2q-12 18 -7 37q4 20 22 32q12 8 25 7q7 1 13 -1q20 -6 29 -22l21 -33 q10 -16 12 -18t7 -12.5t5 -11.5t8.5 -19.5t14.5 -30.5q4 -10 4 -20q0 -9 -3 -17q-7 -20 -25.5 -28.5t-38 -1t-27.5 25.5l-10 25q-129 -45 -240 -240q-96 -170 -133 -364q-2 -8 -10 -117q-2 -53 -5 -76q0 -8 -2 -14h9q18 2 33.5 -12.5t17.5 -34t-12.5 -34.5t-34.5 -18 q-16 0 -32.5 -1t-19 -1t-11.5 -1t-11 -2t-18.5 -5t-34.5 -8q-5 -1 -11 -1q-14 0 -27 8q-18 12 -22 32z" />
<glyph unicode="s" horiz-adv-x="696" d="M45 120.5q0 20.5 15.5 34t28.5 27t16.5 14.5t9.5 8t8 9t12 16l23 29q14 16 33.5 18.5t36 -11t18.5 -33t-10 -35.5l-21 -27q31 -53 91 -83q52 -26 104 -26h14q55 4 86 37q33 35 33 96v7q-2 39 -15.5 70.5t-46 63.5t-57.5 50q-14 10 -80 55q-51 35 -79.5 58.5t-66.5 65.5 t-52 94q-10 36 -11 78q0 17 2 36q13 116 101 184q83 65 177 64h11q114 -4 172 -88q41 -59 40 -143q0 -36 -7 -76q16 -4 34.5 -8.5t30.5 -21.5q8 -12 7 -24q1 -7 -1 -13q-6 -20 -23 -31t-38 -5q-86 20 -152 23q-20 0 -33.5 15.5t-13.5 36t15.5 33.5t36 13t38.5 -2q6 33 6 61 q0 53 -22 87q-31 43 -92 45h-6q-65 0 -118 -43q-56 -45 -64 -119q-1 -13 -2 -25q0 -59 32 -100q38 -49 133 -113q6 -4 17 -10q49 -35 76.5 -56.5t66.5 -60.5t59.5 -86t22.5 -104v-13q0 -100 -59 -161q-57 -59 -152 -68h-16q-72 0 -142 31q-78 35 -129 104l-16 -16 q-14 -12 -34.5 -12t-34 15t-13.5 35.5z" />
<glyph unicode="t" horiz-adv-x="774" d="M10 766v5q0 17 12 31q14 16 33 17q31 2 47 -26l267 63v96q0 39 2 119q1 53 1 98v41q-1 60 -5 115q-23 -4 -48 -6q-20 -2 -35.5 11t-17.5 33.5t11.5 36t33.5 17.5q72 8 181 33q7 2 14 2q12 0 24 -7q18 -11 22.5 -30.5t-6.5 -37t-30 -21.5l-53 -13q6 -59 7 -123v-46 q0 -48 -1 -104q-2 -85 -2 -118v-80q113 18 211 23v8q-2 20 11 35.5t33.5 17.5t36 -11.5t17.5 -33.5l6 -88v-5q0 -16 -11 -30q-13 -16 -34 -18q-33 -2 -47 27q-102 -2 -223 -23q0 -82 -1 -336t-1 -391l67 10q20 2 37 -10t20 -31.5t-9.5 -36t-30.5 -20.5l-223 -33h-5 q-17 0 -32 10q-17 12 -19 33t10.5 37.5t32.5 18.5q25 2 54 6q0 141 1 401t1 322q-18 -2 -252 -58v-6q2 -20 -11.5 -35.5t-34 -17.5t-36 11.5t-17.5 33.5z" />
<glyph unicode="u" horiz-adv-x="716" d="M37 976q1 20 17 34q14 12 31 12h5q61 -6 115 -6q20 0 34.5 -14.5t14.5 -35t-14.5 -34.5t-34.5 -14h-12q-29 -200 -29 -371q0 -61 4 -119q8 -166 51 -262t119 -105q7 -1 14 0q78 0 131 80q53 84 82 254q26 156 26 342q0 80 -5 166l-23 2q-20 2 -33.5 17.5t-11.5 36 t17.5 34t35.5 11.5q82 -6 140 -15q19 -5 31 -21q10 -13 10 -28q0 -4 -1 -8q-3 -20 -19.5 -31.5t-37.5 -9.5l-10 2q5 -89 5 -172q0 -186 -25 -342q-31 -188 -99 -291q-82 -126 -209 -126q-13 0 -26 1q-133 14 -201 164q-47 109 -59 297q-4 61 -4 126q0 175 28 374h-12 q-20 2 -34 17q-12 13 -11 30v5z" />
<glyph unicode="v" horiz-adv-x="966" d="M22 932q6 21 23 31q55 33 105 57q18 10 37.5 4t27.5 -25q16 -31 -8 -57q31 -115 133 -457l96 -305l2 -6q25 98 54 170q166 428 372 670l-6 6q-14 16 -12 36t18 34q14 12 30 12h6q20 -2 32 -17l86 -96q12 -14 12 -34.5t-15.5 -34t-36 -13.5t-34.5 17l-12 14 q-190 -227 -350 -631q-25 -66 -72 -250l-2 -12q-2 -14 -6 -22q-6 -18 -17 -31q-18 -19 -39 -19q-14 0 -30 9q-10 6 -17 16q-2 2 -4 6q-4 6 -6 12q-4 12 -12 33l-35 103l-94 305q-90 295 -129 434l-25 -14q-16 -10 -36 -5q-22 5 -32 22q-7 11 -6 24q0 7 2 14z" />
<glyph unicode="w" horiz-adv-x="1378" d="M17 823q2 21 16 33q66 57 98 90q14 14 34.5 14.5t35 -14t14.5 -35t-14 -34.5l-31 -31q14 -37 72.5 -169t93.5 -219t63 -173l9 -25q27 82 81 191q39 76 72 118q23 27 43 41q27 19 53 19l17 -2q51 -12 94 -78q27 -45 51 -119q20 -59 49 -178q4 14 6 22q160 440 336 715 l-14 15q-14 14 -14 34.5t14 34.5t34.5 14t35.5 -14l24 -24l15 -15l8 -8q6 -6 7 -6t13 -8l21 -19q16 -13 18 -33v-5q0 -17 -10 -31q-12 -16 -32.5 -18.5t-37.5 9.5l-8 7q-164 -260 -315 -680q-10 -27 -27 -133l-10 -70l-2 -4q37 -10 37 -47q0 -20 -14.5 -34.5t-34.5 -14.5 q-61 0 -115 6q-20 2 -32.5 18.5t-10.5 36.5t18.5 32.5t36.5 10.5v10v8v2q-20 86 -33 132q-2 8 -11 48t-20.5 79.5t-23.5 74.5q-20 63 -43 101q-16 23 -25 30q-8 -6 -20 -20q-27 -33 -61 -102q-70 -135 -80 -191q-2 -6 -13 -104l-6 -62h4q18 2 35 -10t20 -31.5t-9.5 -36 t-32.5 -20.5q-57 -8 -111 -12h-5q-16 0 -30 11q-18 15 -18 38q0 36 35 47l-2 10q-2 10 -3 14q-45 160 -57 197q-20 61 -49 136t-49 124l-60 135l-55 127q-16 -10 -30 -10q-19 0 -33 18q-12 14 -12 32v5z" />
<glyph unicode="x" horiz-adv-x="925" d="M45 93q0 20 13.5 35t34 15t34.5 -12q106 127 227 311q-82 160 -192 428l-29 -18q-16 -10 -35.5 -5t-31 22.5t-6 37t23.5 31.5q16 10 32.5 19.5t26.5 15.5l15 10q6 4 12 7t9 5t10.5 5.5t11.5 5.5l18 10l27 12q18 8 36.5 1t27.5 -25.5t2 -37t-25 -28.5l-39 -18 q98 -238 170 -381q147 236 209 397h-4q-20 4 -31.5 20.5t-8.5 37t19 31.5q14 9 31 9h6q72 -14 139 -30q18 -4 29.5 -21.5t6.5 -37t-22.5 -31t-37.5 -5.5l-29 6q-72 -195 -256 -479q158 -299 348 -487l19 14q16 14 36 12t34 -17q11 -13 12 -29v-7q-2 -20 -17 -33l-127 -106 q-12 -10 -29 -10h-5q-20 2 -34 17t-12 35.5t19 35.5l28 24q-182 182 -333 459q-113 -166 -209 -281l28 -22q14 -12 16.5 -32.5t-11 -36t-34 -17.5t-36.5 12q-53 45 -103 92q-14 14 -14 34z" />
<glyph unicode="y" horiz-adv-x="753" d="M64 456q6 128 28.5 232.5t63.5 208.5l-17 4q-20 4 -31.5 21.5t-6.5 37t23 30.5t36 5q57 -12 119 -28q20 -4 30 -22.5t5 -38t-23.5 -30t-36.5 -4.5h-2q-39 -98 -62.5 -198.5t-27.5 -211.5v-26q0 -96 26 -170q35 -102 125 -135q31 -11 60 -11q57 0 110 42q78 61 150 207 q0 186 -31 575l-20 2q-20 2 -33.5 17.5t-11.5 36t17 34.5q12 11 29 11q3 0 7 -1l123 -10q20 -2 33 -18q12 -13 12 -30v-5q-2 -20 -17.5 -33.5t-35.5 -11.5h-5q31 -365 31 -567q2 -10 -2 -21q0 -121 -12 -221q-31 -287 -135 -412q-83 -99 -204 -99q-74 0 -163 38l-16 -23 q-12 -16 -33 -18h-6q-17 0 -31 10q-16 12 -18 32.5t10 37.5q41 51 69 125q6 18 24.5 26.5t38 1t28 -26t0.5 -38.5q-8 -23 -17 -41q59 -23 108 -23q81 0 134 62q86 102 115 358q0 12 2 25q-35 -43 -78 -78q-85 -63 -170 -63q-5 0 -9 1q-90 3 -164.5 61t-107.5 150 q-31 82 -31 186q0 18 1 37z" />
<glyph unicode="z" horiz-adv-x="874" d="M57 55q2 4 3 8.5t6 10.5l12 18l43 62l137 190l84 115q-21 -1 -41 -1q-41 0 -80 3q-20 2 -34.5 17.5t-12.5 34.5t17.5 33.5t33.5 12.5q38 -3 79 -3q54 0 114 5l119 166q61 86 81 123q18 33 25 55h-16q-41 -2 -58 -2q-76 -4 -141 -4q-130 0 -219 16l-6 -20 q-4 -18 -21.5 -29.5t-37 -6.5t-31 22.5t-4.5 38.5q14 55 26 129q3 17 21 29q13 9 29 9q5 -1 9 -1q20 -4 31 -20.5t8 -37.5l-4 -16q83 -14 212 -14q58 0 124 3q16 0 58 3h41h14h8q4 0 6 -3q12 -2 23 -10q28 -27 28 -67q0 -15 -4 -33q-8 -39 -34 -88q-23 -43 -87 -133l-69 -92 q57 8 119 20q20 2 37.5 -9t20.5 -30.5t-8 -37t-30 -21.5q-115 -20 -217 -33l-133 -182l-137 -187l-4 -8q147 8 172 8q95 4 172 4q123 0 198 -10l2 17q2 20 17.5 33.5t35.5 11.5t34 -18q12 -14 12 -31v-5q-4 -49 -11 -108q-2 -18 -18 -32q-14 -12 -32 -11h-5q-16 2 -28.5 14 t-14.5 31q-71 10 -190 10q-75 0 -168 -4l-113 -4q-70 -4 -74 -4q-41 -2 -59 -2h-21q-8 2 -14 2q-23 6 -33 31q-5 9 -5 18q0 7 3 14z" />
<glyph unicode="{" horiz-adv-x="614" d="M53 692q-14 27 2 53q4 8 13 17l26 20l53 45q59 66 74 201q6 47 -2 154q-8 111 -2 157q10 92 68 144q63 55 182 67v13q0 20 14.5 34.5t35 14.5t34.5 -14.5t14 -34.5v-109q0 -20 -14 -34.5t-34.5 -14.5t-35 13.5t-14.5 33.5q-80 -10 -117 -41q-29 -27 -35 -84 q-6 -35 2 -139q8 -111 2 -172q-18 -168 -102 -254q-10 -12 -27 -27q4 -4 11 -6q102 -59 106 -182q2 -72 -22 -217q-23 -133 -21 -185q2 -78 45 -116q53 -49 185 -64l2 23q2 18 18 31.5t35.5 11.5t33 -18.5t11.5 -37.5q-6 -53 -6 -106q0 -20 -14.5 -34.5t-35 -14.5t-33.5 13 t-16 32q-168 18 -247 92q-72 68 -76 186q-2 59 22 203q23 131 21 197q-2 70 -57 100q-18 12 -43 19q-6 2 -17 4h-6q-4 2 -6 2l-8 4q-12 8 -19 20z" />
<glyph unicode="|" horiz-adv-x="204" d="M66 33q12 535 12 1353q0 20 14 35t34.5 15t35 -14.5t14.5 -35.5q0 -819 -12 -1357q0 -18 -15.5 -32.5t-35 -14.5t-33.5 15.5t-14 35.5z" />
<glyph unicode="}" horiz-adv-x="616" d="M43 -133q0 57 6 119q2 18 18.5 31.5t36 11.5t33 -18.5t10.5 -37.5v-2q84 8 123 41q31 27 39 80q6 37 2 137q-6 111 2 172q23 170 109 254q12 12 29 25q-4 2 -11 6q-100 63 -100 186q0 74 29 218q27 133 26 182q0 78 -43 119q-49 49 -168 65v-22q0 -20 -14 -35t-34.5 -15 t-35 14.5t-14.5 35.5v108q0 20 14.5 34.5t34.5 14.5q37 0 47 -35q164 -23 240 -96q72 -68 72 -188q0 -61 -29 -203q-27 -131 -27 -197q0 -70 56 -102q18 -12 41 -18l12 -4h4h2h2q0 -2 2 -3h4q18 -8 27 -24q14 -27 0 -51q-6 -10 -15 -19l-28 -22q-47 -37 -53 -43 q-61 -59 -80 -197q-8 -53 -2 -156q4 -111 -2 -155q-14 -90 -74 -141q-66 -54 -193 -66v-2v-2q0 -20 -14 -34.5t-34.5 -14.5t-35 14t-14.5 35z" />
<glyph unicode="~" horiz-adv-x="874" d="M63 1191q-5 20 5 38q94 162 215 145q33 -4 70.5 -24.5t57 -35t56.5 -44.5q98 -80 143 -88q63 -12 131 86q12 16 33 19t37 -8t19.5 -31.5t-7.5 -37.5q-104 -150 -231 -125q-68 12 -186 109q-96 78 -136 82q-57 8 -116 -96q-10 -18 -30 -23.5t-38 4.5t-23 30z" />
<glyph unicode="&#xa1;" horiz-adv-x="262" d="M84 1208q-2 23 10 41.5t31.5 21.5t36 -10.5t20.5 -33.5q14 -117 23.5 -229.5t9.5 -256.5v-215q0 -72 -6 -257t-6 -222q0 -25 -15.5 -39t-36 -14t-34 17.5t-13.5 39.5q0 39 6.5 224.5t6.5 252.5v209q0 143 -8.5 253t-24.5 218zM106 1384.5q0 20.5 14.5 35t35 14.5 t35 -14.5t14.5 -35t-14.5 -35t-35 -14.5t-35 14.5t-14.5 35z" />
<glyph unicode="&#xa2;" horiz-adv-x="741" d="M57.5 369.5q-22.5 152.5 46.5 320.5q29 61 80.5 115.5t110.5 77.5q74 31 137 2q59 -27 94 -101q18 8 37 1t27 -23q10 -18 4 -37.5t-25 -28.5q-49 -25 -94 -51q-18 -10 -37.5 -4t-30 23.5t-4 37t22.5 29.5l14 8q-20 43 -49 56q-25 12 -59 -2q-41 -16 -79 -56.5t-58 -87.5 q-57 -145 -40 -265t89 -185q68 -63 153 -45q100 20 195 143l-14 16q-12 14 -12.5 35t15 34t36 13t34.5 -16l88 -96q12 -14 12.5 -35t-15 -34t-36 -13t-34.5 16l-7 6q-113 -139 -241 -166q-135 -29 -242 70q-96 90 -118.5 242.5zM299 987q0 53 2 113q0 20 15.5 33.5t36 13.5 t33.5 -15.5t13 -35.5q-2 -55 -2 -109q0 -20 -14 -34.5t-34.5 -14.5t-35 14.5t-14.5 34.5zM356 -14q-2 20 11.5 36.5t33 18.5t36 -11.5t18.5 -31.5q2 -14 3 -28.5t2 -20.5t1 -10v-21q-2 -27 -2 -37q0 -20 -15.5 -33.5t-36 -13.5t-34 15.5t-13.5 35.5q0 10 2 37v12q0 4 -1 8.5 t-2 16.5t-3 27z" />
<glyph unicode="&#xa3;" horiz-adv-x="1228" d="M2 702.5q0 20.5 14.5 35t34.5 14.5q57 0 230 -7q2 23 4 52q25 276 88 440q23 57 64.5 111.5t92.5 83.5q66 37 129 24q72 -12 127 -84q39 -51 74 -190l12 2q18 6 36 -5.5t23 -31t-6.5 -36.5t-31.5 -21q-10 -4 -18.5 -5.5t-13.5 -2.5t-8 -2t-5 -1h-2q-2 -2 -4 -3t-15 -7 l-26 -18q-18 -12 -38 -7t-31 22t-6 36.5t22 30.5l20 12v2q-2 10 -8 31.5t-8 32t-8.5 27.5t-10.5 27.5t-10 24t-14 21.5q-33 43 -68 49q-29 6 -61 -14q-35 -18 -67 -59.5t-50 -86.5q-59 -154 -80 -409q-2 -23 -2 -48q164 -2 278 17q20 2 37 -9.5t20 -32t-8.5 -36.5t-31.5 -20 q-123 -18 -303 -17q-12 -195 -27 -295q-12 -68 -39 -147q88 33 213 -17l82 -32q53 -23 84 -34t72 -24q43 -12 78 -16q145 -18 239 102l-8 13q-12 16 -9 36.5t19.5 31.5t37 8t30.5 -19q49 -66 82 -105q14 -16 12 -36.5t-17.5 -34t-36 -11t-32.5 16.5l-16 20 q-125 -145 -314 -120q-41 6 -90 19t-82 28l-90 37q-55 23 -78 30q-117 45 -172 -6q-12 -10 -41 -47q-12 -18 -22 -29q-25 -20 -51.5 -20t-42.5 18q-18 18 -15 45q2 16 15 39q6 10 12 19.5t9 14.5t5 9q55 147 68 228q16 102 26 280q-176 6 -223 6q-20 0 -34.5 14.5t-14.5 35z " />
<glyph unicode="&#xa4;" horiz-adv-x="897" d="M133 406.5q0 19.5 14 35.5l62 66q-49 61 -62.5 134t16 153.5t107.5 148.5l-63 76q-12 16 -10 36.5t18 33t36.5 10.5t33.5 -19l65 -82q111 59 205 46t168 -80l70 69q14 14 34.5 14.5t35 -14t14.5 -35t-15 -34.5l-78 -78q53 -78 52.5 -184.5t-66.5 -190.5q37 -33 39 -35 t37 -43q14 -16 12 -36.5t-17.5 -34t-36 -11.5t-32.5 17l-18 22q-8 10 -9 10l-8 9l-6 6q-2 2 -12 10t-21 18q-111 -74 -219 -70.5t-198 66.5l-64 -67q-14 -14 -33.5 -14.5t-35 14t-15.5 34zM243.5 655.5q12.5 -49.5 47.5 -92.5q61 -74 157.5 -88t194.5 49q57 43 79.5 102.5 t12.5 118t-45 109.5q-37 49 -86 75.5t-114.5 17.5t-129.5 -60q-8 -6 -16 -8q-66 -53 -89.5 -113.5t-11 -110z" />
<glyph unicode="&#xa5;" horiz-adv-x="1153" d="M51 1405.5q6 19.5 23 30.5l67 39q53 33 84 47q18 10 38 4t29 -24.5t3 -38t-25 -27.5l-30 -17q119 -256 229 -606q70 10 137 18q131 346 330 615l-37 16q-18 8 -26.5 26.5t0 37t27 26.5t36.5 0q37 -14 174 -84q18 -8 24.5 -27.5t-3 -38t-29 -24.5t-37.5 4l-41 21 q-182 -246 -309 -559q100 10 196 12q20 0 36 -13.5t16 -34t-13.5 -35.5t-34.5 -15q-119 -4 -239 -17q-43 -119 -74 -223q0 -2 -2 -24q96 8 166 10q20 0 35.5 -13.5t15.5 -34t-13 -35.5t-34 -15q-72 -2 -168 -11q10 -172 -2 -295q49 0 121 -2q20 0 33.5 -15t13.5 -35.5 t-15.5 -34t-35.5 -13.5q-217 6 -346 -39q-18 -6 -37 3t-26 27.5t2 37t28 26.5q78 27 164 37q12 121 2 295q-170 -14 -256 -18q-20 0 -35.5 13t-15.5 33.5t13 36t34 15.5q82 2 221 14q-12 33 -27 82l-39 139l-245 -51q-18 -6 -36 5.5t-23 31t6.5 36.5t31.5 21q127 31 238 52 q-104 330 -215 571l-33 -18q-18 -10 -37.5 -4t-30 23t-4.5 36.5zM498 719l30 -109q16 58 39 119q-35 -6 -69 -10z" />
<glyph unicode="&#xa6;" horiz-adv-x="262" d="M84 -104q39 326 25 571q-2 18 12 33.5t33.5 17.5t35 -12.5t17.5 -34.5q14 -252 -25 -588q-2 -20 -18.5 -32.5t-37 -10.5t-32.5 18.5t-10 37.5zM98 815q43 229 4 578q-2 20 10.5 36.5t33 18.5t37 -10.5t18.5 -32.5q41 -365 -4 -606q-4 -20 -21.5 -31.5t-37 -8.5t-31 20.5 t-9.5 35.5z" />
<glyph unicode="&#xa7;" horiz-adv-x="798" d="M42 337.5q-1 20.5 12.5 35t33.5 16.5q82 4 143 10q20 2 36 -11t18 -33.5t-11.5 -36t-33.5 -17.5l-31 -2q14 -51 64.5 -100t111.5 -74q63 -25 109 -8q47 16 65 82q18 63 -19.5 130.5t-125.5 157.5l-74 70q-55 53 -80 82q-88 90 -108 160q-23 78 -4.5 137t75.5 84 q27 10 58 12q-45 78 -37 172q10 109 83.5 160t161.5 29q80 -20 127.5 -95t30.5 -182l31 -8q20 -4 31.5 -20.5t6.5 -37t-21.5 -31.5t-37.5 -5q-14 2 -25 5t-16.5 4t-9.5 1h-4q-2 0 -16 2h-47q-20 0 -33.5 15.5t-13.5 36t15 33.5t36 13h6q14 74 -13.5 118t-70.5 56 q-45 10 -81 -14t-42 -88q-6 -72 37 -133q8 -12 102 -125q96 -115 137 -182q74 -117 62 -199q-10 -80 -94 -115q106 -143 67 -272q-33 -113 -127 -145q-80 -29 -176 8q-86 33 -155.5 104.5t-85.5 151.5v2h-17q-20 0 -34.5 13t-15.5 33.5zM246 827q14 -47 84 -120l80 -78 l73 -72l33 -35q61 14 68 49q6 45 -47 134q-43 68 -129 169l-19 21l-4 4q-72 51 -123 31q-41 -18 -16 -103z" />
<glyph unicode="&#xa8;" horiz-adv-x="409" d="M33 1341.5q0 20.5 14 35t34.5 14.5t35 -14.5t14.5 -35t-14.5 -35t-35 -14.5t-34.5 14.5t-14 35zM272 1339.5q0 20.5 14.5 35t35 14.5t35 -14.5t14.5 -35t-14.5 -35t-35 -14.5t-35 14.5t-14.5 35z" />
<glyph unicode="&#xa9;" horiz-adv-x="966" d="M72 770q18 276 123 465q125 223 321 229h6q16 2 29 -6q106 -66 184 -165t121 -210.5t62.5 -238.5t13.5 -246q-4 -119 -29 -233q-18 -90 -61 -168q-41 -78 -107.5 -143.5t-152.5 -86t-195 9.5q-176 57 -262 306q-72 213 -53 487zM170 762q-16 -254 49 -449 q68 -201 197 -241q141 -45 248.5 50t144.5 263q23 104 27 216t-13.5 224.5t-55.5 212t-102.5 186.5t-152.5 142q-137 -8 -231 -178q-92 -168 -111 -426zM259 659.5q-3 137.5 56 251.5q39 66 89.5 95.5t107.5 15.5q86 -23 125 -133q18 -2 31 -15q14 -14 14 -33.5t-14 -35.5 l-43 -45q-14 -14 -34 -14.5t-35 13t-15 34t12 34.5v4q-20 84 -68 97q-41 10 -84 -66q-47 -88 -43 -200q2 -113 45 -191q37 -68 76 -63q59 6 129 133l-6 6q-16 14 -16 34.5t13 36t34 15.5t35 -12l55 -52q16 -14 16 -34.5t-12 -34.5q-16 -16 -37 -17q-94 -162 -201 -172 q-104 -12 -172 111q-55 100 -58 237.5z" />
<glyph unicode="&#xaa;" horiz-adv-x="808" d="M28 1393.5q5 19.5 22.5 31t36.5 6t32 -23.5l14 -23q143 154 264 125q111 -27 178 -200q31 -80 56 -185q25 -106 45 -234t26 -153l23 8q18 6 36.5 -3t25 -28.5t-3 -38t-29.5 -24.5q-143 -43 -195 -49q-18 -2 -34.5 11.5t-18.5 33t11 35.5t34 18q27 2 57 11q-4 10 -41 229 q-49 -53 -90 -86q-109 -92 -211 -84q-121 10 -170 96q-43 74 -16 172q27 88 102.5 151.5t173.5 53.5q96 -12 164 -80q-16 61 -35 109q-51 127 -110 141q-74 18 -195 -123q6 -39 -28 -55q-18 -8 -38 -1t-28 26q-18 41 -53 98q-10 16 -5 35.5zM174 1010q-16 -55 6 -95 q25 -41 94 -47q63 -6 142 60q37 33 88 88q-61 119 -160 129q-55 6 -103 -33t-67 -102z" />
<glyph unicode="&#xab;" horiz-adv-x="815" d="M59 586q4 18 19 32q8 8 18 17q14 14 43 35l47 35q23 18 29 24t31.5 28.5t34.5 30.5l30 29l33 31l27 29q16 18 30 34l25 31q12 16 32.5 19.5t36 -9t18.5 -33t-9 -36.5l-37 -43l-33 -37q-12 -14 -41 -41l-33 -33q-8 -8 -42.5 -40t-36.5 -34q-8 -8 -35 -28l-47 -35l-35 -29 q6 -12 18 -33l80 -114l152 -199q12 -16 10 -36.5t-18.5 -33t-37 -10.5t-32.5 19l-154 200l-84 123q-18 31 -26 51q-16 33 -13 56zM350 555q4 18 19 33q8 8 18 16q14 14 43 35l47 35q23 18 29 24.5t31.5 29t33.5 30.5l31 28l33 33l27 29q16 16 30 33l25 32q12 14 32.5 17.5 t36 -9t18.5 -33t-9 -36.5l-37 -43l-33 -37q-12 -14 -41 -41l-33 -35q-8 -6 -43 -37.5t-37 -33.5q-8 -8 -34 -29l-48 -35l-34 -29q6 -12 18 -32l80 -115l152 -199q12 -16 10 -36.5t-18.5 -33t-37 -10t-32.5 18.5l-154 201l-84 123q-18 31 -27 51q-16 33 -12 55z" />
<glyph unicode="&#xac;" horiz-adv-x="753" d="M55 677.5q0 20.5 15.5 34t35 13.5t285.5 20l174 13q39 2 60 2h22q6 -2 10 -2q12 -2 23 -10q33 -23 47 -84q14 -57 14 -158q0 -123 2 -146q2 -20 -11 -35.5t-33.5 -17.5t-36 11.5t-17.5 33.5q-2 27 -2 154q0 88 -10 133q-4 14 -6 23q-20 0 -56 -3l-174 -12 q-291 -20 -295 -20q-20 0 -33.5 15t-13.5 35.5z" />
<glyph unicode="&#xad;" horiz-adv-x="542" d="M74 606.5q2 20.5 17.5 33.5t35.5 11q94 -8 346 11q20 2 35.5 -11.5t17.5 -34t-11 -36t-34 -17.5q-262 -18 -362 -10q-20 2 -33.5 17.5t-11.5 36z" />
<glyph unicode="&#xae;" horiz-adv-x="954" d="M72 770q18 276 123 465q125 223 321 229h6q16 2 29 -6q106 -66 184 -165t121 -210.5t62.5 -238.5t13.5 -246q-4 -119 -29 -233q-18 -90 -61 -168q-41 -78 -107.5 -143.5t-152.5 -86t-195 9.5q-176 57 -262 306q-72 213 -53 487zM170 762q-16 -254 49 -449 q68 -201 197 -241q141 -45 248.5 50t144.5 263q23 104 27 216t-13.5 224.5t-55.5 212t-102.5 186.5t-152.5 142q-137 -8 -231 -178q-92 -168 -111 -426zM268 375q6 16 22.5 25.5t35.5 7.5q12 152 -21 458l-8 8q-12 14 -12 35t16 35q61 55 126 77.5t117 13.5t93 -40.5 t61 -81.5q20 -43 12 -96t-48 -92q-66 -63 -193 -68q88 -158 221 -270l12 12q14 12 35 12.5t34 -15t13 -36t-16 -34.5l-94 -86q-14 -12 -35 -11.5t-34 15t-12 35t15 34.5l8 9q-111 94 -188 213q0 -76 -6 -148q0 -8 -4 -14l26 -11q18 -8 25.5 -26.5t-0.5 -37.5t-26.5 -26.5 t-39.5 0.5q-45 20 -104 39q-18 6 -27.5 24.5t-3.5 39.5zM401 899q12 -117 15 -143q127 -8 178 41q33 33 14 80q-12 27 -37.5 45t-72 16t-97.5 -39z" />
<glyph unicode="&#xaf;" horiz-adv-x="735" d="M62 1390.5q1 20.5 16 34t35 13.5q45 -8 280.5 -2t280.5 6q20 0 34.5 -14.5t14.5 -35t-14.5 -35t-34.5 -14.5q-43 0 -282.5 -6t-282.5 2q-20 2 -34 16.5t-13 35z" />
<glyph unicode="&#xb0;" horiz-adv-x="573" d="M70 987q-23 94 10 211q31 113 100 184q59 64 131 72q27 27 60 8q80 -47 124 -121.5t46 -148.5t-17 -148q-33 -113 -121 -179t-196 -31q-106 35 -137 153zM166 1012q16 -66 70 -84q59 -20 114.5 20.5t79.5 124.5q27 70 7.5 150t-83.5 131h-12q-45 10 -90 -39 q-53 -53 -78 -144q-27 -90 -8 -159z" />
<glyph unicode="&#xb1;" horiz-adv-x="894" d="M64.5 315.5q-1.5 20.5 12.5 35t34 16.5q117 6 356 51q252 47 373 51q20 0 35.5 -13.5t15.5 -34t-13.5 -35.5t-33.5 -15q-121 -4 -359 -49q-248 -47 -370 -54q-20 0 -34.5 13.5t-16 34zM65.5 739.5q-2.5 20.5 11 36t34.5 17.5q94 8 233 34q-14 162 23 279q6 20 24.5 29.5 t38 3.5t28.5 -25t3 -37q-31 -96 -19 -231q170 33 263 45q20 2 36.5 -10.5t18.5 -33t-10.5 -36.5t-32.5 -18q-90 -10 -260 -43q25 -125 75 -209q10 -16 5 -36t-22 -31t-36.5 -6t-32.5 24q-59 96 -88 237q-141 -27 -239 -35q-20 -2 -35.5 11.5t-18 34z" />
<glyph unicode="&#xb2;" horiz-adv-x="673" d="M18.5 1284q1.5 21 18 33t37 10t32.5 -18l7 -9q68 84 159 119q70 29 125 11q70 -20 99 -103q10 -35 -4 -90q-8 -39 -33 -98l-107 -232q-63 -141 -78 -205q-6 -25 -6 -43q43 -4 129 7q96 10 117 10l-2 16q-2 18 10.5 34.5t31.5 20t35.5 -9t20.5 -32.5l21 -142 q2 -18 -10.5 -34.5t-32 -19.5t-35.5 9t-21 33l-4 29q-23 -2 -118 -13q-102 -10 -160 -4q-61 8 -76 68q-10 37 4 94q16 74 86 223q96 213 103 228q23 53 30 86l4 32q-10 35 -32 41q-23 8 -60 -6q-39 -16 -76.5 -47t-56.5 -59q12 -14 10 -34t-16 -32q-14 -14 -34.5 -12 t-35.5 16l-71 86q-12 16 -10.5 37z" />
<glyph unicode="&#xb3;" horiz-adv-x="749" d="M58.5 1249.5q-5.5 20.5 6 37t32 21.5t36.5 -8l17 -10q55 98 155 142q63 27 119 12q68 -18 106 -88q49 -90 -32 -191q98 -18 151 -106q63 -109 39 -204t-115 -146q-76 -49 -187.5 -34t-205.5 99q-14 -12 -33.5 -12t-34 14.5t-14.5 33.5t15 36q8 8 15 16t11 11.5t6 5.5t2 3 t3 1v2l1 1t2 4t3 7t4 12l8 19q8 18 27.5 25.5t38 -1t25.5 -28t-1 -37.5l-16 -37q51 -45 105 -64.5t98 -15.5t79 25q55 31 68.5 85t-25.5 126q-45 72 -151 65q-2 -2 -7.5 -4t-7.5 -4q-16 -8 -30 -8q-37 -4 -58 28q-14 25 0 50q4 6 9 10l4 4q2 2 4 2l6 6l20 12q31 23 54 47 q55 57 34 93q-18 35 -45 41q-25 8 -55 -7q-35 -16 -66.5 -46.5t-48.5 -61.5q0 -2 -2 -4h2q14 -14 16.5 -34.5t-12 -35t-35 -16.5t-34.5 12l-29 25l-8 8q-2 2 -12 8l-35 23q-16 10 -21.5 30.5z" />
<glyph unicode="&#xb4;" horiz-adv-x="323" d="M20 1307q4 20 17 45q14 33 35 61q49 74 145 148q16 12 36.5 9t33 -18.5t9.5 -36t-17 -32.5q-84 -63 -125 -123q-6 -10 -15 -23q43 -4 64 -18q18 -10 24 -29q8 -23 -2 -45q-10 -20 -37 -35q-35 -16 -77 -14q-66 2 -88 51q-10 25 -3 60z" />
<glyph unicode="&#xb5;" horiz-adv-x="880" d="M39 1034.5q-2 20.5 11.5 35.5t33.5 17q137 10 195 23q20 2 37.5 -9t20.5 -30.5t-8.5 -37t-29.5 -21.5q-37 -6 -78 -11l27 -245q23 -207 31 -334l8 -90q2 -4 4 -10q6 -14 17 -44t18.5 -46.5t18.5 -39t22 -40.5q47 -70 116 -68q82 4 142 100q55 92 88 258q37 201 39 506 l-27 -6q-20 -6 -37.5 5t-23 30.5t6 37t29.5 21.5q86 20 148 39q20 6 37.5 -4t23.5 -29.5t-4 -37t-28 -23.5l-27 -8q0 -332 -41 -549q-35 -176 -94 -281l65 -77q14 -16 12.5 -37t-17 -34t-36 -11t-32.5 16l-54 61q-72 -72 -166 -75q-119 -6 -196 102v-2q-4 -172 -43 -248 q-4 -8 -10 -14l10 -12q10 -16 7 -37t-19.5 -32t-37 -8t-32.5 19q-37 53 -68 92q-14 14 -12 35t17.5 34t35 11t33.5 -16q18 61 21 178q4 129 -11 328q-10 125 -32 332l-27 243l-31 -2q-20 -2 -35.5 11.5t-17.5 34z" />
<glyph unicode="&#xb6;" horiz-adv-x="948" d="M37 965q-20 98 19.5 191t117.5 163t178 106q100 35 203 25q111 -10 203 -78q94 -70 153 -198q8 -18 1 -38t-25.5 -28t-38 -1t-27.5 25.5t-18 36.5q2 -158 0 -548q18 -2 31.5 -17.5t11.5 -36.5q-2 -18 -14.5 -30.5t-30.5 -14.5q-2 -307 6 -510h12q20 0 34.5 -14 t14.5 -34.5t-14 -35t-35 -14.5q-59 0 -121 6q-18 2 -31.5 18.5t-11.5 36.5q2 18 17.5 31.5t36.5 11.5q-9 201 -7 512q-63 8 -116 19q4 -264 12 -512q37 -6 41 -43q2 -20 -10.5 -36.5t-32.5 -18.5q-51 -6 -109 -13q-20 -2 -36.5 11.5t-18.5 33t11.5 36t31.5 18.5l25 2 q-8 264 -13 546q-43 12 -79 29q-328 137 -371 363zM133 983q35 -174 311 -291q20 -8 41 -14q-2 182 -2 379q0 27 6 160q5 88 5 137q-141 -8 -254 -107q-63 -57 -92 -125.5t-15 -138.5zM582 1057q0 -211 2 -408q55 -10 121 -18q3 458 -3 659q-49 39 -110 53q0 -49 -4 -133 q-6 -125 -6 -153z" />
<glyph unicode="&#xb7;" horiz-adv-x="204" d="M59 798.5q0 20.5 14.5 35t35 14.5t35 -14.5t14.5 -35t-14.5 -34.5t-35 -14t-35 14t-14.5 34.5z" />
<glyph unicode="&#xb8;" horiz-adv-x="204" d="M-27 -137.5q2 20.5 17 35.5q37 33 46 65.5t9 102.5q0 20 14.5 34.5t35 14.5t34.5 -14.5t14 -34.5q0 -55 -4 -88t-23.5 -75t-60.5 -79q-14 -14 -34.5 -12t-35 16t-12.5 34.5z" />
<glyph unicode="&#xb9;" horiz-adv-x="448" d="M58.5 1279.5q5.5 19.5 23.5 29.5q12 6 65 49l37 26q8 8 15 11q4 4 7 6t7 2q14 6 27 4q41 -8 59 -57q10 -27 16 -72q10 -70 13 -191q0 -55 -4 -307h38q20 0 35 -14t15 -34.5t-14.5 -35t-35.5 -14.5q-145 0 -210 -14q-20 -2 -38 9t-21 30.5t8.5 37t29.5 21.5q43 8 94 12 q4 268 4 307q-2 115 -10 179q-2 12 -4 20l-6 -4q-59 -45 -78 -57q-18 -10 -37.5 -5t-30 23.5t-5 38z" />
<glyph unicode="&#xba;" horiz-adv-x="532" d="M82 1014q8 115 51 225q47 115 105 162q16 12 38 20q10 6 21 9h6l6 2q10 2 15 4q38 16 61 -21q57 -27 90 -98q41 -94 33 -236q-8 -133 -55 -237q-57 -127 -152 -137q-129 -12 -186 94q-45 80 -33 213zM178 1008q-8 -104 23 -160q27 -49 92 -43q35 4 69 80q39 86 48 202 q6 119 -25 189q-25 55 -66 55h-2q-14 -4 -18 -8q-39 -29 -74 -121q-39 -96 -47 -194z" />
<glyph unicode="&#xbb;" horiz-adv-x="874" d="M83 888.5q-1 20.5 12.5 35t34 15.5t34.5 -11l172 -154l98 -90q51 -49 64 -72q27 -47 4 -98l-8 -12l-5 -2l-2 -4l-2 -2l-10 -7l-29 -24l-92 -70q-137 -106 -159 -129q-14 -14 -35 -14t-35 14.5t-14 34.5t14 35q27 27 168 137l92 70l27 20v2q-6 10 -45 49l-97 90l-172 152 q-14 14 -15 34.5zM364.5 916.5q-2.5 19.5 12 35t34 17t35.5 -12.5q53 -47 191 -188q70 -72 111 -119q25 -29 36 -45q8 -12 15 -20q10 -20 8 -37q-2 -23 -21 -47q-10 -18 -30 -41l-88 -90l-90 -82q-55 -51 -66 -62q-14 -14 -34.5 -14t-35 14.5t-14.5 35t14 34.5q10 10 68 61 l90 84q53 51 82 84l20 25q-10 14 -28 35q-39 45 -109 116q-133 137 -184 183q-14 14 -16.5 33.5z" />
<glyph unicode="&#xbc;" horiz-adv-x="1435" d="M62.5 4q-5.5 21 6 37t32 21.5t36.5 -7.5l17 -10q51 68 118 170l127 197l600 895l-10 8q-16 12 -19 31.5t9 36t32 19.5t36 -9l28 -21q12 -8 14.5 -10t9.5 -7t8 -5t14.5 -8.5t25.5 -14.5q18 -10 23.5 -30.5t-5 -38t-31 -22.5t-36.5 5l-19 10l-598 -893l-127 -196 q-66 -100 -118 -170l4 -4q18 -12 21 -31.5t-8 -37t-30.5 -20.5t-36.5 7l-102 67q-16 10 -21.5 31zM84.5 1246.5q6.5 19.5 24.5 29.5q27 14 88 63l41 31q10 8 16 11t12 5q6 4 15 5q18 2 34 -11q14 -12 23 -32q4 -12 6 -29q6 -25 8 -70q6 -72 10 -190v-318h50q20 0 34.5 -14 t14.5 -34.5t-14.5 -35t-34.5 -14.5q-166 0 -213 -4q-20 -2 -36 11.5t-18 34t11.5 35.5t33.5 17q33 2 74 4v316q-4 117 -8 184q-2 10 -2 19q-66 -51 -100 -70q-16 -10 -36 -4t-30 23.5t-3.5 37zM825 313q6 14 21 29q14 12 16 14h2q2 4 6 11q33 51 41.5 71.5t18.5 42.5 q57 127 71 310q-23 -2 -36 -5q-20 -2 -37 10.5t-19 33t10.5 37t32.5 18.5q59 6 111 6q20 0 34.5 -14.5t14.5 -34.5q0 -18 -10 -31q-16 -225 -82 -371q-37 -78 -51 -100l98 10l127 10q-10 248 -31 443q-37 10 -35 49q2 20 16.5 34.5t35.5 12.5l69 -4q20 -2 34.5 -16.5 t12.5 -34.5q-2 -33 -32 -45q18 -188 28 -430q43 4 68 4q20 0 35.5 -13.5t15.5 -34t-13.5 -36t-33.5 -15.5q-27 0 -68 -4q2 -84 7 -200v-7q18 2 34 3q20 0 36 -13.5t16 -34t-13.5 -36t-34.5 -15.5q-37 -2 -105.5 -7t-82.5 -5q-18 -2 -33.5 12.5t-17.5 33.5t12 34.5t34.5 17.5 t57.5 4q-2 4 -2 9q-4 117 -6 196l-121 -10l-139 -14q-31 -2 -45 -5h-14h-7q-4 0 -8 1.5t-8 1.5q-12 4 -20 14q-25 29 -11 63z" />
<glyph unicode="&#xbd;" horiz-adv-x="1298" d="M75 4q-5 21 6 37t31.5 21.5t37.5 -7.5l16 -10q51 68 119 170l127 197l600 895l-11 8q-16 12 -19 31.5t9.5 36t32 19.5t35.5 -9l28 -21q12 -8 14.5 -10t9.5 -7t8 -5t14.5 -8.5t25.5 -14.5q18 -10 23.5 -30.5t-5 -38t-31 -22.5t-36.5 5l-18 10l-598 -893l-127 -196 q-66 -100 -119 -170l4 -4q18 -12 21 -31.5t-8 -37t-30.5 -20.5t-35.5 7l-103 67q-16 10 -21 31zM96.5 1246.5q6.5 19.5 24.5 29.5q27 14 88 63l41 31q10 8 16 11t13 5q6 4 14 5q18 2 35 -11q14 -12 22 -32q4 -12 6 -29q6 -25 9 -70q6 -72 10 -190v-318h49q20 0 34.5 -14 t14.5 -34.5t-14.5 -35t-34.5 -14.5q-166 0 -213 -4q-20 -2 -35.5 11.5t-17.5 34t11 35.5t34 17q33 2 73 4v316q-4 117 -8 184q-2 10 -2 19q-66 -51 -100 -70q-16 -10 -35.5 -4t-30 23.5t-4 37zM705.5 594.5q7.5 19.5 25 29t35.5 3.5q39 72 100.5 114.5t124.5 42.5 q74 2 114 -53t19 -145q-18 -94 -133 -250l-90 -119q-39 -51 -59 -84q37 2 96 6q37 4 121 15q41 4 49 6q0 16 11 29.5t30 17.5q18 2 35.5 -9.5t21.5 -31.5q10 -66 25 -117q6 -18 -4 -36.5t-29.5 -23.5t-38 5t-22.5 31l-11 38q-16 -2 -55 -6q-86 -12 -123 -14q-78 -8 -123 -8 q-29 0 -49 4q-37 6 -53 31q-27 39 8 80q2 2 12 14l2 2q27 41 78 110l88 117q102 139 119 213q8 47 -6 68q-8 12 -31 12q-35 0 -74.5 -27.5t-66.5 -78.5v-2q4 -16 0 -33q-8 -18 -25.5 -27.5t-38.5 -3.5l-53 18q-18 8 -27.5 25.5t-2 37z" />
<glyph unicode="&#xbe;" horiz-adv-x="1552" d="M61 774.5q2 20.5 19 32.5l35 27h2q0 2 6 14l24 47q10 16 30 22.5t37 -4t23.5 -30t-4.5 -37.5q-12 -20 -20 -39v-2q18 -33 69.5 -59.5t108.5 -30.5q57 -2 92 20.5t41 69.5q8 61 -59 110q-18 12 -59 35q-16 10 -25 15q-27 16 -31 41q-10 37 23 61q10 8 30 12q2 0 7.5 2 t9.5 2q76 72 31 154q-18 33 -37 41q-14 6 -33 -2q-47 -19 -80 -82l4 -4q14 -14 16.5 -34.5t-12 -35t-35 -16.5t-34.5 12q-10 8 -21 19l-8 8q-2 2 -7 6t-8 5t-14 9l-24 17q-18 12 -21.5 31.5t8 37t31 20.5t35.5 -7l12 -9q49 84 121 115q55 20 107 2q51 -20 86 -84 q39 -80 24.5 -147.5t-72.5 -122.5q18 -10 33 -21q115 -82 101 -202q-12 -94 -86 -142q-61 -39 -150 -33q-70 2 -137.5 33t-106.5 80l-2 -2q-16 -12 -36.5 -10t-33 18.5t-10.5 37zM128.5 4q-5.5 21 5.5 37t31.5 21.5t37.5 -7.5l16 -10q51 68 119 170l127 197l600 895l-10 8 q-16 12 -19.5 31.5t9 36t32 19.5t35.5 -9l29 -21q12 -8 14 -10t9 -7t8.5 -5t14.5 -8.5t25 -14.5q18 -10 23.5 -30.5t-4.5 -38t-30.5 -22.5t-37.5 5l-18 10l-598 -893l-127 -196q-66 -100 -119 -170l4 -4q18 -12 21.5 -31.5t-8 -37t-31 -20.5t-35.5 7l-102 67 q-16 10 -21.5 31zM891 313q6 14 20 29q14 12 17 14h2q2 4 6 11q33 51 41 71.5t18 42.5q57 127 72 310q-23 -2 -37 -5q-20 -2 -36.5 10.5t-18.5 33t10.5 37t32.5 18.5q59 6 110 6q20 0 35 -14.5t15 -34.5q0 -18 -11 -31q-16 -225 -82 -371q-37 -78 -51 -100l99 10l127 10 q-10 248 -31 443q-37 10 -35 49q2 20 16.5 34.5t34.5 12.5l70 -4q20 -2 34.5 -16.5t12.5 -34.5q-2 -33 -33 -45q18 -188 29 -430q43 4 67 4q20 0 36 -13.5t16 -34t-13.5 -36t-33.5 -15.5q-27 0 -68 -4q2 -84 6 -200v-7q18 2 35 3q20 0 35.5 -13.5t15.5 -34t-13.5 -36 t-33.5 -15.5q-37 -2 -105.5 -7t-82.5 -5q-18 -2 -34 12.5t-18 33.5t12.5 34.5t35 17.5t57.5 4q-2 4 -2 9q-4 117 -6 196l-121 -10l-139 -14q-31 -2 -46 -5h-14h-6q-4 0 -8 1.5t-8 1.5q-12 4 -21 14q-25 29 -10 63z" />
<glyph unicode="&#xbf;" horiz-adv-x="909" d="M127 57q-135 158 16 414q23 37 121 180q68 96 84 144q39 104 -16 286h-15q-20 0 -33.5 15.5t-13.5 36t15.5 34t36.5 13.5q59 -2 65 -4q6 0 25 -5l43 -12q20 -4 31.5 -21.5t5.5 -35.5q-4 -18 -19.5 -29.5t-34.5 -9.5q47 -178 4 -301q-23 -59 -96 -168q-96 -139 -119 -174 q-37 -63 -54 -113.5t-11 -98.5t39 -89q53 -61 125 -58q70 2 149 60q63 47 116.5 113.5t80.5 127.5l-19 -4q-20 -2 -37.5 9.5t-20.5 31t8.5 37t29.5 21.5q109 20 188 26q20 2 35.5 -11t18 -33.5t-11 -36t-34.5 -17.5l-49 -4q-20 -86 -89.5 -181.5t-158.5 -158.5 q-104 -74 -202 -78q-121 -6 -203 94zM307 1345.5q0 20.5 14.5 35t35 14.5t35 -14.5t14.5 -35t-14.5 -35t-35 -14.5t-35 14.5t-14.5 35z" />
<glyph unicode="&#xc0;" horiz-adv-x="1470" d="M41 30.5q0 20.5 14.5 35t34.5 14.5h100l111 301l-106 -19v-4q0 -20 -14.5 -34.5t-35 -14.5t-35 14.5t-14.5 34.5q0 51 -4 129q0 20 13.5 35t34 16t34.5 -12.5t16 -33.5l3 -31l145 24l190 592l64 185q25 76 43 118q10 27 16 41q4 8 8 15l9 12q20 18 45 14q23 -4 37 -24 q6 -8 12 -21q8 -18 18 -49q14 -47 35 -129q10 -43 20.5 -91t18.5 -82t8 -38q43 -176 75 -288.5t86 -264t127 -273.5t163 -218l73 51q16 10 36 7t31 -20.5t8 -37t-21 -31.5q-27 -18 -195 -148q-16 -12 -36.5 -9t-33 18.5t-9.5 36t18 32.5l51 39q-184 199 -307 529 q-205 -2 -516 -54q-59 -170 -117 -317h51q20 0 34.5 -14.5t14.5 -35t-14 -34.5t-35 -14h-121h-2h-2h-131q-20 0 -34.5 14t-14.5 34.5zM446 504q260 39 447 45q-55 162 -125 455q-2 6 -9 39.5t-20 82.5l-20 88q-8 39 -17 68l-18 -53q-53 -156 -61 -180zM561.5 1650.5 q-0.5 20.5 13 36t34 15.5t34.5 -14q119 -111 201 -164q16 -10 21 -30.5t-6 -37t-31.5 -21.5t-36.5 7q-90 59 -213 176q-16 12 -16.5 32.5z" />
<glyph unicode="&#xc1;" horiz-adv-x="1464" d="M23 30.5q0 20.5 14 35t35 14.5h100l111 301l-107 -19v-4q0 -20 -14.5 -34.5t-35 -14.5t-34.5 14.5t-14 34.5q0 51 -4 129q0 20 13 35t33.5 16t35 -12.5t16.5 -33.5l2 -31l145 24l191 592l63 185q25 76 43 118q10 27 17 41q4 8 8 15l8 12q20 18 45 14q23 -4 37 -24 q6 -8 12 -21q8 -18 19 -49q14 -47 35 -129q10 -43 20 -91t18.5 -82t8.5 -38q43 -176 74.5 -288.5t86 -264t127 -273.5t162.5 -218l74 51q16 10 35.5 7t31 -20.5t8 -37t-21.5 -31.5q-27 -18 -194 -148q-16 -12 -37 -9t-33 18.5t-9 36t17 32.5l52 39q-184 199 -308 529 q-205 -2 -516 -54q-59 -170 -117 -317h52q20 0 34.5 -14.5t14.5 -35t-14.5 -34.5t-34.5 -14h-121h-2h-2h-131q-20 0 -34.5 14t-14.5 34.5zM428 504q260 39 446 45q-55 162 -124 455q-2 6 -9.5 39.5t-19.5 82.5l-21 88q-8 39 -16 68l-18 -53q-53 -156 -62 -180zM554.5 1528.5 q7.5 19.5 25.5 27.5q82 37 190 132q16 14 36.5 12t34 -17.5t11.5 -36t-16 -32.5q-123 -104 -215 -148q-18 -8 -38 -0.5t-28 25.5t-0.5 37.5z" />
<glyph unicode="&#xc2;" horiz-adv-x="1482" d="M35 30.5q0 20.5 14 35t35 14.5h100l111 301l-107 -19v-4q0 -20 -14 -34.5t-34.5 -14.5t-35 14.5t-14.5 34.5q0 51 -4 129q0 20 13.5 35t34 16t34.5 -12.5t16 -33.5l2 -31l146 24l190 592l64 185q25 76 43 118q10 27 16 41q4 8 8 15l9 12q20 18 45 14q23 -4 36 -24 q6 -8 13 -21q8 -18 18 -49q14 -47 35 -129q10 -43 20.5 -91t18.5 -82t8 -38q43 -176 75 -288.5t86 -264t127 -273.5t163 -218l73 51q16 10 36 7t31 -20.5t8 -37t-21 -31.5q-27 -18 -195 -148q-16 -12 -36.5 -9t-33 18.5t-9.5 36t18 32.5l51 39q-184 199 -307 529 q-205 -2 -516 -54q-59 -170 -117 -317h51q20 0 34.5 -14.5t14.5 -35t-14.5 -34.5t-34.5 -14h-121h-2h-2h-131q-20 0 -34.5 14t-14.5 34.5zM440 504q260 39 447 45q-55 162 -125 455q-2 6 -9.5 39.5t-19.5 82.5l-20 88q-8 39 -17 68l-18 -53q-53 -156 -62 -180zM516 1493.5 q0 20.5 12 34.5l58 65q37 39 51 54q55 55 102 51q45 -4 95 -68l26 -35q14 -20 37 -53l41 -57q10 -16 7 -37t-19.5 -32t-37 -8t-32.5 19l-39 56l-37 53l-24 33q-14 20 -25 28l-24 -20q-12 -12 -48 -53l-57 -62q-14 -16 -34.5 -16t-36 13.5t-15.5 34z" />
<glyph unicode="&#xc3;" horiz-adv-x="1458" d="M35 30.5q0 20.5 14 35t35 14.5h100l111 301l-107 -19v-4q0 -20 -14 -34.5t-34.5 -14.5t-35 14.5t-14.5 34.5q0 51 -4 129q0 20 13.5 35t34 16t34.5 -12.5t16 -33.5l2 -31l146 24l190 592l64 185q25 76 43 118q10 27 16 41q4 8 8 15l9 12q20 18 45 14q23 -4 36 -24 q6 -8 13 -21q8 -18 18 -49q14 -47 35 -129q10 -43 20.5 -91t18.5 -82t8 -38q43 -176 75 -288.5t86 -264t127 -273.5t163 -218l73 51q16 10 36 7t31 -20.5t8 -37t-21 -31.5q-27 -18 -195 -148q-16 -12 -36.5 -9t-33 18.5t-9.5 36t18 32.5l51 39q-184 199 -307 529 q-205 -2 -516 -54q-59 -170 -117 -317h51q20 0 34.5 -14.5t14.5 -35t-14.5 -34.5t-34.5 -14h-121h-2h-2h-131q-20 0 -34.5 14t-14.5 34.5zM440 504q260 39 447 45q-55 162 -125 455q-2 6 -9.5 39.5t-19.5 82.5l-20 88q-8 39 -17 68l-18 -53q-53 -156 -62 -180zM485.5 1508.5 q-6.5 19.5 3.5 37.5q72 139 156 131q51 -4 121 -80q43 -49 55 -51q2 0 6 1t20.5 18.5t35.5 52.5q10 18 29.5 24.5t37 -4t23.5 -30t-4 -35.5q-74 -135 -160 -125q-49 6 -117 84q-43 47 -55 49q-25 -8 -62 -80q-8 -18 -27.5 -24.5t-37.5 3t-24.5 29z" />
<glyph unicode="&#xc4;" horiz-adv-x="1476" d="M35 30.5q0 20.5 14 35t35 14.5h100l111 301l-107 -19v-4q0 -20 -14 -34.5t-34.5 -14.5t-35 14.5t-14.5 34.5q0 51 -4 129q0 20 13.5 35t34 16t34.5 -12.5t16 -33.5l2 -31l146 24l190 592l64 185q25 76 43 118q10 27 16 41q4 8 8 15l9 12q20 18 45 14q23 -4 36 -24 q6 -8 13 -21q8 -18 18 -49q14 -47 35 -129q10 -43 20.5 -91t18.5 -82t8 -38q43 -176 75 -288.5t86 -264t127 -273.5t163 -218l73 51q16 10 36 7t31 -20.5t8 -37t-21 -31.5q-27 -18 -195 -148q-16 -12 -36.5 -9t-33 18.5t-9.5 36t18 32.5l51 39q-184 199 -307 529 q-205 -2 -516 -54q-59 -170 -117 -317h51q20 0 34.5 -14.5t14.5 -35t-14.5 -34.5t-34.5 -14h-121h-2h-2h-131q-20 0 -34.5 14t-14.5 34.5zM440 504q260 39 447 45q-55 162 -125 455q-2 6 -9.5 39.5t-19.5 82.5l-20 88q-8 39 -17 68l-18 -53q-53 -156 -62 -180zM561 1556.5 q0 20.5 14.5 35t35 14.5t34.5 -14.5t14 -35t-14 -35t-34.5 -14.5t-35 14.5t-14.5 35zM727 1552.5q0 20.5 14.5 35t35 14.5t34.5 -14.5t14 -35t-14 -35t-34.5 -14.5t-35 14.5t-14.5 35z" />
<glyph unicode="&#xc5;" horiz-adv-x="1445" d="M23 30.5q0 20.5 14 35t35 14.5h100l111 301l-107 -19v-4q0 -20 -14.5 -34.5t-35 -14.5t-34.5 14.5t-14 34.5q0 51 -4 129q0 20 13 35t33.5 16t35 -12.5t16.5 -33.5l2 -31l145 24l191 592l63 185l33 96q-80 23 -121 69q-51 59 -32 132q14 66 74.5 111.5t142.5 55.5 q100 12 169.5 -22.5t82.5 -106.5q8 -66 -38 -123t-128 -88l6 -18q14 -47 35 -129q10 -43 20 -91t18.5 -82t8.5 -38q43 -176 74.5 -288.5t86 -264t127 -273.5t162.5 -218l74 51q16 10 35.5 7t31 -20.5t8 -37t-21.5 -31.5q-27 -18 -194 -148q-16 -12 -37 -9t-33 18.5t-9 36 t17 32.5l52 39q-184 199 -308 529q-205 -2 -516 -54q-59 -170 -117 -317h52q20 0 34.5 -14.5t14.5 -35t-14.5 -34.5t-34.5 -14h-121h-2h-2h-131q-20 0 -34.5 14t-14.5 34.5zM428 504q260 39 446 45q-55 162 -124 455q-2 6 -9.5 39.5t-19.5 82.5l-21 88q-8 39 -16 68l-18 -53 q-53 -156 -62 -180zM547 1538q-4 -27 12 -45q27 -31 92 -45q16 16 39 14q9 9 21 13q63 20 90 53q27 31 22 55q-2 10 -11 22.5t-44 20.5t-86 2q-55 -6 -91 -33.5t-44 -56.5z" />
<glyph unicode="&#xc6;" horiz-adv-x="1992" d="M41 30.5q0 20.5 14.5 35t34.5 14.5h100l111 301l-106 -19v-4q0 -20 -14.5 -34.5t-35 -14.5t-35 14.5t-14.5 34.5q0 51 -4 129q0 20 13.5 35t34 16t34.5 -12.5t16 -33.5l3 -31l145 24l190 592l64 185q25 76 43 118q10 27 16 41q4 8 8 15l9 12q20 18 45 14q4 -2 6 -2 q111 16 362 25q236 8 336 18v27q0 20 14.5 34.5t35 14.5t35 -14.5t14.5 -34.5v-19v-14v-8v-6v-4q0 -2 2 -4l2 -7q2 -4 5 -14t9 -22q6 -18 -3 -37t-27.5 -26t-37 2t-26.5 28l-2 8q-109 -12 -353 -21q-203 -6 -305 -18q14 -47 35 -129q10 -43 20.5 -91t18.5 -82t8 -38 q72 -293 125 -453q63 8 143 11.5t127.5 3.5t149.5 -3t129 -3l-2 2q-8 18 -1 37.5t25.5 27.5t38 1t27.5 -25l51 -121q8 -18 0 -36.5t-26.5 -27t-37 0t-26.5 26.5l-8 16q-47 0 -174 3.5t-214 2t-169 -9.5q119 -315 297 -501q221 106 538 59l-2 6q-2 20 10.5 36.5t33 18.5 t37 -10.5t18.5 -32.5q2 -18 3 -30.5t1 -16.5t1 -7t1 -6t1 -4t2 -4t3 -6t5 -11.5t7 -16.5q8 -20 1 -38.5t-26.5 -27t-38 -1t-26.5 25.5l-10 23h-10q-326 55 -537 -60q-35 -20 -61 12l-4 5q-205 205 -336 557q-205 -2 -516 -54q-59 -170 -117 -317h51q20 0 34.5 -14.5 t14.5 -35t-14 -34.5t-35 -14h-121h-2h-2h-131q-20 0 -34.5 14t-14.5 34.5zM446 504q257 39 441 45l4 4q-53 160 -123 451q-2 6 -9 39.5t-20 82.5l-20 88q-8 39 -17 68l-18 -53q-53 -156 -61 -180z" />
<glyph unicode="&#xc7;" d="M59.5 365q-39.5 249 51.5 567q39 129 117.5 267t160.5 206q51 41 100 49q63 10 111 -35q80 -74 100 -317q33 2 60 2q20 0 34.5 -14.5t14.5 -35t-14.5 -34.5t-34.5 -14q-4 0 -193 -11q-20 -2 -34.5 12.5t-16.5 35t12.5 35t34.5 16.5q16 0 39 2q-16 203 -70 252 q-12 12 -26 10q-23 -4 -53 -29q-70 -57 -141.5 -182t-106.5 -244q-59 -195 -59.5 -368t41.5 -281.5t112 -157.5q100 -72 225 15q154 109 285 413q-35 23 -64 45q-16 14 -18 34t11.5 36t33 18t35.5 -10q55 -45 186 -121q18 -10 23.5 -29.5t-5 -38t-29.5 -23.5t-38 5l-51 31 q-139 -319 -313 -440q-115 -80 -228 -62l-6 -55l-2 -16h23q37 0 63 -7q43 -8 66 -34q35 -43 18 -101q-29 -104 -123 -139q-66 -27 -170 -14q-20 2 -32.5 18.5t-10.5 36.5t18.5 32.5t36.5 10.5q78 -10 123 6q47 18 64 78v8q-4 2 -10 2q-16 4 -45 4h-50h-18q-8 0 -14 2 q-18 4 -31 19q-8 10 -10 22v6v2v3v8q0 6 2 16q2 16 4 47l10 80l-16 12q-143 100 -182.5 349z" />
<glyph unicode="&#xc8;" horiz-adv-x="890" d="M80 657q16 440 53 670q-2 2 -2 4q-2 20 10.5 35.5t32.5 19.5q51 6 199 35q131 25 196 31l-4 27q-2 20 10.5 36.5t33 18.5t37 -10.5t18.5 -32.5l16 -133q2 -20 -10.5 -36.5t-33 -19t-36.5 10t-18 33.5v10q-61 -6 -191 -31q-125 -25 -164 -31q-35 -242 -49 -637 q49 8 101.5 22.5t124 37t104.5 31.5q-2 4 -2 18v20q0 20 13 36t33.5 16t36 -13.5t15.5 -33.5v-23q0 -10 1 -14t1 -9v-4v-2q0 -2 4 -14l15 -45q6 -20 -4.5 -37.5t-30 -24t-36.5 4t-24 28.5v2q-23 -6 -104.5 -31.5t-138 -41t-111.5 -23.5q-4 -178 4 -297q4 -84 17 -133 q8 -43 16 -49q25 -23 94 -21q66 0 166 25q154 39 285 98l-10 29q-6 18 3 36.5t28.5 24.5t38 -3t24.5 -29q20 -66 47 -123q8 -18 1 -38t-25.5 -28t-38 -1t-27.5 26l-6 14q-139 -63 -297 -102q-111 -27 -189 -27q-106 -2 -160 45q-31 27 -47 102q-12 57 -18 148 q-10 158 -2 403zM216.5 1613.5q-5.5 20.5 5.5 37t32 21.5t37 -5l33 -25q18 -10 20 -12t11.5 -7t12.5 -6t21 -11l37 -19q18 -8 24.5 -27.5t-3 -38t-29 -24.5t-37.5 4q-18 8 -37.5 18.5t-23 11.5t-14.5 7t-13 8t-21 15l-34 22q-16 10 -21.5 30.5z" />
<glyph unicode="&#xc9;" horiz-adv-x="890" d="M80 664q16 434 53 663q-2 2 -2 4q-2 20 10.5 35.5t32.5 19.5q51 6 199 35q131 25 196 31l-4 27q-2 20 10.5 36.5t33 18.5t37 -10.5t18.5 -32.5l16 -133q2 -20 -10.5 -36.5t-33 -19t-36.5 10t-18 33.5v10q-61 -6 -191 -31q-125 -25 -164 -31q-35 -242 -49 -635v-2 q49 8 100.5 22.5t124 37t105.5 31.5q-2 4 -2 18v20q0 20 13 36t33.5 16t36 -13.5t15.5 -33.5v-23q0 -10 1 -14t1 -9v-4v-2q0 -2 4 -14l15 -45q6 -20 -4.5 -37.5t-30 -24t-36.5 4t-24 28.5v2q-23 -6 -105.5 -31.5t-138 -41t-110.5 -23.5q-4 -170 4 -285q4 -84 17 -133 q8 -43 16 -49q25 -20 92.5 -19t167.5 23q143 37 279 96l-4 15q-6 18 3 36.5t28.5 24.5t38 -3t24.5 -30q20 -66 47 -122q8 -18 1 -38t-25.5 -28t-38 -1t-27.5 26l-13 28q-141 -63 -290 -98q-113 -27 -189 -29q-106 0 -160 45q-31 27 -47 101q-12 57 -18 147q-10 156 -2 400z M202 1516.5q7 19.5 25 27.5q33 14 66 37t51 38t62 54q14 14 34.5 12t34.5 -16t12 -34.5t-16 -35.5q-4 -4 -12 -10q-113 -100 -191 -135q-18 -8 -37.5 -1t-27.5 25.5t-1 38z" />
<glyph unicode="&#xca;" horiz-adv-x="878" d="M80 659q16 438 53 668q-2 2 -2 4q-2 20 10.5 35.5t32.5 19.5q51 6 199 35q131 25 196 31l-4 27q-2 20 10.5 36.5t33 18.5t37 -10.5t18.5 -32.5l16 -133q2 -20 -10.5 -36.5t-33 -19t-36.5 10t-18 33.5v10q-61 -6 -191 -31q-125 -25 -164 -31q-35 -242 -49 -637 q49 8 100.5 22.5t124 37t105.5 31.5q-2 4 -2 18v20q0 20 13 36t33.5 16t36 -13.5t15.5 -33.5v-23q0 -10 1 -14t1 -9v-4v-2q0 -2 4 -14l15 -45q6 -20 -4.5 -37.5t-30 -24t-36.5 4t-24 28.5v2q-23 -6 -105.5 -31.5t-138 -41t-110.5 -23.5q-4 -176 4 -293q4 -84 17 -135 q8 -43 16 -49q25 -20 92.5 -20.5t165.5 24.5q139 35 274 92l-10 33q-6 18 3.5 36.5t28.5 24.5t37.5 -3t24.5 -29q20 -66 48 -123q8 -18 0.5 -38t-25.5 -28t-37.5 -1t-28.5 26l-4 12q-143 -61 -286 -96q-111 -29 -191 -29q-106 -2 -158 45q-31 29 -47 103q-12 57 -18 149 q-10 156 -2 401zM199 1509.5q-8 18.5 0 36.5q41 102 51 123q31 61 72 72q45 12 96 -39q25 -27 86 -105q12 -16 9 -36.5t-18.5 -32.5t-36 -9t-32.5 17q-57 76 -78 96l-4 4l-6 -12q-8 -16 -49 -115q-8 -18 -26.5 -26t-37 0t-26.5 26.5z" />
<glyph unicode="&#xcb;" horiz-adv-x="897" d="M72 326q-4 94 4 225q0 29 6 104q4 61 6 117q2 41 6 133q2 96 5 147.5t10.5 131.5t17.5 143v4q-2 20 10.5 35.5t32.5 19.5q51 6 199 35q131 25 196 31l-4 27q-2 20 10.5 36.5t33 18.5t36.5 -10.5t18 -32.5l17 -133q2 -20 -10.5 -36.5t-33 -19t-36.5 10t-18 33.5v10 q-61 -6 -191 -31q-125 -25 -166 -31q-8 -59 -14 -133t-9 -123t-5 -141q-4 -86 -7 -129q-4 -59 -6 -111q47 10 98.5 23.5t121 36t104.5 31.5q-2 4 -2 18v20q0 20 13 36t33.5 16t36 -13.5t15.5 -33.5v-23q0 -10 1 -14t1 -9v-4v-2q0 -2 4 -14l15 -45q6 -20 -4.5 -37.5t-30 -24 t-37 4t-23.5 28.5v2q-23 -8 -104 -32l-137 -39q-55 -16 -111 -25v-10q-8 -125 -4 -217q6 -145 6 -150q10 -88 33 -108q25 -20 93.5 -19.5t166.5 23.5q147 37 279 98l-7 19q-6 18 3.5 36.5t29 24.5t37.5 -3t25 -30q20 -66 47 -123q8 -18 1 -37.5t-25.5 -27.5t-38 -1t-27.5 25 l-11 25q-139 -63 -290 -100q-109 -27 -189 -29q-106 -2 -160 45q-51 45 -63 172q-2 8 -8 156zM254 1562.5q0 20.5 14.5 35t35 14.5t34.5 -14.5t14 -35t-14 -35t-34.5 -14.5t-35 14.5t-14.5 35zM408 1562.5q0 20.5 14 35t34.5 14.5t35 -14.5t14.5 -35t-14.5 -35t-35 -14.5 t-34.5 14.5t-14 35z" />
<glyph unicode="&#xcc;" horiz-adv-x="962" d="M37 1413q0 20 13 35.5t33.5 15.5t36 -13t15.5 -34l2 -41q178 2 627 49l-4 39q-2 20 11 36t33.5 18t36 -11.5t17.5 -33.5q6 -70 12 -119q2 -20 -10 -37t-33 -19q-37 -4 -51 29q-238 -25 -282 -29q14 -201 37.5 -600t37.5 -598q2 0 293 31l-4 33q-2 20 11.5 35.5t34 17.5 t35.5 -11.5t17 -33.5q8 -86 13 -117q2 -20 -10.5 -36.5t-32.5 -18.5q-39 -4 -54 33q-475 -49 -649 -51q-6 -37 -43 -41q-20 -2 -36.5 10t-18.5 33q-6 51 -16 114q-2 20 9 37t31.5 20t37 -8.5t20.5 -31.5l4 -35q119 2 260 12q-14 201 -37.5 600.5t-38.5 597.5 q-139 -10 -258 -12q-6 -37 -45 -39q-20 0 -35.5 13.5t-15.5 33.5q-2 57 -4 127zM251 1605.5q-3 20.5 8 37t32 19.5t37 -7q117 -82 186 -115q18 -10 25.5 -28.5t-2 -37t-27.5 -25.5t-37 1q-78 37 -203 123q-16 12 -19 32.5z" />
<glyph unicode="&#xcd;" horiz-adv-x="962" d="M37 1413q0 20 13 35.5t33.5 15.5t36 -13t15.5 -34l2 -41q178 2 627 49l-4 39q-2 20 11 36t33.5 18t36 -11.5t17.5 -33.5q6 -70 12 -119q2 -20 -10 -37t-33 -19q-37 -4 -51 29q-238 -25 -282 -29q14 -201 37.5 -600t37.5 -598q2 0 293 31l-4 33q-2 20 11.5 35.5t34 17.5 t35.5 -11.5t17 -33.5q8 -86 13 -117q2 -20 -10.5 -36.5t-32.5 -18.5q-39 -4 -54 33q-475 -49 -649 -51q-6 -37 -43 -41q-20 -2 -36.5 10t-18.5 33q-6 51 -16 114q-2 20 9 37t31.5 20t37 -8.5t20.5 -31.5l4 -35q119 2 260 12q-14 201 -37.5 600.5t-38.5 597.5 q-139 -10 -258 -12q-6 -37 -45 -39q-20 0 -35.5 13.5t-15.5 33.5q-2 57 -4 127zM307.5 1511.5q2.5 20.5 18.5 32.5l100 82q63 53 106 84q18 10 38 7t31 -20.5t8 -37t-19 -31.5q-41 -27 -101 -76l-102 -86q-16 -12 -36.5 -10t-33 18.5t-10 37z" />
<glyph unicode="&#xce;" horiz-adv-x="956" d="M31 1413q0 20 13 35.5t33.5 15.5t36 -13t15.5 -34l2 -41q178 2 627 49l-4 39q-2 20 11 36t33.5 18t36 -11.5t17.5 -33.5q6 -70 12 -119q2 -20 -10 -37t-33 -19q-37 -4 -51 29q-238 -25 -283 -29q14 -201 38 -600t38 -598q2 0 293 31l-4 33q-2 20 11.5 35.5t34 17.5 t35.5 -11.5t17 -33.5q8 -86 13 -117q2 -20 -10.5 -36.5t-32.5 -18.5q-39 -4 -54 33q-475 -49 -649 -51q-6 -37 -43 -41q-20 -2 -36.5 10t-18.5 33q-6 51 -17 114q-2 20 9.5 37t32 20t37 -8.5t20.5 -31.5l4 -35q119 2 260 12q-14 201 -38 600.5t-38 597.5q-139 -10 -258 -12 q-6 -37 -45 -39q-20 0 -35.5 13.5t-15.5 33.5q-2 57 -4 127zM246 1453.5q-6 19.5 4 35.5q82 154 84 156q45 74 92 79q51 8 106 -59q25 -29 107 -147q10 -18 7 -38t-20.5 -31t-37 -8t-31.5 19q-78 117 -100 144q-10 12 -19 18q-8 -10 -20 -29l-82 -149q-10 -18 -29.5 -24.5 t-37 4t-23.5 30z" />
<glyph unicode="&#xcf;" horiz-adv-x="968" d="M43 1413q0 20 13.5 35.5t34 15.5t35.5 -13t15 -34l2 -41q178 2 627 49l-4 39q-2 20 11.5 36t33.5 18t35.5 -11.5t17.5 -33.5q6 -70 13 -119q2 -20 -10.5 -37t-32.5 -19q-37 -4 -52 29q-238 -25 -282 -29q14 -201 37.5 -600t37.5 -598q2 0 293 31l-4 33q-2 20 11.5 35.5 t34 17.5t36 -11.5t17.5 -33.5q8 -86 12 -117q2 -20 -10.5 -36.5t-32.5 -18.5q-39 -4 -53 33q-475 -49 -650 -51q-6 -37 -43 -41q-20 -2 -36.5 10t-18.5 33q-6 51 -16 114q-2 20 9 37t31.5 20t37 -8.5t20.5 -31.5l4 -35q119 2 260 12q-14 201 -37.5 600.5t-38.5 597.5 q-139 -10 -258 -12q-6 -37 -45 -39q-20 0 -35.5 13.5t-15.5 33.5q-2 57 -4 127zM283 1552.5q0 20.5 14 35t34.5 14.5t35 -14.5t14.5 -35t-14.5 -35t-35 -14.5t-34.5 14.5t-14 35zM496 1556.5q0 20.5 14 35t34.5 14.5t35 -14.5t14.5 -35t-14.5 -35t-35 -14.5t-34.5 14.5 t-14 35z" />
<glyph unicode="&#xd0;" horiz-adv-x="1091" d="M39 749.5q0 20.5 14.5 35t34.5 14.5h80q0 225 -4 407l-25 -26q-14 -14 -34.5 -14.5t-35 14t-14.5 35t15 34.5q51 51 75.5 92t57.5 121q6 18 25.5 26.5t38 1.5t26.5 -26.5t0 -38.5l-8 -22q18 6 59 20q102 33 205 27q104 -6 193 -41t161 -111q72 -78 111 -186 q47 -129 34.5 -258t-60.5 -238.5t-134 -212.5q-111 -135 -265.5 -240.5t-314.5 -162.5q14 -25 27 -49q8 -18 1 -37.5t-25.5 -28t-38 -1.5t-27.5 26q-12 29 -29.5 54.5t-50.5 65.5t-45 58q-12 14 -9 34.5t18.5 33t36 9.5t32.5 -20l2 -2q0 72 1 262.5t1 294.5h-80 q-20 0 -34.5 14.5t-14.5 35zM262 1262q2 -203 4 -459q82 4 156 12q20 2 36.5 -10t18.5 -32.5t-10 -37t-33 -18.5q-82 -8 -168 -12q0 -109 -1 -310.5t-1 -292.5q143 53 279 148q137 96 235 215q250 303 142 614q-59 172 -213 237.5t-334 12.5q-61 -18 -80 -33 q-16 -10 -31 -34z" />
<glyph unicode="&#xd1;" d="M5 1427.5q1 20.5 15.5 34t34.5 13.5q80 -4 199 16q20 2 36.5 -9.5t19.5 -31.5t-8 -36.5t-32 -20.5l-32 -4q0 -137 -2 -302q35 78 75 144q182 299 391 258q117 -25 175 -152q25 -53 38 -129q14 -74 19 -112l8 -123q4 -125 4 -191.5t-2 -204t-2 -208.5q0 -344 57 -531 q41 14 95 31q18 6 36.5 -3t24.5 -28.5t-3 -38t-30 -24.5q-156 -47 -260 -103q-18 -10 -37.5 -4t-29 24.5t-3 38t24.5 27.5q45 25 90 43q-63 205 -63 568q0 72 2 206l2 203q2 66 -4 187q-4 82 -8 120q-4 41 -16.5 103.5t-33.5 107.5q-37 82 -104 95q-139 31 -289 -211 q-57 -96 -101 -208t-63 -198q-12 -504 -12 -721h25q20 0 34.5 -14t14.5 -34.5t-14.5 -35t-34.5 -14.5q-66 0 -142 -4q-20 -2 -34.5 12t-16.5 34.5t12.5 35t34.5 16.5l23 2q0 219 12 713q-4 10 -2 20l2 2q8 375 8 590q-45 -2 -88 0q-20 2 -33.5 16.5t-12.5 35zM360 1555.5 q-5 19.5 7 37.5q61 98 135 105q47 2 114 -41q43 -31 62 -31q27 -2 65 47q12 16 33 18.5t37 -10t18.5 -33t-10.5 -36.5q-72 -88 -149 -84q-43 2 -111 45q-39 27 -53 26q-23 -2 -59 -59q-10 -16 -30 -21.5t-37 6t-22 31z" />
<glyph unicode="&#xd2;" horiz-adv-x="935" d="M72 770q18 276 123 465q125 223 321 229h6q16 2 29 -6q106 -66 184 -165t121 -210.5t62.5 -238.5t13.5 -246q-4 -119 -29 -233q-18 -90 -61 -168q-41 -78 -107.5 -143.5t-152.5 -86t-195 9.5q-176 57 -262 306q-72 213 -53 487zM170 762q-16 -254 49 -449 q68 -201 197 -241q141 -45 248.5 50t144.5 263q23 104 27 216t-13.5 224.5t-55.5 212t-102.5 186.5t-152.5 142q-137 -8 -231 -178q-92 -168 -111 -426zM356.5 1637.5q-6.5 19.5 3 38t29 24.5t37.5 -4q45 -23 127 -72t113 -65q16 -10 22 -30t-4 -37t-29.5 -23.5t-38.5 4.5 l-110 63q-80 49 -125 74q-18 8 -24.5 27.5z" />
<glyph unicode="&#xd3;" horiz-adv-x="942" d="M72 770q18 276 123 465q125 223 321 229h6q16 2 29 -6q106 -66 184 -165t121 -210.5t62.5 -238.5t13.5 -246q-4 -119 -29 -233q-18 -90 -61 -168q-41 -78 -107.5 -143.5t-152.5 -86t-195 9.5q-176 57 -262 306q-72 213 -53 487zM170 762q-16 -254 49 -449 q68 -201 197 -241q141 -45 248.5 50t144.5 263q23 104 27 216t-13.5 224.5t-55.5 212t-102.5 186.5t-152.5 142q-137 -8 -231 -178q-92 -168 -111 -426zM353.5 1556.5q5.5 20.5 21.5 30.5q92 59 217 160q16 12 36.5 10t33 -18.5t10.5 -37t-19 -32.5q-129 -102 -225 -164 q-16 -12 -36.5 -7t-32 21.5t-6 37z" />
<glyph unicode="&#xd4;" horiz-adv-x="944" d="M72 770q18 276 123 465q125 223 321 229h6q16 2 29 -6q106 -66 184 -165t121 -210.5t62.5 -238.5t13.5 -246q-4 -119 -29 -233q-18 -90 -61 -168q-41 -78 -107.5 -143.5t-152.5 -86t-195 9.5q-176 57 -262 306q-72 213 -53 487zM170 762q-16 -254 49 -449 q68 -201 197 -241q141 -45 248.5 50t144.5 263q23 104 27 216t-13.5 224.5t-55.5 212t-102.5 186.5t-152.5 142q-137 -8 -231 -178q-92 -168 -111 -426zM319 1510.5q-5 19.5 5 35.5q80 129 114 168q27 29 54 39q35 12 67 -6q25 -14 75 -85t97 -116q16 -12 16.5 -32.5 t-13 -36t-34 -15.5t-34.5 15q-55 51 -111 129q-10 12 -21.5 29.5t-15.5 21.5q-2 -4 -8 -10q-29 -33 -100 -150q-12 -18 -32 -23.5t-37 6t-22 31z" />
<glyph unicode="&#xd5;" horiz-adv-x="935" d="M72 770q18 276 123 465q125 223 321 229h6q16 2 29 -6q106 -66 184 -165t121 -210.5t62.5 -238.5t13.5 -246q-4 -119 -29 -233q-18 -90 -61 -168q-41 -78 -107.5 -143.5t-152.5 -86t-195 9.5q-176 57 -262 306q-72 213 -53 487zM170 762q-16 -254 49 -449 q68 -201 197 -241q141 -45 248.5 50t144.5 263q23 104 27 216t-13.5 224.5t-55.5 212t-102.5 186.5t-152.5 142q-137 -8 -231 -178q-92 -168 -111 -426zM274 1569q-5 21 7 37q59 94 141 92q43 0 119 -43q51 -27 73 -27q31 2 66 58q10 16 29.5 21t37 -6t22.5 -30.5t-7 -38.5 q-61 -98 -144 -102q-49 -2 -124 39q-55 31 -74 30q-27 0 -58 -47q-10 -16 -30.5 -21t-36.5 6t-21 32z" />
<glyph unicode="&#xd6;" horiz-adv-x="935" d="M72 770q18 276 123 465q125 223 321 229h6q16 2 29 -6q106 -66 184 -165t121 -210.5t62.5 -238.5t13.5 -246q-4 -119 -29 -233q-18 -90 -61 -168q-41 -78 -107.5 -143.5t-152.5 -86t-195 9.5q-176 57 -262 306q-72 213 -53 487zM170 762q-16 -254 49 -449 q68 -201 197 -241q141 -45 248.5 50t144.5 263q23 104 27 216t-13.5 224.5t-55.5 212t-102.5 186.5t-152.5 142q-137 -8 -231 -178q-92 -168 -111 -426zM371 1619.5q0 20.5 14 35t34.5 14.5t35 -14.5t14.5 -35t-14.5 -34.5t-35 -14t-34.5 14t-14 34.5zM553 1619.5 q0 20.5 14.5 35t35 14.5t34.5 -14.5t14 -35t-14 -34.5t-34.5 -14t-35 14t-14.5 34.5z" />
<glyph unicode="&#xd7;" horiz-adv-x="614" d="M52 409.5q-3 20.5 9 36.5l197 263l-147 168q-14 16 -12.5 35.5t17 34t35 12t33.5 -16.5l135 -158l125 146q14 14 35 16t35 -12t16 -34.5t-12 -35.5l-133 -153l207 -238q14 -14 12 -34.5t-16.5 -35t-35 -12.5t-34.5 17l-194 225l-185 -244q-10 -16 -30.5 -19t-37 8 t-19.5 31.5z" />
<glyph unicode="&#xd8;" horiz-adv-x="1079" d="M54 167.5q5 20.5 22 31.5q47 31 96 73l-4 11q-72 213 -53 487q18 276 123 465q125 223 321 229h6q16 2 29 -6q229 -139 326 -434l61 70q14 14 34.5 16t35 -12.5t16.5 -35t-12 -34.5l-107 -117q59 -270 -2 -546q-18 -88 -60 -167t-108.5 -144.5t-152.5 -86t-195 9.5 q-133 43 -217 201q-43 -35 -84 -61q-16 -12 -36.5 -7t-32 21t-6.5 36.5zM213 762q-16 -233 39 -418l131 123q205 194 459 473q-78 291 -287 426q-137 -8 -231 -178q-94 -168 -111 -426zM289 244q68 -139 170 -172q141 -45 248.5 50t144.5 263q45 217 14 434 q-227 -244 -417 -422z" />
<glyph unicode="&#xd9;" horiz-adv-x="960" d="M-18 1265.5q-2 20.5 12.5 35t34.5 16.5q133 6 196 31q18 6 37 -3.5t26 -28t-2.5 -36.5t-27.5 -27q-35 -12 -76 -20q-35 -311 0 -651q23 -207 74 -342q55 -145 137 -183q109 -51 197 52q59 72 123 233q76 201 116 524q41 317 7 490q-31 0 -68 2q-20 2 -33.5 17.5t-11.5 36 t17.5 33.5t35.5 11q88 -8 176 21q18 6 37 -3.5t25 -29t-3.5 -37.5t-29.5 -25q-25 -8 -47 -12q35 -190 -6 -516q-43 -328 -125 -545q-70 -182 -139 -264q-135 -158 -312 -78q-119 55 -188 238q-55 145 -78 366q-37 328 -4 650q-14 0 -49 -2q-20 -2 -34.5 12t-16.5 34.5z M322.5 1569.5q-7.5 19.5 1 38t28 25.5t37.5 -1q39 -18 106.5 -57t98.5 -53q18 -10 25.5 -28.5t-2 -37t-28 -26t-36.5 1.5q-35 18 -107 59q-63 35 -98 51q-18 8 -25.5 27.5z" />
<glyph unicode="&#xda;" horiz-adv-x="960" d="M-18 1265.5q-2 20.5 12.5 35t34.5 16.5q133 6 196 31q18 6 37 -3.5t26 -28t-2.5 -36.5t-27.5 -27q-35 -12 -76 -20q-35 -311 0 -651q23 -207 74 -342q55 -145 137 -183q109 -51 197 52q59 72 123 233q76 201 116 524q41 317 7 490q-31 0 -68 2q-20 2 -33.5 17.5t-11.5 36 t17.5 33.5t35.5 11q88 -8 176 21q18 6 37 -3.5t25 -29t-3.5 -37.5t-29.5 -25q-25 -8 -47 -12q35 -190 -6 -516q-43 -328 -125 -545q-70 -182 -139 -264q-135 -158 -312 -78q-119 55 -188 238q-55 145 -78 366q-37 328 -4 650q-14 0 -49 -2q-20 -2 -34.5 12t-16.5 34.5z M353.5 1474.5q3.5 20.5 19.5 32.5q92 63 207 168q14 12 34.5 12.5t34 -15t12 -36t-15.5 -34.5q-119 -109 -215 -177q-16 -10 -36.5 -7t-32 19.5t-8 37z" />
<glyph unicode="&#xdb;" horiz-adv-x="954" d="M-18 1265.5q-2 20.5 12.5 35t34.5 16.5q133 6 196 31q18 6 37 -3.5t26 -28t-2.5 -36.5t-27.5 -27q-35 -12 -76 -20q-35 -311 0 -651q23 -207 74 -342q55 -145 137 -183q109 -51 197 52q59 72 123 233q76 201 116 524q41 317 7 490q-31 0 -68 2q-20 2 -33.5 17.5t-11.5 36 t17.5 33.5t35.5 11q88 -8 176 21q18 6 37 -3.5t25 -29t-3.5 -37.5t-29.5 -25q-25 -8 -47 -12q35 -190 -6 -516q-43 -328 -125 -545q-70 -182 -139 -264q-135 -158 -312 -78q-119 55 -188 238q-55 145 -78 366q-37 328 -4 650q-14 0 -49 -2q-20 -2 -34.5 12t-16.5 34.5z M304 1461.5q-5 19.5 7 37.5q51 86 66 105q39 53 78 67q53 18 106 -29q37 -33 88 -114q12 -18 7 -38t-22.5 -31t-36.5 -6t-30 22q-45 70 -71 94q-8 6 -13 8q-10 -6 -26 -31l-64 -100q-10 -16 -29.5 -21.5t-37 6t-22.5 31z" />
<glyph unicode="&#xdc;" horiz-adv-x="960" d="M-18 1265.5q-2 20.5 12.5 35t34.5 16.5q133 6 196 31q18 6 37 -3.5t26 -28t-2.5 -36.5t-27.5 -27q-35 -12 -76 -20q-35 -311 0 -651q23 -207 74 -342q55 -145 137 -183q109 -51 197 52q59 72 123 233q76 201 116 524q41 317 7 490q-31 0 -68 2q-20 2 -33.5 17.5t-11.5 36 t17.5 33.5t35.5 11q88 -8 176 21q18 6 37 -3.5t25 -29t-3.5 -37.5t-29.5 -25q-25 -8 -47 -12q35 -190 -6 -516q-43 -328 -125 -545q-70 -182 -139 -264q-135 -158 -312 -78q-119 55 -188 238q-55 145 -78 366q-37 328 -4 650q-14 0 -49 -2q-20 -2 -34.5 12t-16.5 34.5z M354 1529.5q0 20.5 14.5 35t35 14.5t35 -14.5t14.5 -35t-14.5 -34.5t-35 -14t-35 14t-14.5 34.5zM567 1527.5q0 20.5 14.5 35t35 14.5t35 -14.5t14.5 -35t-14.5 -34.5t-35 -14t-35 14t-14.5 34.5z" />
<glyph unicode="&#xdd;" horiz-adv-x="923" d="M66.5 1432.5q5.5 19.5 23 30.5t37.5 5q160 -39 250 -49q20 -2 32.5 -18.5t10.5 -37t-18.5 -32.5t-36.5 -10q-45 6 -95 14q-2 -14 -9 -78.5t-11 -107.5t-6 -109q-4 -66 -2 -120q4 -139 38.5 -207t104.5 -66q86 2 180 174q76 139 113 291q4 20 8 53q8 57 8 64l17 76l-72 20 q-18 6 -28.5 23.5t-4.5 37t23.5 29.5t38.5 4q158 -45 243 -65q20 -4 31.5 -20.5t6.5 -37t-21.5 -32t-36.5 -4.5q-33 6 -68 14v-107q-2 -154 -4 -196q-4 -82 19 -277q29 -244 34 -344q6 -86 -2 -172q-6 -88 -23.5 -163.5t-61.5 -141.5t-111 -104q-94 -47 -189.5 -44 t-183.5 39q-195 82 -233 232q-35 131 57 260q49 68 123 113t160 55t165 -37l7 19q6 18 23.5 28t36.5 4t29.5 -23.5t4.5 -37.5q-41 -139 -56 -197q-4 -18 -21 -29.5t-36.5 -6t-31 22.5t-5.5 38q8 39 21 82q-78 57 -176.5 29.5t-163 -117.5t-41.5 -179q27 -102 174 -165 q74 -31 148.5 -32t138.5 32q168 96 149 489q-6 80 -35 340q-18 162 -18 240q-33 -82 -70 -150q-121 -221 -262 -225q-133 -4 -194 121q-45 88 -52 245q-2 59 1 131t8.5 122.5t12.5 111.5t9 76l-72 18q-18 4 -29.5 21.5t-6 37zM431.5 1487q5.5 21 21.5 31q57 37 157 118 q16 12 36 10.5t33 -18t11 -36t-18 -33.5q-104 -84 -166 -123q-16 -12 -36.5 -7t-32 21t-6 37z" />
<glyph unicode="&#xde;" horiz-adv-x="741" d="M9 1428.5q-3 19.5 8.5 37t31.5 21.5q111 20 197 39q18 6 35.5 -5.5t22.5 -31t-6 -36.5t-32 -21l-65 -15q25 -150 39 -319q172 72 317 0q102 -51 148.5 -163t17.5 -259q-39 -188 -260 -330q-90 -55 -205 -102q-10 -223 -33 -428q39 6 72 14q20 2 37.5 -9t20.5 -30.5 t-8 -37t-30 -21.5q-68 -12 -198 -29q-20 -2 -36.5 10.5t-19 33t10 36.5t32.5 18l19 2q23 193 33 404q-33 -12 -70 -23q-20 -6 -37.5 4.5t-24 30t4 36.5t28.5 24l103 32q10 322 -8 625q-31 -8 -52 16q-12 16 -10 37t18.5 33t34.5 25q-14 186 -41 350l-38 -8q-18 -2 -36 9 t-21 30.5zM248 993q20 -309 12 -643q84 37 150 80q186 119 215 266q25 119 -9 199t-104 115q-119 59 -264 -17z" />
<glyph unicode="&#xdf;" horiz-adv-x="884" d="M-19.5 25.5q7.5 19.5 26 27.5t38.5 0l33 -12q55 117 61 207q4 55 -12 303q-18 270 -8 407q18 233 108 342q119 143 351 76q119 -35 180 -153q102 -197 -66 -392q-35 -39 -117 -114l-22 -21l27 -16q90 -53 141 -96q215 -180 125 -404q-35 -90 -106.5 -133t-157.5 -41 q-72 2 -142.5 34t-120.5 87q-16 -10 -35.5 -5t-30.5 22.5t-6 37t21 29.5l39 25q10 6 13.5 8t11.5 10l33 31q14 12 34.5 12t33.5 -15.5t13 -36t-16 -34.5l-29 -27q78 -78 183 -80q125 -4 172 113q61 158 -97 291q-47 39 -131 88q-41 23 -49 31q-14 8 -20 16q-20 18 -21 43 q0 29 29 62q12 14 43 43q78 70 106 104q125 145 56 283q-43 82 -123 104q-168 49 -246 -45q-70 -84 -86 -287q-10 -139 8 -391q16 -260 13 -319q-8 -109 -72 -244q33 -27 12 -64q-10 -16 -29.5 -22t-37.5 4l-27 16q-12 6 -14 7.5t-9.5 5.5t-9.5 4t-15 5t-28 11 q-18 6 -26.5 24.5t-1 38z" />
<glyph unicode="&#xe0;" horiz-adv-x="927" d="M55 315q14 88 70.5 171t136.5 128q121 63 241 37t202 -123q-4 45 -13 84q-31 188 -94 267q-61 78 -161.5 32.5t-192.5 -168.5l14 -14q14 -14 12 -34.5t-16 -35t-34.5 -12.5t-35.5 17l-90 96q-14 14 -14 34.5t14.5 35t35 14.5t34.5 -15l12 -12q102 131 219 184 q170 78 281 -61q78 -98 112 -309q43 -256 27 -580q20 6 41 11.5t38 -5t22.5 -31t-5 -38t-30.5 -21.5q-55 -14 -176 -61q-20 -8 -39 0t-26 27.5t1 38t27 24.5l47 18v27v84q-4 123 -10 164q-92 -98 -158 -150q-158 -123 -295 -98q-115 20 -166 102q-45 72 -31 172zM154 301 q-10 -63 16 -104q27 -45 98 -58q96 -18 217 78q54 41 187 182q-49 104 -154.5 144.5t-206.5 -15.5q-59 -35 -103 -98t-54 -129zM310.5 1243q-7.5 19 2 37t28 25.5t36.5 -0.5q129 -63 203 -95q20 -8 27 -26.5t-1 -38t-26.5 -26.5t-36.5 1q-78 33 -207 94q-18 10 -25.5 29z " />
<glyph unicode="&#xe1;" horiz-adv-x="940" d="M68 315q14 88 70.5 171t135.5 128q121 63 241 37t202 -123q-4 45 -12 84q-31 188 -95 267q-61 78 -161.5 32.5t-192.5 -168.5l14 -14q14 -14 12.5 -34.5t-16 -35t-35 -12.5t-34.5 17l-91 96q-14 14 -14 34.5t14.5 35t35 14.5t34.5 -15l12 -12q102 131 220 184 q170 78 280 -61q78 -98 113 -309q43 -256 26 -580q20 6 41 11.5t38.5 -5t22.5 -31t-5.5 -38t-30.5 -21.5q-55 -14 -176 -61q-20 -8 -39 0t-26 27.5t1.5 38t26.5 24.5l47 18v27v84q-4 123 -10 164q-92 -98 -158 -150q-158 -123 -295 -98q-115 20 -166 102q-45 72 -30 172z M166 301q-10 -63 16 -104q27 -45 99 -58q96 -18 217 78q53 41 186 182q-49 104 -154.5 144.5t-205.5 -15.5q-59 -35 -103.5 -98t-54.5 -129zM348.5 1156.5q6.5 19.5 24.5 29.5q133 74 219 174q12 16 32.5 18t36 -11t17.5 -33.5t-12 -35.5q-98 -119 -248 -198q-16 -10 -36 -4 t-30 23.5t-3.5 37z" />
<glyph unicode="&#xe2;" horiz-adv-x="933" d="M61 315q14 88 70.5 171t136.5 128q121 63 241 37t202 -123q-4 45 -13 84q-31 188 -94 267q-61 78 -161.5 32.5t-192.5 -168.5l14 -14q14 -14 12 -34.5t-16 -35t-34.5 -12.5t-35.5 17l-90 96q-14 14 -14 34.5t14.5 35t35 14.5t34.5 -15l12 -12q102 131 219 184 q170 78 281 -61q78 -98 113 -309q43 -256 26 -580q20 6 41 11.5t38.5 -5t22.5 -31t-5.5 -38t-30.5 -21.5q-55 -14 -176 -61q-20 -8 -39 0t-26 27.5t1 38t27 24.5l47 18v27v84q-4 123 -10 164q-92 -98 -158 -150q-158 -123 -295 -98q-115 20 -166 102q-45 72 -31 172z M160 301q-10 -63 16 -104q27 -45 98 -58q96 -18 218 78q53 41 186 182q-49 104 -154.5 144.5t-206.5 -15.5q-59 -35 -103 -98t-54 -129zM297 1151q0 21 14 37q49 51 97 119q20 31 26 39q20 27 43 32q35 12 66 -14q14 -12 35 -39l94 -145q10 -16 7 -36t-20.5 -31t-37 -8 t-31.5 21l-92 140l-11 -17q-51 -72 -106 -131q-12 -14 -32.5 -14t-36 13t-15.5 34zM479 1288h4q-2 2 -4 0z" />
<glyph unicode="&#xe3;" horiz-adv-x="940" d="M61 315q14 88 70.5 171t136.5 128q121 63 241 37t202 -123q-4 45 -13 84q-31 188 -94 267q-61 78 -161.5 32.5t-192.5 -168.5l14 -14q14 -14 12 -34.5t-16 -35t-34.5 -12.5t-35.5 17l-90 96q-14 14 -14 34.5t14.5 35t35 14.5t34.5 -15l12 -12q102 131 219 184 q170 78 281 -61q78 -98 113 -309q43 -256 26 -580q20 6 41 11.5t38.5 -5t22.5 -31t-5.5 -38t-30.5 -21.5q-55 -14 -176 -61q-20 -8 -39 0t-26 27.5t1 38t27 24.5l47 18v27v84q-4 123 -10 164q-92 -98 -158 -150q-158 -123 -295 -98q-115 20 -166 102q-45 72 -31 172z M160 301q-10 -63 16 -104q27 -45 98 -58q96 -18 218 78q53 41 186 182q-49 104 -154.5 144.5t-206.5 -15.5q-59 -35 -103 -98t-54 -129zM260 1161q10 61 29 94q27 43 69 50q31 2 68 -19q16 -8 51 -31q51 -37 70 -36q4 0 8 1t15.5 15t23.5 41q8 18 27.5 25.5t38 -1t25.5 -28 t-1 -37.5q-51 -117 -141 -115q-47 0 -123 54q-29 23 -41 26l-6 4q-8 -18 -15 -59q-4 -20 -20 -31.5t-36.5 -8.5t-32 19.5t-9.5 36.5z" />
<glyph unicode="&#xe4;" horiz-adv-x="933" d="M61 315q14 88 70.5 171t136.5 128q121 63 241 37t202 -123q-4 45 -13 84q-31 188 -94 267q-61 78 -161.5 32.5t-192.5 -168.5l14 -14q14 -14 12 -34.5t-16 -35t-34.5 -12.5t-35.5 17l-90 96q-14 14 -14 34.5t14.5 35t35 14.5t34.5 -15l12 -12q102 131 219 184 q170 78 281 -61q78 -98 113 -309q43 -256 26 -580q20 6 41 11.5t38.5 -5t22.5 -31t-5.5 -38t-30.5 -21.5q-55 -14 -176 -61q-20 -8 -39 0t-26 27.5t1 38t27 24.5l47 18v27v84q-4 123 -10 164q-92 -98 -158 -150q-158 -123 -295 -98q-115 20 -166 102q-45 72 -31 172z M160 301q-10 -63 16 -104q27 -45 98 -58q96 -18 218 78q53 41 186 182q-49 104 -154.5 144.5t-206.5 -15.5q-59 -35 -103 -98t-54 -129zM346 1191.5q0 20.5 14.5 35t35 14.5t34.5 -14.5t14 -35t-14 -34.5t-34.5 -14t-35 14t-14.5 34.5zM541 1185.5q0 20.5 14 35t34.5 14.5 t35 -14.5t14.5 -35t-14.5 -34.5t-35 -14t-34.5 14t-14 34.5z" />
<glyph unicode="&#xe5;" horiz-adv-x="933" d="M61 315q14 88 70.5 171t136.5 128q121 63 241 37t202 -123q-4 45 -13 84q-31 188 -94 267q-61 78 -161.5 32.5t-192.5 -168.5l14 -14q14 -14 12 -34.5t-16 -35t-34.5 -12.5t-35.5 17l-90 96q-14 14 -14 34.5t14.5 35t35 14.5t34.5 -15l12 -12q102 131 219 184 q170 78 281 -61q78 -98 113 -309q43 -256 26 -580q20 6 41 11.5t38.5 -5t22.5 -31t-5.5 -38t-30.5 -21.5q-55 -14 -176 -61q-20 -8 -39 0t-26 27.5t1 38t27 24.5l47 18v27v84q-4 123 -10 164q-92 -98 -158 -150q-158 -123 -295 -98q-115 20 -166 102q-45 72 -31 172z M160 301q-10 -63 16 -104q27 -45 98 -58q96 -18 218 78q53 41 186 182q-49 104 -154.5 144.5t-206.5 -15.5q-59 -35 -103 -98t-54 -129zM250 1233q-25 70 15 139.5t126 102.5q90 29 160 1t96 -98q25 -61 -2.5 -122.5t-99.5 -98.5q-8 -8 -17 -10q-102 -39 -178 -14.5 t-100 100.5zM342 1264q8 -25 37 -38.5t84 3.5q6 4 12 6q57 18 73.5 50t6.5 58q-10 29 -41 41.5t-90 -4.5q-53 -18 -71.5 -53t-10.5 -63z" />
<glyph unicode="&#xe6;" horiz-adv-x="1433" d="M68 168q-61 154 30.5 303.5t249.5 181.5q88 20 176 -9.5t158 -88.5q-4 176 -49 268q-39 82 -92 103q-43 16 -103 -11q-100 -43 -202 -172l14 -14q14 -14 12 -34.5t-16.5 -35t-35 -12.5t-34.5 17l-90 96q-14 14 -14 34.5t14 35t34.5 14.5t35.5 -15l12 -14q113 141 231 191 q94 41 176 12q82 -31 136 -131q111 121 221 145q131 29 205 -71q47 -59 50 -142.5t-42 -177.5t-133 -174q-63 -57 -113.5 -86t-120.5 -37q18 -115 49 -166q31 -49 109 -59q119 -16 205 47t123 186q0 2 2 6l-23 17q-14 12 -17 32.5t9 36t33 18.5t37 -9l96 -74 q16 -12 18 -32.5t-10 -37.5q-25 -31 -61 -14q-49 -139 -161 -217t-263 -58q-51 8 -101.5 35t-77.5 70q-41 63 -59 174q-59 -84 -131 -147q-158 -137 -311 -111q-66 12 -110 40t-66 87zM158 205q12 -31 33.5 -44.5t68.5 -21.5q109 -20 229 86q103 88 166 215q-6 10 -12 17 q-55 59 -130 87.5t-144 14.5q-117 -27 -184.5 -137.5t-26.5 -216.5zM752 784q29 -102 30 -311q0 -6 2 -18l2 -11q41 8 76 30t84 67q76 68 111 143.5t31.5 128.5t-29.5 88q-37 49 -107 35q-96 -20 -200 -152z" />
<glyph unicode="&#xe7;" horiz-adv-x="819" d="M37.5 553.5q23.5 198.5 95.5 325.5q68 115 141 149q80 39 150 -18q94 -76 106 -267l56 9q20 2 36.5 -10.5t18.5 -33t-10.5 -37t-32.5 -18.5q-80 -10 -190 -49q-18 -6 -37 3t-26 27.5t2 37t28 26.5l59 19q-2 76 -23.5 135t-50.5 82q-20 16 -45 6q-45 -23 -96 -111 q-63 -109 -83.5 -286.5t14.5 -317.5q35 -135 108 -155q90 -27 244 112l45 41q16 16 33 35l24 27l37 39l45 51l-18 24q-12 16 -10.5 37t18 33t37 10t32.5 -18q10 -12 45 -59.5t56 -71.5q14 -14 12 -35t-17.5 -34t-36 -11t-32.5 18l-24 29l-41 -47l-33 -37q-6 -8 -25 -27 l-37 -34l-45 -43q-130 -120 -241 -140q-37 -96 -123 -182q-14 -14 -35 -14t-35 14t-14 34.5t14 35.5q61 61 90 120q-123 41 -170 224q-39 154 -15.5 352.5z" />
<glyph unicode="&#xe8;" horiz-adv-x="954" d="M7.5 549.5q-7.5 19.5 1.5 37t28.5 24.5t36.5 -1q27 -14 55 -20q18 117 61 213q98 221 277 235q76 6 125 -32q43 -35 55 -97q23 -106 -33 -204q-59 -104 -167.5 -165t-229.5 -61q-2 -45 2 -88q10 -203 100 -282q92 -82 256 28q33 23 67 55.5t48 49.5l58 73l-25 31 q-10 16 -7 36.5t19.5 32t37 8t32.5 -19.5q31 -45 125 -147q12 -14 12 -34.5t-15.5 -34t-36 -13.5t-34.5 16l-43 48q-104 -129 -184 -183q-225 -152 -375 -20q-119 106 -133 350q-4 51 -2 104q-45 10 -86 31q-18 10 -25.5 29.5zM227 578q92 2 174 49t127 127q39 66 23 133 q-6 29 -21 41q-18 16 -55 12q-121 -10 -194 -178q-38 -84 -54 -184zM312.5 1283q-3.5 20 8 37t31 20t35.5 -7l82 -59l88 -62q39 -29 78 -49q18 -8 24.5 -27.5t-3 -38t-29 -24.5t-37.5 4q-43 20 -86 51l-94 68q-51 39 -76 55q-18 12 -21.5 32z" />
<glyph unicode="&#xe9;" horiz-adv-x="954" d="M7.5 549.5q-7.5 19.5 1.5 37t28.5 24.5t36.5 -1q27 -14 55 -20q18 117 61 213q98 221 277 235q76 6 125 -32q43 -35 55 -97q23 -106 -33 -204q-59 -104 -167.5 -165t-229.5 -61q-2 -45 2 -88q10 -203 100 -282q92 -82 256 28q33 23 67 55.5t48 49.5l58 73l-25 31 q-10 16 -7 36.5t19.5 32t37 8t32.5 -19.5q31 -45 125 -147q12 -14 12 -34.5t-15.5 -34t-36 -13.5t-34.5 16l-43 48q-104 -129 -184 -183q-225 -152 -375 -20q-119 106 -133 350q-4 51 -2 104q-45 10 -86 31q-18 10 -25.5 29.5zM227 578q92 2 174 49t127 127q39 66 23 133 q-6 29 -21 41q-18 16 -55 12q-121 -10 -194 -178q-38 -84 -54 -184zM286 1133.5q7 19.5 25 29.5q55 27 91 56.5t96 91.5q12 14 32.5 14t36 -13.5t15.5 -34t-15 -36.5q-61 -63 -104 -99t-111 -69q-16 -8 -35.5 -1t-28.5 24.5t-2 37z" />
<glyph unicode="&#xea;" horiz-adv-x="960" d="M13.5 549.5q-7.5 19.5 2 37t28.5 24.5t36 -1q27 -14 55 -20q18 117 62 213q98 221 276 235q76 6 125 -32q43 -35 55 -97q23 -106 -32 -204q-59 -104 -168 -165t-230 -61q-2 -45 2 -88q10 -203 101 -282q92 -82 256 28q33 23 66.5 55.5t47.5 49.5l58 73l-25 31 q-10 16 -7 36.5t19.5 32t37 8t32.5 -19.5q31 -45 125 -147q12 -14 12 -34.5t-15 -34t-35.5 -13.5t-35.5 16l-43 48q-104 -129 -184 -183q-225 -152 -375 -20q-119 106 -133 350q-4 51 -2 104q-45 10 -86 31q-18 10 -25.5 29.5zM233 578q92 2 174 49t128 127q39 66 22 133 q-6 29 -20 41q-18 16 -56 12q-121 -10 -194 -178q-38 -84 -54 -184zM276.5 1156.5q0.5 19.5 14.5 35.5q37 37 115 129q23 27 34 37q27 23 56 22q31 -2 55 -26q12 -12 31 -41q66 -94 100 -135q12 -16 10 -37t-18.5 -33t-37 -10t-32.5 18q-25 31 -102 139l-10 15l-13 -15 q-80 -92 -119 -133q-14 -14 -33.5 -14t-35 14.5t-15 34z" />
<glyph unicode="&#xeb;" horiz-adv-x="954" d="M7.5 549.5q-7.5 19.5 1.5 37t28.5 24.5t36.5 -1q27 -14 55 -20q18 117 61 213q98 221 277 235q76 6 125 -32q43 -35 55 -97q23 -106 -33 -204q-59 -104 -167.5 -165t-229.5 -61q-2 -45 2 -88q10 -203 100 -282q92 -82 256 28q33 23 67 55.5t48 49.5l58 73l-25 31 q-10 16 -7 36.5t19.5 32t37 8t32.5 -19.5q31 -45 125 -147q12 -14 12 -34.5t-15.5 -34t-36 -13.5t-34.5 16l-43 48q-104 -129 -184 -183q-225 -152 -375 -20q-119 106 -133 350q-4 51 -2 104q-45 10 -86 31q-18 10 -25.5 29.5zM227 578q92 2 174 49t127 127q39 66 23 133 q-6 29 -21 41q-18 16 -55 12q-121 -10 -194 -178q-38 -84 -54 -184zM317 1220.5q0 20.5 14.5 35t35 14.5t35 -14.5t14.5 -35t-14.5 -35t-35 -14.5t-35 14.5t-14.5 35zM494 1228.5q0 20.5 14 35t34.5 14.5t35 -14.5t14.5 -35t-14.5 -34.5t-35 -14t-34.5 14t-14 34.5z" />
<glyph unicode="&#xec;" horiz-adv-x="342" d="M58.5 1371q2.5 20 19 32t36 9t31.5 -19l72 -95l84 -110q10 -16 7 -37t-19.5 -32t-37 -8t-32.5 19q-27 41 -82 112t-69 93q-12 16 -9.5 36zM68 22.5q2 20.5 17 34t36 11.5q16 -2 33 -2q0 299 -13 841l-26 2q-20 2 -33.5 18.5t-11.5 36t18 33t35 11.5q59 -6 61 -7h6h7h65 q20 0 34.5 -14t14.5 -34.5t-14 -35t-35 -14.5h-22q12 -539 12 -840h29q20 0 34.5 -14t14.5 -34.5t-14.5 -35t-34.5 -14.5q-104 0 -168 4q-20 2 -33.5 17.5t-11.5 36z" />
<glyph unicode="&#xed;" horiz-adv-x="348" d="M72 22.5q2 20.5 17 34t36 11.5q16 -2 33 -2q0 299 -13 841l-26 2q-20 2 -33.5 18.5t-11.5 36t18.5 33t34.5 11.5q59 -6 61 -7h7h6h65q20 0 34.5 -14t14.5 -34.5t-14 -35t-35 -14.5h-22q12 -539 12 -840h29q20 0 34.5 -14t14.5 -34.5t-14.5 -35t-34.5 -14.5q-104 0 -168 4 q-20 2 -33.5 17.5t-11.5 36zM114 1112.5q-3 20.5 7 36.5q31 41 79 122t58 95q10 16 29.5 21.5t37 -6t22.5 -31t-7 -37.5q-8 -12 -58.5 -95t-78.5 -126q-12 -16 -32.5 -19.5t-37 8t-19.5 32z" />
<glyph unicode="&#xee;" horiz-adv-x="342" d="M6 1149q-2 21 12 35q53 66 95 135q4 6 12 20.5t12 20.5q16 27 37 37q41 16 72 -25q8 -10 22 -41q47 -94 78 -149q10 -18 4 -38t-23.5 -30t-37 -4t-29.5 23q-33 59 -67 129q-43 -72 -101 -140q-12 -16 -32.5 -18t-36 11t-17.5 34zM65.5 22.5q2.5 20.5 17.5 34t36 11.5 q16 -2 33 -2q0 299 -13 841l-26 2q-20 2 -33.5 18.5t-11.5 36t18 33t35 11.5q59 -6 61 -7h6h7h65q20 0 34.5 -14t14.5 -34.5t-14 -35t-35 -14.5h-22q12 -539 12 -840h29q20 0 34.5 -14t14.5 -34.5t-14.5 -35t-34.5 -14.5q-104 0 -168 4q-20 2 -34 17.5t-11.5 36z" />
<glyph unicode="&#xef;" horiz-adv-x="335" d="M65.5 22.5q2.5 20.5 17.5 34t36 11.5q16 -2 33 -2q0 299 -13 841l-26 2q-20 2 -33.5 18.5t-11.5 36t18 33t35 11.5q59 -6 61 -7h6h7h65q20 0 34.5 -14t14.5 -34.5t-14 -35t-35 -14.5h-22q12 -539 12 -840h29q20 0 34.5 -14t14.5 -34.5t-14.5 -35t-34.5 -14.5 q-104 0 -168 4q-20 2 -34 17.5t-11.5 36zM72 1228.5q0 20.5 14 35t34.5 14.5t35 -14.5t14.5 -35t-14.5 -34.5t-35 -14t-34.5 14t-14 34.5zM223 1224.5q0 20.5 14.5 35t35 14.5t35 -14.5t14.5 -35t-14.5 -34.5t-35 -14t-35 14t-14.5 34.5z" />
<glyph unicode="&#xf0;" horiz-adv-x="878" d="M71 1085.5q-5 20.5 7 36.5l69 113q12 18 32 23.5t37 -6t22.5 -31t-5.5 -35.5l-2 -2q115 -70 220 -168q125 115 258 180q18 10 37.5 4t28.5 -24.5t3 -38t-24 -27.5q-119 -61 -234 -164q66 -70 121 -145q68 27 133 37l-10 30q-6 20 3 38t28.5 25t37 -2t25.5 -28l14 -45 l5 -16q2 -2 8 -13l20 -39q10 -16 4 -35.5t-23.5 -29.5t-37 -4t-29.5 24l-2 2q-59 -8 -123 -28q80 -133 111 -264q25 -102 -10 -198.5t-111 -167.5t-169 -94.5t-196 11.5q-72 29 -110.5 92.5t-38.5 139.5q-4 229 215 413q74 63 164 111q-45 61 -98 117q-86 -90 -162 -201 q-12 -18 -31.5 -21.5t-37 8t-20.5 31t7 35.5q80 119 174 217q-96 90 -201 156l-20 -33q-10 -16 -30.5 -21.5t-37 6t-21.5 32zM268 236q0 -49 23.5 -87t64.5 -55q66 -25 134.5 -6.5t127 72t84 125t9.5 143.5q-31 123 -107 250q-86 -43 -155 -103q-182 -156 -181 -339z" />
<glyph unicode="&#xf1;" horiz-adv-x="819" d="M7 995.5q-3 20.5 8.5 37t31.5 20.5q53 8 109 14q20 2 36.5 -10.5t18.5 -32.5t-10.5 -36.5t-32.5 -18.5h-2q8 -109 12 -221l25 51q57 106 123 162q86 74 182 55q59 -12 103 -52t67 -96q61 -143 65 -475q0 -55 -1 -239.5t3 -212.5l19 -4q20 -4 31.5 -20.5t6.5 -37 t-21.5 -32t-37.5 -5.5q-55 10 -112 17q-20 2 -33.5 17t-11.5 35.5t17 34t36 11.5h8q-4 37 -3 206t1 228q-4 313 -57 440q-31 74 -101 87q-49 10 -99 -33t-99 -133q-76 -141 -107 -299q-2 -188 -10 -390l14 3q20 2 37 -10.5t19 -33t-10.5 -37t-32.5 -18.5q-59 -6 -125 -6 q-20 0 -34.5 14.5t-14.5 35t14 34.5t35 14q8 197 10 381q-2 8 -2 19l2 4q0 258 -14 493l-7 -2q-20 -2 -36.5 9.5t-19.5 32zM213 1190q27 80 53 119q37 51 84 51q39 -2 76 -37q14 -14 47 -53q51 -61 72 -66q31 -6 80 80q10 18 30.5 23.5t38 -5t22.5 -31t-5 -36.5 q-86 -145 -185 -127q-57 10 -129 98q-29 35 -39 45q-4 4 -8 6l-4 -4q-18 -29 -39 -92q-6 -20 -24.5 -29.5t-38 -3t-28.5 25t-3 36.5z" />
<glyph unicode="&#xf2;" horiz-adv-x="729" d="M41 547q14 115 56 217t122 179t180 87q11 0 21 -2q12 0 24 -6q106 -55 173 -169t88 -239q20 -123 4 -249q-27 -205 -129 -312q-125 -133 -304 -67q-98 37 -157.5 131t-75.5 203.5t-2 226.5zM137 535q-20 -164 27 -292t145 -163q119 -45 201 41t102 256 q20 172 -33.5 329.5t-172.5 225.5q-100 -14 -174 -126t-95 -271zM223.5 1310.5q-0.5 20.5 14 35t35 14.5t34.5 -14q84 -88 146 -140q14 -12 16 -32.5t-11.5 -36t-34 -17.5t-36.5 13q-63 53 -149 143q-14 14 -14.5 34.5z" />
<glyph unicode="&#xf3;" horiz-adv-x="722" d="M41 547q14 115 56 217t122 179t180 87q11 0 21 -2q12 0 24 -6q106 -55 173 -169t88 -239q20 -123 4 -249q-27 -205 -129 -312q-125 -133 -304 -67q-98 37 -157.5 131t-75.5 203.5t-2 226.5zM137 535q-20 -164 27 -292t145 -163q119 -45 201 41t102 256 q20 172 -33.5 329.5t-172.5 225.5q-100 -14 -174 -126t-95 -271zM268.5 1108q-1.5 21 10.5 35q88 106 180 239q12 16 32.5 19.5t37 -8t19.5 -32t-7 -36.5q-96 -135 -185 -244q-14 -16 -34.5 -18t-36 11t-17 34z" />
<glyph unicode="&#xf4;" horiz-adv-x="722" d="M41 547q14 115 56 217t122 179t180 87q11 0 21 -2q12 0 24 -6q106 -55 173 -169t88 -239q20 -123 4 -249q-27 -205 -129 -312q-125 -133 -304 -67q-98 37 -157.5 131t-75.5 203.5t-2 226.5zM137 535q-20 -164 27 -292t145 -163q119 -45 201 41t102 256 q20 172 -33.5 329.5t-172.5 225.5q-100 -14 -174 -126t-95 -271zM188.5 1145q-1.5 21 12.5 35q74 90 131 174q23 35 28 41q10 12 23 18q18 8 37 4q14 -4 26 -16q8 -10 13 -25q2 -4 6 -16q8 -25 14 -45q31 -70 96 -146q14 -16 12.5 -36.5t-17 -34t-36 -11t-32.5 16.5 q-72 82 -109 166q-51 -72 -119 -152q-12 -16 -32.5 -18t-36 11t-17 34zM434 1331h2h-2z" />
<glyph unicode="&#xf5;" horiz-adv-x="735" d="M41 547q14 115 56 217t122 179t180 87q11 0 21 -2q12 0 24 -6q106 -55 173 -169t88 -239q20 -123 4 -249q-27 -205 -129 -312q-125 -133 -304 -67q-98 37 -157.5 131t-75.5 203.5t-2 226.5zM137 535q-20 -164 27 -292t145 -163q119 -45 201 41t102 256 q20 172 -33.5 329.5t-172.5 225.5q-100 -14 -174 -126t-95 -271zM151 1167.5q-7 18.5 1 36.5q53 127 131 144q61 12 133 -50q12 -10 47 -43q25 -23 39 -32q10 -6 16 -11l14 37l25 58q8 18 26.5 26t37 0t26.5 -26.5t0 -36.5l-22 -58l-17 -38l-6 -13l-2 -6q-2 -2 -2 -4 q-4 -6 -12 -12q-35 -31 -78 -25q-31 4 -64 29q-18 14 -49 41q-33 31 -43 39q-35 31 -51 28q-27 -6 -59 -84q-8 -20 -26.5 -27t-38 1t-26.5 26.5z" />
<glyph unicode="&#xf6;" horiz-adv-x="729" d="M41 547q14 115 56 217t122 179t180 87q11 0 21 -2q12 0 24 -6q106 -55 173 -169t88 -239q20 -123 4 -249q-27 -205 -129 -312q-125 -133 -304 -67q-98 37 -157.5 131t-75.5 203.5t-2 226.5zM137 535q-20 -164 27 -292t145 -163q119 -45 201 41t102 256 q20 172 -33.5 329.5t-172.5 225.5q-100 -14 -174 -126t-95 -271zM274 1216.5q0 20.5 14.5 35t35 14.5t35 -14.5t14.5 -35t-14.5 -35t-35 -14.5t-35 14.5t-14.5 35zM440 1216.5q0 20.5 14.5 35t35 14.5t35 -14.5t14.5 -35t-14.5 -35t-35 -14.5t-35 14.5t-14.5 35z" />
<glyph unicode="&#xf7;" horiz-adv-x="659" d="M66 675.5q0 20.5 14.5 35t34.5 14.5h479q18 0 32.5 -15.5t14.5 -35t-15.5 -33.5t-35.5 -14h-475q-20 0 -34.5 14t-14.5 34.5zM307 858.5q0 20.5 14.5 34.5t35 14t35 -14t14.5 -34.5t-14.5 -35t-35 -14.5t-35 14.5t-14.5 35zM317 493.5q0 20.5 14.5 35t35 14.5t35 -14.5 t14.5 -35t-14.5 -35t-35 -14.5t-35 14.5t-14.5 35z" />
<glyph unicode="&#xf8;" horiz-adv-x="874" d="M66 53.5q0 20.5 14 34.5l61 68q-82 162 -53 391q14 115 56 217t122 179t180 87q10 0 21 -2q12 0 25 -6q123 -63 192 -205l80 84q14 14 34.5 14t35 -14t14.5 -34.5t-14 -35.5q-53 -53 -109 -114q55 -170 31 -352q-25 -203 -129 -312q-125 -133 -303 -67q-72 27 -125 86 l-49 -54q-14 -14 -35 -14t-35 14.5t-14 35zM184 535q-20 -170 29 -297q37 43 203 254q126 161 198 245q-57 135 -161 195q-100 -14 -174 -126t-95 -271zM264 145q41 -47 92 -65q119 -45 201 41t102 256q17 129 -10 250l-155 -195q-154 -199 -230 -287z" />
<glyph unicode="&#xf9;" horiz-adv-x="735" d="M37 976.5q2 20.5 17.5 34t35.5 11.5q61 -6 115 -6q20 0 34.5 -14.5t14.5 -35t-14.5 -34.5t-34.5 -14h-12q-39 -272 -25 -490q8 -166 51 -262t119 -105q88 -8 145 80q53 84 82 254q37 223 21 508l-23 2q-20 2 -33.5 17.5t-11.5 36t17.5 34t35.5 11.5q82 -6 140 -15 q18 -4 30.5 -20.5t9.5 -36t-19.5 -31.5t-37.5 -10l-10 2q16 -289 -20 -514q-31 -188 -99 -291q-90 -139 -235 -125q-133 14 -201 164q-47 109 -59 297q-14 227 24 500h-12q-20 2 -33.5 17t-11.5 35.5zM221 1250q2 20 18.5 33t36 11t33.5 -18l144 -186q12 -16 9 -36 t-19.5 -32t-36 -9t-31.5 19l-144 182q-12 16 -10 36z" />
<glyph unicode="&#xfa;" horiz-adv-x="747" d="M37 976.5q2 20.5 17.5 34t35.5 11.5q61 -6 115 -6q20 0 34.5 -14.5t14.5 -35t-14.5 -34.5t-34.5 -14h-12q-39 -272 -25 -490q8 -166 51 -262t119 -105q88 -8 145 80q53 84 82 254q37 223 21 508l-23 2q-20 2 -33.5 17.5t-11.5 36t17.5 34t35.5 11.5q82 -6 140 -15 q18 -4 30.5 -20.5t9.5 -36t-19.5 -31.5t-37.5 -10l-10 2q16 -289 -20 -514q-31 -188 -99 -291q-90 -139 -235 -125q-133 14 -201 164q-47 109 -59 297q-14 227 24 500h-12q-20 2 -33.5 17t-11.5 35.5zM291 1112.5q0 20.5 14 34.5q96 96 156 164q14 14 33.5 16t35 -12.5 t17.5 -33.5t-12 -36q-61 -70 -160 -168q-14 -14 -35 -14t-35 14.5t-14 35z" />
<glyph unicode="&#xfb;" horiz-adv-x="753" d="M37 976.5q2 20.5 17.5 34t35.5 11.5q61 -6 115 -6q20 0 34.5 -14.5t14.5 -35t-14.5 -34.5t-34.5 -14h-12q-39 -272 -25 -490q8 -166 51 -262t119 -105q88 -8 145 80q53 84 82 254q37 223 21 508l-23 2q-20 2 -33.5 17.5t-11.5 36t17.5 34t35.5 11.5q82 -6 140 -15 q18 -4 30.5 -20.5t9.5 -36t-19.5 -31.5t-37.5 -10l-10 2q16 -289 -20 -514q-31 -188 -99 -291q-90 -139 -235 -125q-133 14 -201 164q-47 109 -59 297q-14 227 24 500h-12q-20 2 -33.5 17t-11.5 35.5zM182.5 1161.5q-1.5 20.5 12.5 34.5q43 55 92 129l28 45q20 27 43 35 q37 12 70 -16q14 -12 35 -43q8 -12 22 -35l33 -58q20 -37 39 -65q10 -16 5 -35.5t-22.5 -31t-37 -6.5t-31.5 24q-16 27 -35.5 61.5t-32.5 56.5l-22 33l-12 -16q-51 -82 -101 -139q-12 -16 -32.5 -18.5t-36 11t-17 34zM362 1315q3 -2 5 -2q-2 2 -5 2z" />
<glyph unicode="&#xfc;" horiz-adv-x="735" d="M37 976.5q2 20.5 17.5 34t35.5 11.5q61 -6 115 -6q20 0 34.5 -14.5t14.5 -35t-14.5 -34.5t-34.5 -14h-12q-39 -272 -25 -490q8 -166 51 -262t119 -105q88 -8 145 80q53 84 82 254q37 223 21 508l-23 2q-20 2 -33.5 17.5t-11.5 36t17.5 34t35.5 11.5q82 -6 140 -15 q18 -4 30.5 -20.5t9.5 -36t-19.5 -31.5t-37.5 -10l-10 2q16 -289 -20 -514q-31 -188 -99 -291q-90 -139 -235 -125q-133 14 -201 164q-47 109 -59 297q-14 227 24 500h-12q-20 2 -33.5 17t-11.5 35.5zM260 1185.5q0 20.5 14.5 35t35 14.5t34.5 -14.5t14 -35t-14 -34.5 t-34.5 -14t-35 14t-14.5 34.5zM428 1191.5q0 20.5 14.5 35t35 14.5t34.5 -14.5t14 -35t-14 -34.5t-34.5 -14t-35 14t-14.5 34.5z" />
<glyph unicode="&#xfd;" horiz-adv-x="765" d="M63.5 456.5q6.5 127.5 29 232t63.5 208.5l-17 4q-20 4 -31.5 21.5t-6.5 37t23 30.5t36 5q57 -12 119 -28q20 -4 30 -22.5t5 -38t-23.5 -30t-36.5 -4.5h-2q-39 -98 -62.5 -198.5t-27.5 -212t26 -195.5q35 -102 125 -135t170 31q78 61 150 207q0 186 -31 575l-20 2 q-20 2 -33.5 17.5t-11.5 36t17 34t36 10.5l123 -10q20 -2 33.5 -17.5t11.5 -35.5t-17.5 -33.5t-35.5 -11.5h-5q31 -365 31 -567q2 -10 -2 -21q0 -121 -12 -221q-31 -287 -135 -412q-135 -160 -367 -61l-16 -23q-12 -16 -33 -18t-37 10t-18 32.5t10 37.5q41 51 69 125 q6 18 24.5 26.5t38 1t28 -26t0.5 -38.5q-8 -23 -17 -41q156 -61 242 39q86 102 115 358q0 12 2 25q-35 -43 -78 -78q-90 -66 -179.5 -62.5t-164 61.5t-107.5 150q-37 96 -30.5 223.5zM334 1102q2 21 16 33q49 41 115 151q12 18 31.5 23.5t37 -6t22.5 -31t-5 -35.5 q-76 -125 -135 -176q-16 -14 -37 -12t-34 17t-11 36z" />
<glyph unicode="&#xfe;" horiz-adv-x="784" d="M63.5 110.5q2.5 20.5 18.5 33t37 10.5q8 -2 18 -2q2 88 -2 569v2q-4 14 0 29q0 80 3 331.5t-1 331.5l-26 2q-20 2 -34 17.5t-11.5 36t18 34t35.5 11.5q61 -6 110 -7q20 0 35 -14t15 -35q0 -18 -12.5 -32.5t-30.5 -16.5q2 -88 -3 -512q68 63 150 80q141 27 262 -80 q74 -68 108.5 -162t12 -210.5t-114.5 -217.5q-109 -119 -252 -188q-90 -43 -166 -60q-4 -176 -14 -327h10q20 -2 32.5 -18.5t10.5 -37t-18 -33t-37 -10.5q-45 6 -102 7q-20 0 -34.5 14t-14.5 34.5t14 35t35 14.5h4h2q10 145 14 313q-14 0 -29 2q-20 2 -32.5 18.5t-10 37z M233 721q5 -467 3 -557q53 14 122 47q125 59 220 164q74 80 91 170t-10 160q-25 72 -79 120q-84 76 -179 58q-102 -20 -168 -152v-10z" />
<glyph unicode="&#xff;" horiz-adv-x="796" d="M63.5 456.5q6.5 127.5 29 232t63.5 208.5l-17 4q-20 4 -31.5 21.5t-6.5 37t23 30.5t36 5q57 -12 119 -28q20 -4 30 -22.5t5 -38t-23.5 -30t-36.5 -4.5h-2q-39 -98 -62.5 -198.5t-27.5 -212t26 -195.5q35 -102 125 -135t170 31q78 61 150 207q0 186 -31 575l-20 2 q-20 2 -33.5 17.5t-11.5 36t17 34t36 10.5l123 -10q20 -2 33.5 -17.5t11.5 -35.5t-17.5 -33.5t-35.5 -11.5h-5q31 -365 31 -567q2 -10 -2 -21q0 -121 -12 -221q-31 -287 -135 -412q-135 -160 -367 -61l-16 -23q-12 -16 -33 -18t-37 10t-18 32.5t10 37.5q41 51 69 125 q6 18 24.5 26.5t38 1t28 -26t0.5 -38.5q-8 -23 -17 -41q156 -61 242 39q86 102 115 358q0 12 2 25q-35 -43 -78 -78q-90 -66 -179.5 -62.5t-164 61.5t-107.5 150q-37 96 -30.5 223.5zM311 1140.5q0 20.5 14.5 35t35 14.5t35 -14.5t14.5 -35t-14.5 -34.5t-35 -14t-35 14 t-14.5 34.5zM479 1134.5q0 20.5 14.5 35t35 14.5t35 -14.5t14.5 -35t-14.5 -35t-35 -14.5t-35 14.5t-14.5 35z" />
<glyph unicode="&#x152;" horiz-adv-x="1320" d="M72 770q18 276 123 465q109 195 276 225q18 14 41 8q338 -74 625 -24l-4 35q-2 20 11 35.5t33.5 17.5t36 -11.5t17.5 -33.5q2 -16 3 -32.5t1 -18.5t2 -11.5t3 -12.5t4 -20.5t7 -35.5q6 -18 -5 -35.5t-30.5 -23t-37 6t-21.5 31.5l-4 13q-217 -39 -455 -11 q188 -205 228 -544q133 4 276 34l-4 37q-2 20 11.5 35.5t34 18t35.5 -11t17 -34.5q6 -61 15 -114q2 -20 -10.5 -36.5t-30.5 -21.5q-39 -4 -53 29q-145 -31 -285 -35q6 -166 -29 -329q-31 -150 -119 -259q207 12 420 56l-4 31q-2 20 11.5 36.5t33 18.5t35.5 -11.5t18 -31.5 q6 -61 17 -123q2 -20 -10.5 -36.5t-30.5 -20.5q-20 -2 -36.5 9t-20.5 29q-268 -53 -523 -59q-10 0 -20 4q-131 -82 -287 -31q-176 57 -262 306q-72 213 -53 487zM170 762q-16 -254 49 -449q68 -201 197 -241q141 -45 248.5 50t144.5 263q23 104 27 216t-13.5 224.5 t-55.5 212t-102.5 186.5t-152.5 142q-137 -8 -231 -178q-92 -168 -111 -426z" />
<glyph unicode="&#x153;" horiz-adv-x="1353" d="M41 547q14 115 56 217t122 179t180 87q10 0 21 -2q12 0 24 -6q90 -47 152 -137q35 68 94 110q59 45 129 62q92 23 178 -8q84 -33 117 -123q29 -84 -5 -179.5t-105 -177.5q-61 -68 -138.5 -113.5t-152.5 -49.5q0 -20 -4 -41q-14 -117 -58 -207q41 -70 119 -99.5t165 -15.5 t150.5 66.5t79.5 132.5q-18 12 -41 30q-16 12 -19 32t9 36t32 19t36 -9q72 -53 131 -74q18 -8 27.5 -26.5t2 -36.5t-26 -27.5t-36.5 -3.5q-14 6 -27 11q-29 -100 -112.5 -165t-190.5 -83q-100 -16 -196.5 14.5t-159.5 108.5q-6 -8 -14 -15q-125 -133 -304 -67 q-98 37 -157.5 131t-75.5 203.5t-2 226.5zM137 535q-20 -164 27 -292t145 -163q119 -45 201 41t102 256q20 172 -33.5 329.5t-172.5 225.5q-100 -14 -174 -126t-95 -271zM659 768q49 -121 56 -264q49 4 107.5 40t107.5 91q59 68 83.5 137.5t6.5 120.5q-16 45 -64.5 64.5 t-113.5 3.5q-68 -16 -118 -66.5t-62 -124.5z" />
<glyph unicode="&#x2000;" horiz-adv-x="878" />
<glyph unicode="&#x2001;" horiz-adv-x="1757" />
<glyph unicode="&#x2002;" horiz-adv-x="878" />
<glyph unicode="&#x2003;" horiz-adv-x="1757" />
<glyph unicode="&#x2004;" horiz-adv-x="585" />
<glyph unicode="&#x2005;" horiz-adv-x="439" />
<glyph unicode="&#x2006;" horiz-adv-x="292" />
<glyph unicode="&#x2007;" horiz-adv-x="292" />
<glyph unicode="&#x2008;" horiz-adv-x="219" />
<glyph unicode="&#x2009;" horiz-adv-x="351" />
<glyph unicode="&#x200a;" horiz-adv-x="97" />
<glyph unicode="&#x2010;" horiz-adv-x="542" d="M74 606.5q2 20.5 17.5 33.5t35.5 11q94 -8 346 11q20 2 35.5 -11.5t17.5 -34t-11 -36t-34 -17.5q-262 -18 -362 -10q-20 2 -33.5 17.5t-11.5 36z" />
<glyph unicode="&#x2011;" horiz-adv-x="542" d="M74 606.5q2 20.5 17.5 33.5t35.5 11q94 -8 346 11q20 2 35.5 -11.5t17.5 -34t-11 -36t-34 -17.5q-262 -18 -362 -10q-20 2 -33.5 17.5t-11.5 36z" />
<glyph unicode="&#x2012;" horiz-adv-x="542" d="M74 606.5q2 20.5 17.5 33.5t35.5 11q94 -8 346 11q20 2 35.5 -11.5t17.5 -34t-11 -36t-34 -17.5q-262 -18 -362 -10q-20 2 -33.5 17.5t-11.5 36z" />
<glyph unicode="&#x2013;" horiz-adv-x="1112" d="M73.5 606.5q4.5 20.5 39.5 33.5t81 11q212 -8 782 11q46 2 81 -11.5t39.5 -34t-25 -36t-76.5 -17.5q-593 -18 -820 -10q-45 2 -75.5 17.5t-26 36z" />
<glyph unicode="&#x2014;" horiz-adv-x="2136" d="M74 606.5q9 20.5 79.5 33.5t160.5 11q425 -8 1566 11q90 2 160.5 -11.5t79.5 -34t-50 -36t-154 -17.5q-1186 -18 -1638 -10q-91 2 -152 17.5t-52 36z" />
<glyph unicode="&#x2018;" horiz-adv-x="409" d="M27 1290q16 51 69 109q41 45 93.5 84t89.5 51q18 6 36.5 -3t24.5 -28.5t-3.5 -38t-29.5 -24.5q-18 -6 -61 -37t-78 -70q-16 -18 -27 -35q53 -23 70 -53q16 -29 4 -57q-10 -20 -31 -33q-27 -16 -63 -18q-45 0 -70 24q-51 53 -24 129z" />
<glyph unicode="&#x2019;" horiz-adv-x="409" d="M51 1211.5q-6 19.5 3 38t30 24.5q90 29 145 76q9 6 13 10q-49 14 -70 39q-20 23 -18 51q2 25 20 45q25 25 64 31q49 6 77 -25q59 -61 45 -129q-12 -51 -67 -98q-70 -59 -180 -94q-18 -6 -37 3t-25 28.5z" />
<glyph unicode="&#x201c;" horiz-adv-x="614" d="M72 1161q-41 92 51 221q74 102 156 142q18 8 37.5 1t27.5 -25.5t0.5 -38t-25.5 -27.5q-57 -27 -116 -109q-18 -27 -31 -49q31 4 53 -14q27 -18 27 -56q0 -20 -10 -43q-23 -51 -68 -63q-66 -16 -102 61zM309 1128q-41 92 51 222q74 102 156 141q18 8 37.5 1t28 -25.5 t1 -38t-25.5 -27.5q-57 -27 -117 -109q-18 -27 -30 -49q31 4 53 -14q27 -18 26 -55q0 -20 -10 -44q-23 -51 -67 -63q-66 -16 -103 61z" />
<glyph unicode="&#x201d;" horiz-adv-x="598" d="M68.5 1166.5q7.5 19.5 25.5 27.5q57 27 119 109q18 25 29 47q-31 -4 -52 14q-27 18 -26 55q0 20 10 43q23 51 68 64q66 16 102 -62q43 -94 -53 -221q-74 -100 -156 -139q-18 -8 -37.5 -1t-28 25.5t-1 38zM279.5 1141.5q7.5 19.5 25.5 27.5q57 27 119 109q18 25 29 47 q-31 -4 -52 14q-27 18 -26 56q0 20 10 43q23 51 68 63q66 16 102 -61q43 -94 -53 -221q-74 -100 -156 -140q-18 -8 -37.5 -1t-28 25.5t-1 38z" />
<glyph unicode="&#x202f;" horiz-adv-x="351" />
<glyph unicode="&#x205f;" horiz-adv-x="439" />
<glyph unicode="&#x20ac;" horiz-adv-x="1228" d="M47 512q-2 20 11.5 35.5t33.5 17.5q39 2 125 10q2 72 14 146q-78 -4 -135 -4q-20 0 -34.5 14t-14.5 34.5t14.5 35t34.5 14.5q63 0 154 6q12 55 29 111q39 129 117.5 267t160.5 206q51 41 100 49q63 10 111 -35q80 -74 100 -317q33 2 60 2q20 0 34.5 -14.5t14.5 -35 t-14.5 -34.5t-34.5 -14q-4 0 -193 -11q-20 -2 -34.5 12.5t-16.5 35t12.5 35t34.5 16.5q16 0 39 2q-16 203 -70 252q-12 12 -26 10q-23 -4 -53 -29q-70 -57 -141.5 -182t-106.5 -244q-12 -39 -21 -76q102 6 170 7q20 0 34.5 -14.5t14.5 -35t-14 -35t-35 -14.5q-70 0 -190 -8 q-12 -74 -17 -143q123 10 211 10q20 0 34.5 -14.5t14.5 -35t-14 -34.5t-35 -14q-90 0 -213 -11q6 -141 48 -242.5t106 -146.5q100 -72 225 15q154 109 285 413q-35 23 -64 45q-16 14 -18 34t11.5 36t33 18t35.5 -10q55 -45 186 -121q18 -10 23.5 -29.5t-5 -38t-30 -23.5 t-37.5 5l-51 31q-139 -319 -313 -440q-86 -61 -175.5 -64.5t-162.5 49.5q-86 59 -136.5 180t-56.5 281q-76 -6 -117 -10q-20 -2 -35.5 11.5t-17.5 33.5z" />
<glyph unicode="&#x2122;" horiz-adv-x="1576" d="M61 1161v105q0 20 14.5 34.5t35.5 14.5q18 0 31.5 -12.5t17.5 -28.5q43 6 84 19.5t92 41.5l72 41q23 14 89 60.5t81 54.5q2 2 6 4l-4 6q-10 16 -4 35.5t23 30t37 4t30 -24.5l12 -22q6 -10 7 -12.5t4 -7.5t5 -7t11 -12l14 -23q12 -16 9 -36.5t-19.5 -32t-37 -8t-30.5 19.5 l-6 6q-2 0 -4 -2l-213 -141q10 -68 26.5 -148t30.5 -133l37 -151q23 -94 35 -138l6 4q18 8 36.5 1t28 -25.5t2 -36.5t-25.5 -29l-98 -45q-18 -8 -38 -1t-28 25.5t-1 38t26 27.5l-43 170q-33 133 -52.5 221.5t-33.5 172.5q-84 -35 -166 -47v-13q0 -20 -14.5 -34.5t-35 -14.5 t-35 14.5t-14.5 34.5zM700 635.5q-2 19.5 11.5 36t33.5 18.5l15 2q-4 53 -29 269q-4 41 -9 112.5t-9 122.5l-2 49l-2 8l-4 11q-2 10 -3 14q-6 23 -2 39q4 18 18.5 32.5t37.5 14.5q20 0 41 -14q10 -6 20 -19q16 -18 39 -51q35 -49 90 -139l68 -117q8 47 20 147q18 156 23 179 q6 43 12 65l10 27q14 25 39 31q47 12 80 -35q8 -8 15.5 -22.5t7.5 -16.5q23 -35 44 -83t31 -79l31 -94q23 -66 27 -82q61 -182 141 -262l27 18q16 12 35.5 9t32 -19t9 -35.5t-19.5 -32.5l-14 -14l-13 -6l-4 -4l-4 -2l-2 -2l-4 -4q-2 -2 -10 -13l-19 -26q-12 -16 -32.5 -18.5 t-36.5 9.5q-14 12 -17.5 31t7.5 35q-98 96 -168 305l-25 76l-29 82q-8 27 -24.5 66.5t-30.5 68.5q-2 -14 -20 -164q-14 -121 -25 -176q-8 -43 -18 -65q-6 -18 -17 -29q-18 -25 -47 -25q-8 0 -16.5 3t-12.5 5l-4 5l-6 6l-6 6q-2 6 -8 16l-29 45l-82 140l-51 79q4 -72 18 -198 q25 -216 29 -271h10q20 2 36 -12t18 -33.5t-12.5 -35t-32.5 -17.5q-63 -4 -123 -10q-18 -2 -35 11t-19 32.5zM709 1266q1 -2 34 0l-6 6z" />
<glyph unicode="&#x25fc;" horiz-adv-x="1034" d="M0 0v1034h1034v-1034h-1034z" />
</font>
</defs>
</svg>
