<?xml version="1.0" standalone="no"?>
<!DOCTYPE svg PUBLIC "-//W3C//DTD SVG 1.1//EN" "http://www.w3.org/Graphics/SVG/1.1/DTD/svg11.dtd" >
<svg xmlns="http://www.w3.org/2000/svg">
<metadata>Generated by IcoMoon</metadata>
<defs>
<font id="icomoon" horiz-adv-x="1024">
<font-face units-per-em="1024" ascent="960" descent="-64" />
<missing-glyph horiz-adv-x="1024" />
<glyph unicode="&#x20;" horiz-adv-x="512" d="" />
<glyph unicode="&#xe900;" glyph-name="times-solid" horiz-adv-x="704" d="M485.44 448l200.14 200.14c24.56 24.56 24.56 64.38 0 88.96l-44.48 44.48c-24.56 24.56-64.38 24.56-88.96 0l-200.14-200.14-200.14 200.14c-24.56 24.56-64.38 24.56-88.96 0l-44.48-44.48c-24.56-24.56-24.56-64.38 0-88.96l200.14-200.14-200.14-200.14c-24.56-24.56-24.56-64.38 0-88.96l44.48-44.48c24.56-24.56 64.4-24.56 88.96 0l200.14 200.14 200.14-200.14c24.56-24.56 64.4-24.56 88.96 0l44.48 44.48c24.56 24.56 24.56 64.38 0 88.96l-200.14 200.14z" />
<glyph unicode="&#xe901;" glyph-name="chevron-down-2" horiz-adv-x="896" d="M448.2 390.72l-113.78-113.56-308 308.62c-8.686 8.686-14.058 20.686-14.058 33.94s5.372 25.254 14.058 33.94v0l45.3 45.4c8.661 8.66 20.625 14.016 33.84 14.016s25.179-5.356 33.84-14.016v0zM870 585.7l-388-388.66c-8.663-8.655-20.626-14.007-33.84-14.007s-25.177 5.353-33.84 14.008v0l-80 80 422.68 422c8.661 8.66 20.625 14.016 33.84 14.016s25.179-5.356 33.84-14.016v0l45.32-45.46c8.686-8.686 14.058-20.686 14.058-33.94s-5.372-25.254-14.058-33.94v0z" />
<glyph unicode="&#xe902;" glyph-name="empty-set" horiz-adv-x="896" d="M891.32 868.7l-22.62 22.62c-6.24 6.24-16.38 6.24-22.62 0l-150.24-150.24c-66.92 56.62-153.32 90.92-247.84 90.92-212.080 0-384-171.92-384-384 0-94.52 34.3-180.92 90.92-247.82l-150.24-150.24c-6.24-6.24-6.24-16.38 0-22.62l22.62-22.62c6.24-6.24 16.38-6.24 22.62 0l150.24 150.24c66.92-56.64 153.32-90.94 247.84-90.94 212.080 0 384 171.92 384 384 0 94.52-34.3 180.92-90.92 247.82l150.24 150.24c2.892 2.899 4.68 6.901 4.68 11.32s-1.788 8.421-4.681 11.32v0zM128 448c0 176.44 143.56 320 320 320 76.68 0 146.2-28.24 201.38-73.38l-448-448c-45.16 55.18-73.38 124.7-73.38 201.38zM768 448c0-176.44-143.56-320-320-320-76.68 0-146.2 28.24-201.38 73.38l448 448c45.16-55.18 73.38-124.7 73.38-201.38z" />
<glyph unicode="&#xe903;" glyph-name="heart-sk" horiz-adv-x="896" d="M800 896h-704c-53 0-96-43-96-96v-704c0-53 43-96 96-96h704c53 0 96 43 96 96v704c0 53-43 96-96 96zM702.2 578.4c0.4-5.6 0.4-11.4 0.4-17 0-173.4-132-373.2-373.2-373.2-74.4 0-143.4 21.6-201.4 58.8 10.6-1.2 20.8-1.6 31.6-1.6 61.4 0 117.8 20.8 162.8 56-57.6 1.2-106 39-122.6 91 20.2-3 38.4-3 59.2 2.4-60 12.2-105 65-105 128.8v1.6c17.4-9.8 37.8-15.8 59.2-16.6-35.411 23.8-58.4 63.708-58.4 108.986 0 0.075 0 0.151 0 0.226v-0.012c0 24.4 6.4 46.8 17.8 66.2 64.6-79.6 161.6-131.6 270.4-137.2-18.6 89 48 161.2 128 161.2 37.8 0 71.8-15.8 95.8-41.4 29.6 5.6 58 16.6 83.2 31.6-9.8-30.4-30.4-56-57.6-72.2 26.4 2.8 52 10.2 75.6 20.4-17.8-26.2-40.2-49.4-65.8-68z" />
<glyph unicode="&#xe904;" glyph-name="twitter-brands" d="M918.74 656.568c0.65-9.096 0.65-18.194 0.65-27.29 0-277.44-211.166-597.116-597.116-597.116-118.904 0-229.36 34.438-322.274 94.212 16.894-1.948 33.136-2.598 50.68-2.598 98.11 0 188.426 33.136 260.548 89.664-92.264 1.95-169.584 62.376-196.224 145.544 12.996-1.948 25.99-3.248 39.636-3.248 18.842 0 37.686 2.6 55.228 7.146-96.162 19.494-168.286 103.96-168.286 205.97v2.598c27.938-15.594 60.428-25.34 94.862-26.638-56.528 37.686-93.562 102.010-93.562 174.782 0 38.984 10.394 74.72 28.588 105.908 103.31-127.35 258.6-210.516 432.73-219.614-3.248 15.594-5.198 31.836-5.198 48.080 0 115.656 93.564 209.868 209.868 209.868 60.426 0 115.004-25.34 153.34-66.274 47.43 9.096 92.912 26.64 133.198 50.68-15.596-48.732-48.732-89.666-92.264-115.654 42.234 4.546 83.168 16.244 120.852 32.486-28.584-41.582-64.322-78.616-105.256-108.506z" />
<glyph unicode="&#xe905;" glyph-name="hashtag-solid" horiz-adv-x="896" d="M881.334 595.782l14.286 80c2.626 14.71-8.684 28.218-23.626 28.218h-149.62l29.246 163.782c2.626 14.71-8.684 28.218-23.626 28.218h-81.264c-11.764 0-21.551-8.464-23.604-19.635l-0.022-0.147-30.754-172.218h-197.27l29.246 163.782c2.628 14.71-8.682 28.218-23.626 28.218h-81.264c-11.764 0-21.551-8.464-23.604-19.635l-0.022-0.147-30.754-172.218h-158.192c-11.764 0-21.551-8.464-23.604-19.635l-0.022-0.147-14.286-80c-2.626-14.71 8.684-28.218 23.626-28.218h149.62l-45.714-256h-158.192c-11.764 0-21.551-8.464-23.604-19.635l-0.022-0.147-14.286-80c-2.626-14.71 8.684-28.218 23.626-28.218h149.62l-29.246-163.782c-2.626-14.71 8.684-28.218 23.626-28.218h81.264c11.764 0 21.551 8.464 23.604 19.635l0.022 0.147 30.756 172.218h197.268l-29.246-163.782c-2.628-14.71 8.682-28.218 23.626-28.218h81.264c11.764 0 21.551 8.464 23.604 19.635l0.022 0.147 30.754 172.218h158.192c11.764 0 21.551 8.464 23.604 19.635l0.022 0.147 14.286 80c2.626 14.71-8.684 28.218-23.626 28.218h-149.62l45.714 256h158.192c11.764 0 21.551 8.464 23.604 19.635l0.022 0.147zM523.778 320h-197.268l45.714 256h197.268l-45.714-256z" />
<glyph unicode="&#xe906;" glyph-name="instagram-brands" horiz-adv-x="896" d="M448.2 678c-127.2 0-229.8-102.6-229.8-229.8s102.6-229.8 229.8-229.8 229.8 102.6 229.8 229.8-102.6 229.8-229.8 229.8zM448.2 298.8c-82.2 0-149.4 67-149.4 149.4s67 149.4 149.4 149.4 149.4-67 149.4-149.4-67.2-149.4-149.4-149.4zM741 687.4c0-29.8-24-53.6-53.6-53.6-29.8 0-53.6 24-53.6 53.6s24 53.6 53.6 53.6 53.6-24 53.6-53.6zM893.2 633c-3.4 71.8-19.8 135.4-72.4 187.8-52.4 52.4-116 68.8-187.8 72.4-74 4.2-295.8 4.2-369.8 0-71.6-3.4-135.2-19.8-187.8-72.2s-68.8-116-72.4-187.8c-4.2-74-4.2-295.8 0-369.8 3.4-71.8 19.8-135.4 72.4-187.8s116-68.8 187.8-72.4c74-4.2 295.8-4.2 369.8 0 71.8 3.4 135.4 19.8 187.8 72.4 52.4 52.4 68.8 116 72.4 187.8 4.2 74 4.2 295.6 0 369.6zM797.6 184c-15.6-39.2-45.8-69.4-85.2-85.2-59-23.4-199-18-264.2-18s-205.4-5.2-264.2 18c-39.2 15.6-69.4 45.8-85.2 85.2-23.4 59-18 199-18 264.2s-5.2 205.4 18 264.2c15.6 39.2 45.8 69.4 85.2 85.2 59 23.4 199 18 264.2 18s205.4 5.2 264.2-18c39.2-15.6 69.4-45.8 85.2-85.2 23.4-59 18-199 18-264.2s5.4-205.4-18-264.2z" />
<glyph unicode="&#xe907;" glyph-name="instagram-square-brands" horiz-adv-x="896" d="M448 554.68c-58.901-0.023-106.64-47.776-106.64-106.68 0-58.918 47.762-106.68 106.68-106.68s106.68 47.762 106.68 106.68v0c-0.046 58.913-47.803 106.657-106.718 106.68h-0.002zM697.42 636.68c-11.218 27.905-32.915 49.602-60.094 60.562l-0.726 0.258c-42 16.58-142 12.86-188.6 12.86s-146.5 3.86-188.62-12.86c-27.905-11.218-49.602-32.915-60.562-60.094l-0.258-0.726c-16.56-42-12.86-142.1-12.86-188.66s-3.7-146.54 12.94-188.68c11.218-27.905 32.915-49.602 60.094-60.562l0.726-0.258c42-16.58 142-12.86 188.62-12.86s146.48-3.86 188.6 12.86c27.905 11.218 49.602 32.915 60.562 60.094l0.258 0.726c16.7 42 12.86 142.1 12.86 188.66s3.84 146.52-12.86 188.66zM448 284c-90.575 0-164 73.425-164 164s73.425 164 164 164c90.575 0 164-73.425 164-164v0c0-0.059 0-0.13 0-0.2 0-90.464-73.336-163.8-163.8-163.8-0.070 0-0.141 0-0.211 0h0.011zM618.76 580.6c-0.006 0-0.013 0-0.020 0-21.141 0-38.28 17.139-38.28 38.28s17.139 38.28 38.28 38.28c21.141 0 38.28-17.139 38.28-38.28v0c0-0.048 0-0.104 0-0.16 0-21.090-17.092-38.189-38.179-38.2h-0.001zM800 896h-704c-53.019 0-96-42.981-96-96v0-704c0-53.019 42.981-96 96-96v0h704c53.019 0 96 42.981 96 96v0 704c0 53.019-42.981 96-96 96v0zM765.76 316c-2.58-51.26-14.28-96.68-51.7-134s-82.8-49.26-134-51.7c-52.82-2.98-211.18-2.98-264 0-51.26 2.58-96.52 14.3-134 51.7s-49.26 82.84-51.7 134c-2.98 52.84-2.98 211.22 0 264 2.58 51.26 14.14 96.68 51.7 134s82.94 49.12 134 51.56c52.82 2.98 211.18 2.98 264 0 51.26-2.58 96.66-14.3 134-51.7s49.26-82.84 51.7-134.1c2.98-52.64 2.98-210.88 0-263.76z" />
<glyph unicode="&#xe908;" glyph-name="facebook-messenger-brands" d="M513.1 944c-280.060 0-497.1-204.68-497.1-481.14 0-144.6 59.42-269.56 156.14-355.88 16.7-15.020 13.26-23.72 16.1-116.46 0.76-21.405 18.295-38.469 39.816-38.469 5.767 0 11.248 1.225 16.197 3.43l-0.253-0.101c105.82 46.6 107.18 50.28 125.12 45.4 306.58-84.38 638.88 111.82 638.88 462.080 0 276.46-214.82 481.14-494.9 481.14zM811.58 573.74l-146-231.14c-13.469-20.994-36.69-34.705-63.113-34.705-16.85 0-32.397 5.576-44.898 14.983l0.191-0.138-116.16 86.94c-4.951 3.746-11.212 6-18 6s-13.049-2.254-18.075-6.055l0.075 0.055-156.74-118.88c-20.92-15.86-48.32 9.2-34.22 31.34l146 231.14c13.464 20.998 36.684 34.714 63.108 34.714 16.853 0 32.403-5.579 44.903-14.992l-0.191 0.138 116.12-86.92c4.951-3.746 11.212-6 18-6s13.049 2.254 18.075 6.055l-0.075-0.055 156.82 118.76c20.88 15.96 48.28-9.080 34.18-31.24z" />
<glyph unicode="&#xe909;" glyph-name="facebook-square-brands" horiz-adv-x="896" d="M800 896h-704c-53.019 0-96-42.981-96-96v0-704c0-53.019 42.981-96 96-96v0h274.5v304.62h-126v143.38h126v109.28c0 124.3 74 192.96 187.34 192.96 54.28 0 111.040-9.68 111.040-9.68v-122h-62.54c-61.62 0-80.84-38.24-80.84-77.46v-93.1h137.56l-22-143.38h-115.56v-304.62h274.5c53.019 0 96 42.981 96 96v0 704c0 53.019-42.981 96-96 96v0z" />
<glyph unicode="&#xe90a;" glyph-name="facebook-f-brands" horiz-adv-x="640" d="M558.28 384l28.44 185.32h-177.82v120.26c0 50.7 24.84 100.12 104.48 100.12h80.84v157.78s-73.36 12.52-143.5 12.52c-146.44 0-242.16-88.76-242.16-249.44v-141.24h-162.78v-185.32h162.78v-448h200.34v448z" />
<glyph unicode="&#xe90b;" glyph-name="times-circle-solid" d="M512 944c-274 0-496-222-496-496s222-496 496-496 496 222 496 496-222 496-496 496zM755.2 317.8c9.4-9.4 9.4-24.6 0-34l-79.2-79c-9.4-9.4-24.6-9.4-34 0l-130 131.2-130.2-131.2c-9.4-9.4-24.6-9.4-34 0l-79 79.2c-9.4 9.4-9.4 24.6 0 34l131.2 130-131.2 130.2c-9.4 9.4-9.4 24.6 0 34l79.2 79.2c9.4 9.4 24.6 9.4 34 0l130-131.4 130.2 131.2c9.4 9.4 24.6 9.4 34 0l79.2-79.2c9.4-9.4 9.4-24.6 0-34l-131.4-130 131.2-130.2z" />
<glyph unicode="&#xe90c;" glyph-name="times-circle-regular" d="M512 944c-274 0-496-222-496-496s222-496 496-496 496 222 496 496-222 496-496 496zM512 48c-221 0-400 179-400 400s179 400 400 400 400-179 400-400-179-400-400-400zM715.6 572.4l-124.4-124.4 124.4-124.4c9.4-9.4 9.4-24.6 0-34l-45.2-45.2c-9.4-9.4-24.6-9.4-34 0l-124.4 124.4-124.4-124.4c-9.4-9.4-24.6-9.4-34 0l-45.2 45.2c-9.4 9.4-9.4 24.6 0 34l124.4 124.4-124.4 124.4c-9.4 9.4-9.4 24.6 0 34l45.2 45.2c9.4 9.4 24.6 9.4 34 0l124.4-124.4 124.4 124.4c9.4 9.4 24.6 9.4 34 0l45.2-45.2c9.4-9.4 9.4-24.6 0-34z" />
<glyph unicode="&#xe90d;" glyph-name="trademark-solid" horiz-adv-x="1280" d="M521.2 768h-497.2c-13.2 0-24-10.8-24-24v-86.2c0-13.2 10.8-24 24-24h170.2v-481.8c0-13.2 10.8-24 24-24h108.6c13.2 0 24 10.8 24 24v481.8h170.2c13.2 0 24 10.8 24 24v86.2c0.2 13.2-10.6 24-23.8 24zM1280 154l-48 592c-1 12.4-11.4 22-24 22h-130.8c-10.2 0-19.4-6.6-22.6-16.2l-87.6-254.2c-14.4-41.2-32.2-105.6-32.2-105.6h-1.8s-17.8 64.4-32.2 105.6l-87.6 254.2c-3.4 9.6-12.4 16.2-22.6 16.2h-130.8c-12.4 0-22.8-9.6-24-22l-48.8-592c-1.2-14 9.8-26 24-26h109c12.6 0 23 9.8 24 22.4l18.2 265.8c3.6 48.4 0 107.4 0 107.4h1.8s21.4-67.2 35.8-107.4l61.4-169.4c3.4-9.4 12.4-15.8 22.6-15.8h100.6c10.2 0 19.2 6.4 22.6 15.8l61.4 169.4c14.4 40.2 35.8 107.4 35.8 107.4h1.8s-3.6-59 0-107.4l18.2-265.8c0.8-12.6 11.4-22.4 24-22.4h107.8c14 0 25 12 24 26z" />
<glyph unicode="&#xe90e;" glyph-name="copyright-regular" d="M512 944c-273.934 0-496-222.066-496-496s222.066-496 496-496 496 222.066 496 496-222.066 496-496 496zM512 48c-221.064 0-400 178.902-400 400 0 221.062 178.902 400 400 400 221.064 0 400-178.902 400-400 0-221.064-178.902-400-400-400zM726.702 250.128c-19.228-19.424-91.060-82.792-208.13-82.792-164.86 0-280.968 122.85-280.968 283.134 0 158.304 120.55 278.802 279.524 278.802 111.062 0 177.476-53.24 195.186-69.558 4.76-4.388 7.731-10.654 7.731-17.613 0-4.845-1.44-9.353-3.915-13.121l0.056 0.091-36.31-56.226c-7.682-11.9-23.932-14.564-34.998-5.842-17.19 13.552-63.628 45.076-123.416 45.076-96.606 0-155.832-70.66-155.832-160.164 0-83.178 53.776-167.384 156.554-167.384 65.314 0 113.686 38.078 131.452 54.45 10.54 9.714 27.192 8.078 35.64-3.476l39.73-54.34c2.91-3.913 4.659-8.84 4.659-14.176 0-6.581-2.66-12.54-6.964-16.861l0.001 0.001z" />
<glyph unicode="&#xe90f;" glyph-name="copyright-solid" d="M512 944c-273.934 0-496-222.066-496-496s222.066-496 496-496 496 222.066 496 496-222.066 496-496 496zM746.268 250.494c-3.184-3.734-79.552-91.462-219.702-91.462-169.384 0-288.968 126.52-288.968 291.134 0 162.606 124.008 286.802 287.524 286.802 133.914 0 203.93-74.63 206.844-77.808 3.915-4.257 6.315-9.961 6.315-16.225 0-4.839-1.432-9.344-3.896-13.113l0.056 0.092-44.76-69.31c-8.098-12.534-25.548-14.702-36.468-4.59-0.466 0.428-53.058 47.76-123.76 47.76-92.232 0-147.832-67.15-147.832-152.164 0-79.204 51.028-159.384 148.554-159.384 77.394 0 130.56 56.676 131.088 57.25 10.264 11.13 28.118 10.066 37.016-2.106l49.094-67.144c2.89-3.916 4.626-8.838 4.626-14.166 0-5.955-2.169-11.404-5.759-15.599l0.027 0.033z" />
<glyph unicode="&#xe910;" glyph-name="facebook-brands" d="M1008 448c0 274-222 496-496 496s-496-222-496-496c0-247.56 181.38-452.76 418.5-490v346.62h-126v143.38h126v109.28c0 124.3 74 192.96 187.34 192.96 54.28 0 111.040-9.68 111.040-9.68v-122h-62.56c-61.6 0-80.82-38.24-80.82-77.46v-93.1h137.56l-22-143.38h-115.56v-346.62c237.12 37.24 418.5 242.44 418.5 490z" />
<glyph unicode="&#xe911;" glyph-name="chevron-up" d="M0.064 258.688c-0.032-0.896-0.064-1.952-0.064-3.008 0-34.112 26.88-61.92 60.64-63.392h0.128c0.864-0.032 1.888-0.064 2.88-0.064 17.056 0 32.544 6.656 44.032 17.472l-0.032-0.032 404.448 346.912 408.544-350.528c10.784-8.672 24.64-13.888 39.712-13.888 35.168 0 63.648 28.512 63.648 63.648 0 2.464-0.128 4.864-0.416 7.264l0.032-0.288c-2.048 17.856-11.104 33.248-24.288 43.648l-0.128 0.096-445.824 382.176c-9.568 8.256-21.76 13.728-35.168 15.072l-0.256 0.032c-0.832 0.032-1.792 0.064-2.784 0.064s-1.952-0.032-2.912-0.064h0.128c-16-0.16-30.592-6.016-41.92-15.616l0.096 0.064-450.080-385.664c-11.904-11.008-19.616-26.464-20.448-43.712v-0.16z" />
<glyph unicode="&#xe912;" glyph-name="chevron-right" d="M322.688-63.936c-0.896-0.032-1.952-0.064-3.008-0.064-34.112 0-61.92 26.88-63.392 60.64v0.128c-0.032 0.864-0.064 1.888-0.064 2.88 0 17.056 6.656 32.544 17.472 44.032l-0.032-0.032 346.912 404.448-350.528 408.544c-8.672 10.784-13.888 24.64-13.888 39.712 0 35.168 28.512 63.648 63.648 63.648 2.464 0 4.864-0.128 7.264-0.416l-0.288 0.032c17.856-2.048 33.248-11.104 43.648-24.288l0.096-0.128 382.176-445.824c8.256-9.568 13.728-21.76 15.072-35.168l0.032-0.256c0.032-0.832 0.064-1.792 0.064-2.784s-0.032-1.952-0.096-2.912v0.128c-0.16-16-6.016-30.592-15.616-41.92l0.064 0.096-385.696-450.080c-11.008-11.904-26.464-19.616-43.712-20.448h-0.16z" />
<glyph unicode="&#xe913;" glyph-name="chevron-left" d="M701.312 959.936c0.896 0.032 1.952 0.064 3.008 0.064 34.112 0 61.92-26.88 63.392-60.64v-0.128c0.032-0.864 0.064-1.888 0.064-2.88 0-17.056-6.656-32.544-17.472-44.032l0.032 0.032-346.912-404.448 350.528-408.544c8.672-10.784 13.888-24.64 13.888-39.712 0-35.168-28.512-63.648-63.648-63.648-2.464 0-4.864 0.128-7.264 0.416l0.288-0.032c-17.856 2.048-33.248 11.104-43.648 24.288l-0.096 0.128-382.176 445.824c-8.256 9.568-13.728 21.76-15.072 35.168l-0.032 0.256c-0.032 0.832-0.064 1.792-0.064 2.784s0.032 1.952 0.064 2.912v-0.128c0.16 16 6.016 30.592 15.616 41.92l-0.064-0.096 385.664 450.080c11.008 11.904 26.464 19.616 43.712 20.448h0.16z" />
<glyph unicode="&#xe914;" glyph-name="chevron-down" d="M0.064 637.312c-0.032 0.896-0.064 1.952-0.064 3.008 0 34.112 26.88 61.92 60.64 63.392h0.128c0.864 0.032 1.888 0.064 2.88 0.064 17.056 0 32.544-6.656 44.032-17.472l-0.032 0.032 404.448-346.912 408.544 350.528c10.784 8.672 24.64 13.888 39.712 13.888 35.168 0 63.648-28.512 63.648-63.648 0-2.464-0.128-4.864-0.416-7.264l0.032 0.288c-2.048-17.856-11.104-33.248-24.288-43.648l-0.128-0.096-445.824-382.176c-9.568-8.256-21.76-13.728-35.168-15.072l-0.256-0.032c-0.832-0.032-1.792-0.064-2.784-0.064s-1.952 0.032-2.912 0.096h0.128c-16 0.16-30.592 6.016-41.92 15.616l0.096-0.064-450.080 385.696c-11.904 11.008-19.616 26.464-20.448 43.712v0.16z" />
<glyph unicode="&#xe915;" glyph-name="chevron_right" horiz-adv-x="736" d="M632.576 458.848l-424-424q-10.848-10.848-25.728-10.848t-25.728 10.848l-94.848 94.848q-10.848 10.848-10.848 25.728t10.848 25.728l303.424 303.424-303.424 303.424q-10.848 10.848-10.848 25.728t10.848 25.728l94.848 94.848q10.848 10.848 25.728 10.848t25.728-10.848l424-424q10.848-10.848 10.848-25.728t-10.848-25.728z" />
<glyph unicode="&#xe916;" glyph-name="chevron_left" horiz-adv-x="736" d="M669.152 788l-303.424-303.424 303.424-303.424q10.848-10.848 10.848-25.728t-10.848-25.728l-94.848-94.848q-10.848-10.848-25.728-10.848t-25.728 10.848l-424 424q-10.848 10.848-10.848 25.728t10.848 25.728l424 424q10.848 10.848 25.728 10.848t25.728-10.848l94.848-94.848q10.848-10.848 10.848-25.728t-10.848-25.728z" />
<glyph unicode="&#xe917;" glyph-name="sk-heart" horiz-adv-x="1201" d="M0 575.688c0 11.551 0 22.79 0 34.341 4.683 19.044 18.732 31.532 32.468 44.332 21.229 19.98 39.337 43.395 64.312 59.317-21.854-14.361-46.829-20.605-71.493-27.785-10.302-3.122-14.985 1.249-19.044 9.99-8.741 19.98-2.81 38.712 6.868 56.195 18.732 34.654 40.273 67.746 60.254 101.776 1.561 2.81 3.746 4.995 4.683 8.117 16.234 43.395 54.634 63.376 91.785 83.668 16.234 8.741 34.029 8.117 49.327-4.995 8.741-7.493 9.678-15.298 2.81-24.351-8.429-10.615-16.546-21.229-25.6-31.22-31.22-34.341-62.439-68.995-94.283-103.337-1.249-1.249-2.81-2.81-3.746-3.122 14.985 14.361 35.278 22.478 53.073 34.341 67.746 44.956 133.307 93.346 203.239 135.493 12.488 7.493 25.912 11.551 40.898 10.927 14.049-0.624 16.859-4.371 9.99-17.171-11.239-20.605-25.6-39.024-41.522-56.195-49.951-53.385-105.21-101.463-147.98-136.429 54.634 39.961 128.937 82.732 200.429 129.249 22.166 14.361 44.332 28.722 67.122 42.146 14.985 8.741 20.293 6.868 26.537-9.99 1.561-4.371 3.434-8.741 4.683-13.112 3.746-13.737 13.112-20.293 26.849-22.166 17.795-2.81 35.902-4.995 53.698-9.366 15.922-4.059 17.795-10.302 6.556-22.478-34.966-37.776-75.239-69.62-115.2-102.088-72.429-58.693-147.356-114.263-221.659-170.771-13.424-10.302-27.473-19.668-40.898-29.971 52.137 41.21 110.517 73.054 166.4 108.644 95.532 60.566 190.751 121.444 286.283 181.698 63.688 40.898 129.249 78.673 194.185 118.010 19.98 12.176 42.459 10.927 64.312 10.302 11.551-0.312 8.741-8.117 4.995-14.049-9.678-15.298-20.605-29.659-31.22-44.644-9.678-13.424-19.044-26.849-28.098-36.527 40.273 23.727 83.98 46.205 132.683 57.132 14.673 3.434 28.722-2.185 42.459-6.556 9.99-3.122 19.98-6.244 29.346-10.302 14.049-5.932 15.298-13.112 3.122-24.039-20.293-17.795-41.834-34.029-64-49.639-111.766-78.049-228.527-148.917-340.917-226.029-107.707-73.99-215.102-148.605-316.878-230.4-35.59-28.41-70.244-58.38-99.278-93.971-4.995-6.244-11.551-11.239-18.42-15.298 57.756 34.654 114.576 70.244 171.083 106.771 63.376 41.21 127.063 82.42 190.751 123.317 142.049 91.473 283.785 183.883 426.771 273.795 35.59 22.478 73.99 39.961 113.015 55.571 4.995 1.873 9.678 4.059 14.673 0 5.307-4.683 3.746-10.302 1.873-15.922-6.868-22.478-22.166-39.649-39.024-54.946-15.298-14.049-33.717-23.727-51.512-34.341-105.21-62.439-208.546-128.312-311.259-194.185-108.332-69.307-214.166-142.361-316.878-219.785-18.732-14.049-38.712-27.161-58.693-39.649 201.054 128.624 402.732 256.937 605.971 382.751 54.322 33.717 108.020 68.059 167.961 91.161 2.81 1.249 5.62 2.498 8.741 3.746 15.61 5.307 23.102-0.937 19.98-17.483-4.371-22.478-18.732-37.463-36.527-50.263-55.571-39.337-115.2-71.805-172.956-107.707-159.532-98.654-319.063-197.62-470.166-309.698-37.776-27.785-71.493-60.566-107.707-88.663 31.532 26.849 69.307 46.205 105.21 68.371 103.649 65.249 206.361 131.434 310.322 195.746 96.468 59.941 191.688 121.756 290.654 177.639 22.166 12.488 44.956 23.727 68.059 34.029 16.234 7.493 19.044 4.059 20.605-13.424 2.81-31.844-7.18-57.444-28.098-81.483-20.293-23.102-40.585-45.893-62.127-67.434-7.493-7.18-16.234-12.488-20.917-15.61 18.732 14.049 45.268 23.102 70.868 33.717 11.239 4.683 15.922 1.249 18.107-11.239 4.683-25.912-1.561-49.327-18.732-69.62-25.912-30.283-58.068-53.073-89.912-76.176-108.644-77.737-219.473-151.727-330.615-225.717-20.605-13.737-40.898-28.41-61.19-41.834 0.312 0 0.312 0 0.624 0.312 87.415 58.693 173.893 118.322 265.054 170.771 30.907 17.795 62.439 34.966 95.532 48.39 9.054 3.746 19.356 10.927 27.161-2.498 6.556-11.239 4.059-24.663-5.932-33.405-20.917-18.732-44.332-34.029-68.371-48.39-139.239-83.98-274.732-174.205-413.659-258.498-11.551-7.18-23.415-13.112-36.527-16.546-10.615-2.81-21.229-0.937-31.844-1.249-8.741 3.746-6.244 11.239-4.683 17.171 9.054 38.4 25.6 71.493 56.82 98.654 41.522 36.215 87.102 66.185 132.059 97.093 0.937 0.624 2.185 0.937 2.81 1.561-0.312-0.312 0 0-0.312-0.312-0.937-0.937-2.185-1.249-3.122-1.873-62.751-42.459-123.941-86.478-189.502-124.566-29.971-17.483-60.878-17.795-93.346-15.922-5.307 0.312-10.302 1.873-11.551 8.429-1.249 6.868 3.434 10.302 7.805 14.049 29.346 25.6 60.566 48.702 93.034 70.244 137.99 93.034 275.356 187.005 408.039 287.532 56.195 42.459 111.454 86.166 163.902 133.307 9.054 8.117 20.293 13.737 27.785 20.605-42.771-33.093-92.41-58.693-139.551-87.727-93.346-57.756-186.068-117.073-278.79-175.766-92.41-58.38-185.132-116.449-279.415-172.020-20.917-12.488-41.522-25.6-62.439-37.776-5.62-3.122-11.551-8.429-18.42-4.371-7.493 4.683-6.556 12.8-5.62 19.668 3.122 24.663 5.932 49.327 15.298 72.741 0.624 1.873 1.561 4.059-0.312 8.117-16.234-8.429-31.22-19.044-47.141-28.098-5.307-3.122-10.302-6.868-15.922-9.678-4.683-2.498-9.366-4.371-14.673-0.937-4.995 3.434-5.307 8.429-4.371 13.737 1.873 12.176 3.746 24.663 5.932 36.839 0.937 4.683 1.249 9.366 1.561 14.049 0.312 9.99-3.434 13.737-13.112 8.741-9.678-4.683-19.356-9.99-29.346-14.361-16.546-7.493-21.854-4.371-22.478 13.737-1.561 49.327 13.424 90.849 47.766 128.312 64 68.995 138.927 124.254 213.854 179.824 162.341 120.507 332.488 229.463 475.161 323.122-86.79-47.141-194.81-119.259-302.205-192.312-130.498-88.976-257.561-183.259-383.063-279.415-20.917-15.922-41.834-32.156-64.312-46.517-15.922-10.302-33.405-16.859-51.2-21.854-5.62-1.561-11.239-2.498-15.922 2.81s-2.185 10.615 0 15.922c12.488 32.78 39.961 52.137 66.498 72.117 108.956 82.732 219.785 163.278 328.741 246.010 61.502 46.829 122.693 93.971 182.634 142.673 15.922 13.112 33.093 24.351 50.576 35.278-168.585-108.644-339.044-214.478-507.317-323.746-40.273-26.224-81.171-52.137-124.254-73.99-10.302-4.995-20.605-9.678-31.532-13.424-19.356-6.556-27.785-0.312-26.849 19.98 0.937 20.917 9.366 38.712 21.854 55.571 16.859 22.79 38.712 40.273 59.941 58.693 66.185 58.068 136.429 111.454 206.049 165.151 18.107 14.049 37.463 26.224 54.946 40.585-0.312-0.312 0 0-0.312-0.312-57.444-40.273-112.39-81.483-167.337-122.693-52.137-38.712-106.459-73.678-160.156-109.893-14.985-9.99-29.971-10.302-45.268-1.561-15.61 8.741-18.42 22.478-7.805 37.151 25.912 35.278 58.38 62.751 96.156 84.293 3.122 1.873 5.62 4.059 8.741 5.307-0.312-0.312 0 0-0.312-0.312-30.283-19.668-61.502-36.527-94.595-50.263-7.493-2.498-14.049-4.995-20.917 0.624z" />
<glyph unicode="&#xe918;" glyph-name="play-solid" horiz-adv-x="896" d="M848.8 530.6l-704 416.2c-57.2 33.8-144.8 1-144.8-82.6v-832.2c0-75 81.4-120.2 144.8-82.6l704 416c62.8 37 63 128.2 0 165.2z" />
<glyph unicode="&#xe919;" glyph-name="cloud-upload-alt-solid" horiz-adv-x="1280" d="M1075.2 506.8c8.2 21.4 12.8 44.8 12.8 69.2 0 106-86 192-192 192-39.4 0-76.2-12-106.6-32.4-55.4 96-158.8 160.4-277.4 160.4-176.8 0-320-143.2-320-320 0-5.4 0.2-10.8 0.4-16.2-112-39.4-192.4-146.2-192.4-271.8 0-159 129-288 288-288h736c141.4 0 256 114.6 256 256 0 123.8-88 227.2-204.8 250.8zM786.8 384h-130.8v-224c0-17.6-14.4-32-32-32h-96c-17.6 0-32 14.4-32 32v224h-130.8c-28.6 0-42.8 34.4-22.6 54.6l210.8 210.8c12.4 12.4 32.8 12.4 45.2 0l210.8-210.8c20.2-20.2 5.8-54.6-22.6-54.6z" />
<glyph unicode="&#xe91a;" glyph-name="cloud-download-alt-solid" horiz-adv-x="1280" d="M1075.2 506.8c8.2 21.4 12.8 44.8 12.8 69.2 0 106-86 192-192 192-39.4 0-76.2-12-106.6-32.4-55.4 96-158.8 160.4-277.4 160.4-176.8 0-320-143.2-320-320 0-5.4 0.2-10.8 0.4-16.2-112-39.4-192.4-146.2-192.4-271.8 0-159 129-288 288-288h736c141.4 0 256 114.6 256 256 0 123.8-88 227.2-204.8 250.8zM809.4 329.4l-210.8-210.8c-12.4-12.4-32.8-12.4-45.2 0l-210.8 210.8c-20.2 20.2-5.8 54.6 22.6 54.6h130.8v224c0 17.6 14.4 32 32 32h96c17.6 0 32-14.4 32-32v-224h130.8c28.4 0 42.8-34.4 22.6-54.6z" />
<glyph unicode="&#xe91b;" glyph-name="play-circle-regular" d="M743.4 484l-352 214c-31.6 17.6-71.4-5-71.4-42v-416c0-36.8 39.6-59.6 71.4-42l352 202c32.8 18.2 32.8 65.6 0 84zM1008 448c0 274-222 496-496 496s-496-222-496-496 222-496 496-496 496 222 496 496zM112 448c0 221 179 400 400 400s400-179 400-400-179-400-400-400-400 179-400 400z" />
<glyph unicode="&#xe91c;" glyph-name="play-circle-solid" d="M512 944c-274 0-496-222-496-496s222-496 496-496 496 222 496 496-222 496-496 496zM743.4 400l-352-202c-31.6-17.6-71.4 5-71.4 42v416c0 36.8 39.6 59.6 71.4 42l352-214c32.8-18.4 32.8-65.8 0-84z" />
<glyph unicode="&#xe91d;" glyph-name="mail" d="M829.086 249.751c-4.061 0-8.123 1.486-11.293 4.491l-189.994 178.239c-6.637 6.208-6.967 16.675-0.726 23.312 6.241 6.703 16.642 7 23.345 0.726l189.994-178.239c6.637-6.208 6.967-16.675 0.726-23.312-3.269-3.467-7.627-5.217-12.052-5.217zM194.881 249.751c-4.392 0-8.783 1.75-12.052 5.217-6.241 6.637-5.91 17.104 0.726 23.312l190.060 178.239c6.67 6.208 17.137 5.944 23.345-0.726 6.241-6.637 5.91-17.104-0.726-23.312l-190.060-178.239c-3.17-3.005-7.231-4.491-11.293-4.491zM941.451 84.026h-858.903c-45.501 0-82.549 37.015-82.549 82.549v562.883c0 45.534 37.048 82.549 82.549 82.549h858.903c45.501 0 82.549-37.015 82.549-82.549v-562.883c0-45.534-37.048-82.549-82.549-82.549zM82.549 778.987c-27.307 0-49.529-22.222-49.529-49.529v-562.883c0-27.307 22.222-49.529 49.529-49.529h858.903c27.307 0 49.529 22.222 49.529 49.529v562.883c0 27.307-22.222 49.529-49.529 49.529h-858.903zM512 365.055c-21.958 0-43.916 7.297-60.624 21.859l-423.97 369.851c-6.868 5.977-7.594 16.411-1.618 23.312 6.043 6.868 16.444 7.495 23.312 1.585l423.97-369.818c21.099-18.392 56.76-18.392 77.827 0l423.442 369.224c6.835 5.977 17.236 5.316 23.312-1.585 5.977-6.901 5.283-17.302-1.585-23.312l-423.442-369.224c-16.741-14.595-38.666-21.892-60.624-21.892z" />
<glyph unicode="&#xe91e;" glyph-name="iron" d="M1023.707 357.672c-9.367 84.242-37.984 167.64-65.453 231.991l32.836 12.687c9.437 3.641 16.891 10.742 20.976 19.992 4.094 9.25 4.344 19.539 0.703 28.969l-32.086 83.062c-7.531 19.476-29.492 29.195-48.969 21.672l-51.125-19.75c-0.781 1.25-1.562 2.508-2.367 3.789-8.828 14.156-25.187 21.812-41.703 19.508l-140.835-19.648c-213.468-25.344-316.194-71.367-323.804-74.883-21.273-8.891-41.797-19.062-61.547-30.453-2.828 21.539-21.289 38.226-43.586 38.226h-50.773c-24.25 0-43.969-19.726-43.969-43.976v-108.89c-30.094-34.773-56.601-73.867-79.008-116.671-43.234-82.57-57.703-152.484-60.539-167.976l-27.945-44.422c-0.32-0.523-0.617-1.062-0.875-1.617-5.578-11.867-4.703-25.57 2.328-36.64s19.062-17.68 32.18-17.68h114.32c8.273 0 14.984 6.711 14.984 14.984s-6.711 14.977-14.984 14.977h-114.32c-4.047 0-6.164 2.648-6.883 3.789-0.687 1.070-2.047 3.828-0.773 7.195l24.5 38.953h787.161v-41.773c0-4.5-3.656-8.156-8.156-8.156h-611.615c-8.273 0-14.984-6.711-14.984-14.984s6.711-14.977 14.984-14.977h611.615c21.016 0 38.117 17.102 38.117 38.117v113.75c0 9.773 7.953 17.727 17.727 17.727h86.484c13.531 0 26.461 5.781 35.484 15.859 9.062 10.125 13.406 23.703 11.898 37.25zM942.52 728.101c1.969 0.758 4.109 0.711 6.039-0.141 1.93-0.859 3.414-2.414 4.172-4.383l32.086-83.062c0.766-1.969 0.711-4.117-0.141-6.047-0.859-1.922-2.414-3.406-4.383-4.172l-34.172-13.195c-1.961 4.273-3.898 8.445-5.805 12.484-15.531 32.914-26.547 52.734-43.687 80.789zM201.968 628.859c0 7.727 6.281 14.016 14.016 14.016h50.765c7.734 0 14.016-6.289 14.016-14.016v-12.633c-28.133-18.781-54.453-40.25-78.797-64.273zM989.481 340.399c-3.391-3.789-8.062-5.875-13.156-5.875h-86.484c-26.297 0-47.687-21.391-47.687-47.687v-42.015h-777.029c6.344 27.133 22.047 83.015 54.906 145.507 26.883 51.14 59.844 96.672 97.968 135.343 47.492 48.164 103.242 85.797 165.703 111.851 0.195 0.086 0.398 0.172 0.594 0.266 1 0.469 102.422 47.187 315.077 72.422 0.102 0.008 0.203 0.023 0.305 0.039l140.984 19.672c4.805 0.664 9.57-1.562 12.141-5.687 27.406-43.937 39.914-63.992 60.429-107.445 30.75-65.14 69.711-163.546 80.703-262.429 0.57-5.156-1.008-10.109-4.453-13.961zM800.653 468.726c-2.078 8.008-10.258 12.82-18.266 10.734-8.008-2.078-12.812-10.258-10.734-18.266 3.031-11.648 5.312-22.805 6.789-33.156 0.734-5.148-0.75-10.148-4.164-14.078-3.43-3.953-8.195-6.133-13.43-6.133h-83.062v27.664c0 24.039-19.562 43.601-43.609 43.601h-151.218c-24.039 0-43.601-19.562-43.601-43.601v-27.664h-108.273c-6.797 0-12.687 3.602-15.758 9.633-3.125 6.148-2.555 13.172 1.539 18.781 74.211 101.953 224.905 165.031 366.421 153.414 27.391-2.25 43.844-23.57 61.523-57.234 1.352-2.578 2.727-5.305 4.062-8.102 3.578-7.461 12.531-10.609 19.984-7.023 7.461 3.578 10.609 12.523 7.031 19.984-1.5 3.117-3.031 6.172-4.555 9.070-12.68 24.156-36.289 69.117-85.593 73.164-70.547 5.797-147.437-6.227-216.523-33.859-74.429-29.773-135.492-75.343-176.578-131.781-10.695-14.687-12.234-33.851-4.016-50 8.164-16.047 24.437-26.008 42.461-26.008h429.764c13.844 0 26.984 5.992 36.062 16.453 9.055 10.437 13.133 24.258 11.195 37.93-1.633 11.477-4.141 23.75-7.453 36.476zM647.818 407.828h-178.499v27.664c0 7.516 6.117 13.641 13.641 13.641h151.218c7.523 0 13.641-6.125 13.641-13.641zM749.349 359c-26.391 0-47.859-21.469-47.859-47.859s21.469-47.859 47.859-47.859c26.391 0 47.859 21.469 47.859 47.859s-21.469 47.859-47.859 47.859zM749.349 293.243c-9.867 0-17.898 8.031-17.898 17.898s8.031 17.898 17.898 17.898c9.867 0 17.898-8.031 17.898-17.898s-8.031-17.898-17.898-17.898z" />
<glyph unicode="&#xe91f;" glyph-name="shipped" d="M952.316 497.274l-26.518 106.070c7.25 1.54 12.69 7.972 12.69 15.678v17.102c0 37.132-30.21 67.34-67.34 67.34h-120.784v35.276c0 18.272-14.864 33.136-33.136 33.136h-615.684c-18.272 0-33.136-14.864-33.136-33.136v-290.74c0-8.854 7.178-16.034 16.034-16.034 8.854 0 16.034 7.178 16.034 16.034v290.74c0 0.59 0.478 1.068 1.068 1.068h615.682c0.59 0 1.068-0.478 1.068-1.068v-290.744c0-8.854 7.178-16.034 16.034-16.034 8.854 0 16.034 7.178 16.034 16.034v18.176h189.138c0.016 0 0.028-0.004 0.042-0.004 0.016 0 0.030 0.002 0.044 0.002 23.274-0.016 43.036-15.292 49.824-36.342h-49.856c-8.854 0-16.034-7.178-16.034-16.034v-34.204c0-27.702 22.536-50.238 50.238-50.238h18.172v-70.546h-41.924c-13.772 39.766-51.574 68.41-95.964 68.41s-82.194-28.644-95.964-68.41h-7.72v120.786c0 8.854-7.178 16.034-16.034 16.034-8.854 0-16.034-7.178-16.034-16.034v-120.782h-332.656c-13.772 39.766-51.574 68.41-95.964 68.41s-82.194-28.644-95.964-68.41h-92.162c-0.59 0-1.068 0.478-1.068 1.068v35.274h69.478c8.854 0 16.034 7.178 16.034 16.034s-7.178 16.034-16.034 16.034h-153.92c-8.854 0-16.034-7.178-16.034-16.034s7.178-16.034 16.034-16.034h52.376v-35.274c0-18.272 14.864-33.136 33.136-33.136h86.608c-0.004-0.356-0.028-0.71-0.028-1.068 0-55.992 45.554-101.544 101.544-101.544s101.544 45.552 101.544 101.544c0 0.36-0.024 0.712-0.028 1.068h361.34c-0.004-0.356-0.028-0.71-0.028-1.068 0-55.992 45.554-101.544 101.544-101.544s101.544 45.552 101.544 101.544c0 0.36-0.024 0.712-0.028 1.068h52.406c8.854 0 16.034 7.178 16.034 16.034v171.022c0.002 42.224-31.152 77.306-71.682 83.476zM750.364 671.398h120.784c19.45 0 35.274-15.824 35.274-35.274v-1.068h-156.058v36.342zM750.364 498.238v104.752h142.47l26.188-104.752h-168.658zM289.67 156.192c-38.31 0-69.478 31.166-69.478 69.478s31.168 69.478 69.478 69.478c38.31 0 69.478-31.166 69.478-69.478s-31.168-69.478-69.478-69.478zM854.046 156.192c-38.31 0-69.478 31.166-69.478 69.478s31.168 69.478 69.478 69.478c38.31 0 69.478-31.166 69.478-69.478s-31.168-69.478-69.478-69.478zM991.934 361.42h-18.172c-10.020 0-18.172 8.152-18.172 18.172v18.172h36.342v-36.344zM289.67 258.806c-18.272 0-33.136-14.864-33.136-33.136s14.864-33.136 33.136-33.136c18.272 0 33.136 14.864 33.136 33.136s-14.864 33.136-33.136 33.136zM854.046 258.806c-18.272 0-33.136-14.864-33.136-33.136s14.864-33.136 33.136-33.136c18.272 0 33.136 14.864 33.136 33.136s-14.864 33.136-33.136 33.136zM665.92 327.214h-239.432c-8.854 0-16.034-7.178-16.034-16.034s7.178-16.034 16.034-16.034h239.432c8.854 0 16.034 7.178 16.034 16.034s-7.178 16.034-16.034 16.034zM255.466 395.624h-205.228c-8.854 0-16.034-7.178-16.034-16.034s7.178-16.034 16.034-16.034h205.228c8.854 0 16.034 7.178 16.034 16.034s-7.18 16.034-16.034 16.034zM557.542 613.26c-6.26 6.26-16.414 6.26-22.674-0.002l-142.584-142.582-74.174 74.174c-6.262 6.262-16.414 6.262-22.674 0-6.262-6.262-6.262-16.412 0-22.674l85.512-85.512c3.13-3.132 7.234-4.696 11.336-4.696s8.208 1.564 11.336 4.696l153.92 153.92c6.262 6.264 6.262 16.414 0.002 22.676z" />
<glyph unicode="&#xe920;" glyph-name="resume" d="M828.014 662.5c11.044 0 20 8.954 20 20v217.5c0 33.084-26.916 60-60 60h-728c-33.084 0-60-26.916-60-60v-904c0-33.084 26.916-60 60-60h728c33.084 0 60 26.916 60 60v147.344c0 11.046-8.956 20-20 20s-20-8.954-20-20v-147.344c0-11.028-8.972-20-20-20h-728c-11.028 0-20 8.972-20 20v904c0 11.028 8.972 20 20 20h728c11.028 0 20-8.972 20-20v-217.5c0-11.046 8.956-20 20-20zM424.014 852c-101.458 0-184-82.542-184-184 0-52.634 22.22-100.17 57.764-133.738 0.666-0.712 1.374-1.386 2.148-2 32.742-29.958 76.316-48.26 124.086-48.26s91.344 18.304 124.086 48.26c0.774 0.614 1.482 1.29 2.148 2 35.548 33.568 57.768 81.104 57.768 133.738 0 101.458-82.542 184-184 184zM424.014 524c-32.658 0-62.798 10.944-86.982 29.336 17.578 31.17 50.38 50.664 86.982 50.664s69.404-19.494 86.982-50.664c-24.186-18.392-54.324-29.336-86.982-29.336zM392.014 676v13c0 17.644 14.356 32 32 32s32-14.356 32-32v-13c0-17.644-14.356-32-32-32s-32 14.356-32 32zM539.894 582.634c-14.75 21.876-35.192 38.89-58.926 49.394 9.42 12.174 15.046 27.424 15.046 43.972v13c0 39.702-32.298 72-72 72s-72-32.298-72-72v-13c0-16.548 5.626-31.798 15.046-43.972-23.734-10.504-44.176-27.518-58.926-49.394-17.658 23.906-28.12 53.432-28.12 85.366 0 79.402 64.598 144 144 144s144-64.598 144-144c0-31.934-10.462-61.46-28.12-85.366zM532.014 84h-108c-11.044 0-20-8.954-20-20s8.956-20 20-20h108c11.044 0 20 8.954 20 20s-8.956 20-20 20zM532.014 196h-284c-11.044 0-20-8.954-20-20s8.956-20 20-20h284c11.044 0 20 8.954 20 20s-8.956 20-20 20zM532.014 308h-284c-11.044 0-20-8.954-20-20s8.956-20 20-20h284c11.044 0 20 8.954 20 20s-8.956 20-20 20zM176.732 414.14c-3.718 3.72-8.878 5.86-14.158 5.86-5.262 0-10.422-2.14-14.14-5.86-3.72-3.72-5.86-8.88-5.86-14.14s2.138-10.42 5.86-14.14c3.74-3.72 8.878-5.86 14.14-5.86 5.28 0 10.42 2.14 14.158 5.86 3.72 3.72 5.862 8.88 5.862 14.14s-2.14 10.42-5.862 14.14zM176.732 302.14c-3.738 3.72-8.878 5.86-14.158 5.86-5.262 0-10.4-2.14-14.14-5.86-3.72-3.72-5.86-8.88-5.86-14.14s2.138-10.42 5.86-14.14c3.74-3.72 8.878-5.86 14.14-5.86 5.28 0 10.42 2.14 14.158 5.86 3.72 3.72 5.862 8.88 5.862 14.14s-2.14 10.42-5.862 14.14zM176.732 190.14c-3.738 3.72-8.878 5.86-14.158 5.86-5.262 0-10.4-2.14-14.14-5.86-3.72-3.72-5.86-8.88-5.86-14.14s2.138-10.42 5.86-14.14c3.718-3.72 8.878-5.86 14.14-5.86 5.28 0 10.44 2.14 14.158 5.86 3.72 3.72 5.862 8.88 5.862 14.14s-2.14 10.42-5.862 14.14zM532.014 420h-284c-11.044 0-20-8.954-20-20s8.956-20 20-20h284c11.044 0 20 8.954 20 20s-8.956 20-20 20zM982.004 699.36c-19.43 11.218-42.066 14.198-63.742 8.392-21.672-5.808-39.788-19.708-51.004-39.138l-251.684-435.926c-1.378-2.39-2.25-5.040-2.556-7.782l-17.716-158.688c-0.88-7.896 2.996-15.566 9.876-19.54 3.106-1.792 6.556-2.68 9.998-2.68 4.184 0 8.352 1.31 11.862 3.896l128.568 94.688c2.222 1.636 4.082 3.714 5.46 6.104l251.682 435.926c23.16 40.112 9.368 91.588-30.744 114.748zM640.126 107.212l9.252 82.864 57.884-33.42-67.136-49.444zM736.426 186.008l-76.21 44 201.97 349.82 76.21-44-201.97-349.82zM978.108 604.614l-19.714-34.146-76.21 44 19.714 34.146c5.876 10.178 15.364 17.458 26.716 20.5 11.356 3.044 23.212 1.48 33.388-4.396 10.178-5.876 17.458-15.364 20.5-26.716s1.482-23.21-4.394-33.388z" />
<glyph unicode="&#xe921;" glyph-name="recommended" d="M784.654 507.858c0 32.418-26.372 58.788-58.79 58.788h-108.044c26.25 29.506 43.406 63.104 46.72 93.246 2.024 18.41-3.664 36.684-15.61 50.138-10.918 12.298-25.848 19.152-42.040 19.302-0.188 0.002-0.376 0.002-0.562 0.002-15.662 0-30.362-6.032-41.456-17.024-11.096-10.994-17.236-25.64-17.308-41.27-0.57-3.422-6.59-15.22-21.32-29.228-12.060-11.472-32.892-27.242-63.65-37.228-12.060-3.916-23.082-11.126-32.758-21.43-5.078-5.404-12.682-12.868-22.096-20.36-4.62 2.448-9.874 3.848-15.456 3.848h-102.614c-18.272 0-33.136-14.864-33.136-33.136v-273.636c0-18.272 14.864-33.136 33.136-33.136h102.614c12.456 0 23.318 6.916 28.978 17.102h261.846c27.702 0 50.238 22.536 50.238 50.238 0 9.314-2.546 18.042-6.982 25.53 14.434 8.836 24.084 24.752 24.084 42.88 0 9.314-2.546 18.042-6.982 25.53 14.434 8.836 24.084 24.752 24.084 42.88 0 10.484-3.228 20.228-8.742 28.292 15.586 10.586 25.846 28.454 25.846 48.672zM725.864 481.136h-8.552c-8.854 0-16.034-7.178-16.034-16.034 0-8.854 7.178-16.034 16.034-16.034 10.020 0 18.172-8.152 18.172-18.172s-8.152-18.172-18.172-18.172h-17.102c-8.854 0-16.034-7.178-16.034-16.034 0-8.854 7.178-16.034 16.034-16.034 10.020 0 18.172-8.152 18.172-18.172s-8.152-18.172-18.172-18.172h-17.102c-8.854 0-16.034-7.178-16.034-16.034 0-8.854 7.178-16.034 16.034-16.034 10.020 0 18.172-8.152 18.172-18.172s-8.152-18.172-18.172-18.172h-257.688v154.99c0 8.854-7.178 16.034-16.034 16.034s-16.034-7.178-16.034-16.034v-171.022c0-0.59-0.478-1.068-1.068-1.068h-102.614c-0.59 0-1.068 0.478-1.068 1.068v273.644c0 0.59 0.478 1.068 1.068 1.068h102.614c0.59 0 1.068-0.478 1.068-1.068v-34.206c0-8.854 7.178-16.034 16.034-16.034s16.034 7.178 16.034 16.034v34.206c0 0.778-0.064 1.54-0.118 2.304 12.022 9.306 21.636 18.714 27.908 25.39 5.934 6.322 12.422 10.654 19.284 12.88 37.74 12.252 63.138 31.98 77.796 46.372 18.372 18.038 29.338 36.842 29.338 50.304 0 7.112 2.774 13.778 7.812 18.77 5.1 5.054 11.854 7.724 19.152 7.734 8.988-0.084 14.94-4.682 18.354-8.526 5.852-6.59 8.732-16.066 7.714-25.344-3.502-31.858-28.98-71.238-64.908-100.322-5.278-4.274-7.292-11.41-5.026-17.812s8.322-10.682 15.114-10.682h148.020c14.736 0 26.722-11.986 26.722-26.722s-11.984-26.722-26.718-26.722zM340.978 327.388c-8.854 0-16.118-7.264-16.118-16.118s7.264-16.118 16.118-16.118c8.854 0 16.118 7.264 16.118 16.118 0.002 8.852-7.262 16.118-16.118 16.118zM995.42 448l27.544 72.886c2.006 5.302 1.060 11.268-2.486 15.694l-48.718 60.808 3.672 77.83c0.268 5.66-2.476 11.046-7.212 14.156l-65.124 42.778-20.556 75.156c-1.496 5.468-5.768 9.74-11.234 11.234l-75.156 20.556-42.778 65.122c-3.112 4.738-8.496 7.47-14.156 7.212l-77.83-3.672-60.808 48.718c-4.424 3.544-10.39 4.49-15.694 2.486l-72.886-27.544-72.882 27.542c-5.306 2.006-11.27 1.060-15.694-2.486l-60.808-48.718-77.83 3.672c-5.688 0.268-11.046-2.476-14.156-7.212l-42.776-65.124-75.156-20.556c-5.468-1.496-9.74-5.768-11.234-11.234l-20.556-75.156-65.124-42.776c-4.738-3.112-7.48-8.496-7.212-14.156l3.672-77.83-48.718-60.808c-3.544-4.424-4.49-10.39-2.486-15.694l27.542-72.884-27.544-72.884c-2.006-5.302-1.060-11.268 2.486-15.694l48.718-60.808-3.672-77.83c-0.268-5.66 2.476-11.046 7.212-14.156l65.124-42.778 20.556-75.156c1.496-5.468 5.768-9.74 11.234-11.234l75.156-20.556 42.776-65.124c3.112-4.738 8.506-7.462 14.156-7.212l77.83 3.672 60.808-48.718c4.424-3.546 10.392-4.492 15.694-2.486l72.886 27.544 72.886-27.544c1.84-0.694 3.758-1.034 5.666-1.034 3.592 0 7.138 1.206 10.026 3.52l60.808 48.718 77.83-3.672c5.678-0.252 11.044 2.476 14.156 7.212l42.778 65.124 75.156 20.556c5.468 1.496 9.74 5.768 11.234 11.234l20.556 75.156 65.124 42.778c4.738 3.112 7.48 8.496 7.212 14.156l-3.672 77.83 48.718 60.808c3.544 4.424 4.49 10.39 2.486 15.694l-27.544 72.884zM963.282 442.332l26.452-69.998-46.788-58.398c-2.442-3.046-3.688-6.88-3.504-10.78l3.528-74.746-62.542-41.082c-3.262-2.142-5.634-5.404-6.664-9.172l-19.742-72.178-72.178-19.742c-3.766-1.030-7.026-3.4-9.172-6.664l-41.082-62.542-74.746 3.528c-3.902 0.18-7.734-1.062-10.78-3.504l-58.398-46.788-69.998 26.452c-1.826 0.69-3.748 1.034-5.668 1.034s-3.842-0.346-5.668-1.034l-69.998-26.452-58.398 46.788c-3.046 2.442-6.886 3.684-10.78 3.504l-74.746-3.528-41.082 62.542c-2.142 3.262-5.404 5.634-9.172 6.664l-72.178 19.742-19.742 72.178c-1.030 3.766-3.4 7.026-6.664 9.172l-62.542 41.082 3.528 74.746c0.184 3.902-1.062 7.734-3.504 10.78l-46.788 58.398 26.454 69.998c1.38 3.652 1.38 7.684 0 11.336l-26.454 69.998 46.788 58.398c2.442 3.046 3.688 6.88 3.504 10.78l-3.528 74.746 62.542 41.082c3.262 2.142 5.634 5.404 6.664 9.172l19.742 72.178 72.178 19.742c3.766 1.030 7.026 3.4 9.172 6.664l41.082 62.542 74.746-3.528c3.896-0.182 7.734 1.062 10.78 3.504l58.398 46.788 69.998-26.454c3.654-1.38 7.684-1.38 11.336 0l69.998 26.454 58.398-46.788c3.046-2.444 6.882-3.688 10.78-3.504l74.746 3.528 41.082-62.542c2.142-3.262 5.404-5.634 9.172-6.664l72.178-19.742 19.742-72.178c1.030-3.766 3.4-7.026 6.664-9.172l62.542-41.082-3.528-74.746c-0.184-3.902 1.062-7.734 3.504-10.78l46.788-58.398-26.454-69.998c-1.378-3.654-1.378-7.684 0.002-11.336zM813.268 724.852c-3.99 4.344-8.128 8.664-12.306 12.84s-8.496 8.316-12.84 12.306c-6.522 5.988-16.664 5.556-22.654-0.968-5.988-6.522-5.556-16.666 0.968-22.654 4.006-3.68 7.994-7.5 11.85-11.356 3.854-3.854 7.676-7.844 11.358-11.852 3.162-3.444 7.482-5.19 11.816-5.19 3.874 0 7.76 1.396 10.838 4.222 6.524 5.986 6.958 16.13 0.97 22.652zM731.184 793.75c-77.32 49.26-170.412 71.152-262.118 61.658-93.050-9.64-180.79-51.444-247.062-117.714-72.934-72.934-115.398-169.822-119.57-272.816-4.146-102.388 29.766-201.796 95.492-279.908 3.17-3.768 7.706-5.71 12.278-5.71 3.644 0 7.308 1.236 10.314 3.764 6.774 5.702 7.646 15.816 1.946 22.59-60.562 71.978-91.81 163.59-87.99 257.964 3.844 94.924 42.98 184.22 110.202 251.44 61.080 61.082 141.944 99.612 227.692 108.494 84.55 8.76 170.342-11.418 241.584-56.806 7.47-4.758 17.378-2.562 22.136 4.906 4.76 7.47 2.562 17.38-4.904 22.138zM857.022 667.914c-4.758 7.47-14.674 9.666-22.138 4.908-7.47-4.758-9.664-14.67-4.906-22.136 45.388-71.244 65.562-157.040 56.806-241.584-8.882-85.748-47.412-166.61-108.492-227.694-67.222-67.22-156.518-106.358-251.44-110.202-94.358-3.836-185.988 27.426-257.964 87.986-6.774 5.702-16.888 4.83-22.59-1.946-5.702-6.774-4.83-16.888 1.946-22.59 73.842-62.13 166.702-95.834 263.132-95.832 5.578 0 11.178 0.114 16.778 0.34 102.994 4.17 199.88 46.634 272.816 119.568 66.272 66.272 108.078 154.014 117.714 247.064 9.496 91.712-12.402 184.8-61.662 262.118z" />
<glyph unicode="&#xe922;" glyph-name="debit-card" d="M853.333 779.196v95.471c-0.060 47.104-38.229 85.274-85.333 85.333h-682.667c-47.104-0.060-85.274-38.229-85.333-85.333v-375.467c0.132-43.584 33.169-80.034 76.527-84.454l64.154-166.532c16.947-43.972 66.33-65.877 110.306-48.951l400.619 154.325c-27.682-72.307-19.806-153.421 21.257-219.055l9.805-15.68v-165.786c0-9.429 7.637-17.067 17.067-17.067h307.2c9.429 0 17.067 7.637 17.067 17.067v563.349c-0.162 59.021-23.659 115.571-65.387 157.312zM853.333 677.129l51.797-134.46c10.15-26.394-3.004-56.009-29.393-66.167l-29.606-11.435c4.727 10.761 7.177 22.391 7.202 34.133zM34.133 499.2v375.467c0 28.271 22.929 51.2 51.2 51.2h682.667c28.271 0 51.2-22.929 51.2-51.2v-108.476h-0.149l0.149-0.388v-266.603c-0.132-2.978-0.521-5.931-1.161-8.841l-156.331 156.348c-35.14 34.33-91.162 34.594-126.618 0.623-35.465-33.993-37.594-89.971-4.796-126.537l66.645-72.794h-511.607c-28.271 0-51.2 22.929-51.2 51.2zM252.774 413.867l-121.361-46.724-17.954 46.724zM238.711 231.121c-26.385-10.172-56.017 2.982-66.185 29.367l-28.791 74.871 203.725 78.609h280.764l22.182-24.183zM989.867-29.867h-273.067v136.533h273.067zM989.867 140.8h-280.661l-7.403 11.827c-41.613 66.5-43.268 150.494-4.322 218.573 3.686 6.443 2.782 14.532-2.236 20.002l-139.857 152.576c-20.855 22.827-19.682 58.116 2.645 79.497 22.336 21.385 57.643 21.035 79.539-0.777l271.962-271.898 24.132 24.132-63.147 63.147 17.51 6.827c43.938 16.951 65.835 66.291 48.93 110.255l-57.766 149.999 55.287-55.403c35.328-35.319 55.249-83.183 55.386-133.141zM194.56 721.067c24.508 0 44.373 19.866 44.373 44.373v81.92c0 24.508-19.866 44.373-44.373 44.373h-81.92c-24.508 0-44.373-19.866-44.373-44.373v-81.92c0-24.508 19.866-44.373 44.373-44.373zM102.4 765.44v23.893h34.133v34.133h-34.133v23.893c0 5.653 4.587 10.24 10.24 10.24h81.92c5.653 0 10.24-4.587 10.24-10.24v-23.893h-34.133v-34.133h34.133v-23.893c0-5.653-4.587-10.24-10.24-10.24h-81.92c-5.653 0-10.24 4.587-10.24 10.24zM85.333 669.867h68.267v-34.133h-68.267zM85.333 567.467h68.267v-34.133h-68.267zM392.533 567.467h68.267v-34.133h-68.267zM187.733 669.867h68.267v-34.133h-68.267zM290.133 669.867h68.267v-34.133h-68.267zM392.533 669.867h68.267v-34.133h-68.267zM716.8 874.667h34.133v-51.2h-34.133zM648.533 874.667h34.133v-51.2h-34.133zM580.267 874.667h34.133v-51.2h-34.133zM512 874.667h34.133v-51.2h-34.133zM750.933 72.533h34.133v-34.133h-34.133z" />
<glyph unicode="&#xe923;" glyph-name="mius" horiz-adv-x="768" d="M752 496h-736c-8.84 0-16-7.16-16-16v-64c0-8.84 7.16-16 16-16h736c8.84 0 16 7.16 16 16v64c0 8.84-7.16 16-16 16z" />
<glyph unicode="&#xe924;" glyph-name="plus" horiz-adv-x="768" d="M752 496h-320v320c0 8.84-7.16 16-16 16h-64c-8.84 0-16-7.16-16-16v-320h-320c-8.84 0-16-7.16-16-16v-64c0-8.84 7.16-16 16-16h320v-320c0-8.84 7.16-16 16-16h64c8.84 0 16 7.16 16 16v320h320c8.84 0 16 7.16 16 16v64c0 8.84-7.16 16-16 16z" />
<glyph unicode="&#xe925;" glyph-name="user" horiz-adv-x="896" d="M627.2 384c-57.4 0-85-32-179.2-32s-121.6 32-179.2 32c-148.4 0-268.8-120.4-268.8-268.8v-83.2c0-53 43-96 96-96h704c53 0 96 43 96 96v83.2c0 148.4-120.4 268.8-268.8 268.8zM832 32c0-17.6-14.4-32-32-32h-704c-17.6 0-32 14.4-32 32v83.2c0 113 91.8 204.8 204.8 204.8 39.2 0 78.2-32 179.2-32 100.8 0 140 32 179.2 32 113 0 204.8-91.8 204.8-204.8v-83.2zM448 448c141.4 0 256 114.6 256 256s-114.6 256-256 256-256-114.6-256-256 114.6-256 256-256zM448 896c105.8 0 192-86.2 192-192s-86.2-192-192-192-192 86.2-192 192 86.2 192 192 192z" />
<glyph unicode="&#xe926;" glyph-name="bag" horiz-adv-x="896" d="M704 704c0 141.158-114.842 256-256 256-141.16 0-256-114.842-256-256h-192v-608c0-88.366 71.634-160 160-160h576c88.366 0 160 71.634 160 160v608h-192zM448 896c105.87 0 192-86.13 192-192h-384c0 105.87 86.13 192 192 192zM832 96c0-52.934-43.066-96-96-96h-576c-52.934 0-96 43.066-96 96v544h128v-96c0-17.674 14.328-32 32-32s32 14.326 32 32v96h384v-96c0-17.674 14.326-32 32-32s32 14.326 32 32v96h128v-544z" />
<glyph unicode="&#xe927;" glyph-name="double-right" d="M955 414l-388.8-388.6c-18.8-18.8-49.2-18.8-67.8 0l-45.4 45.4c-18.8 18.8-18.8 49 0 67.8l308 309.4-308 309.4c-18.6 18.8-18.6 49 0 67.8l45.4 45.4c18.8 18.8 49.2 18.8 67.8 0l388.8-388.6c18.6-18.8 18.6-49.2 0-68zM571 482l-388.8 388.6c-18.8 18.8-49.2 18.8-67.8 0l-45.4-45.4c-18.8-18.8-18.8-49 0-67.8l308-309.4-308-309.4c-18.6-18.8-18.6-49 0-67.8l45.4-45.4c18.8-18.8 49.2-18.8 67.8 0l388.8 388.6c18.6 18.8 18.6 49.2 0 68z" />
<glyph unicode="&#xe928;" glyph-name="double-left" d="M69 482l388.8 388.6c18.8 18.8 49.2 18.8 67.8 0l45.4-45.4c18.8-18.8 18.8-49 0-67.8l-308-309.4 308-309.4c18.6-18.8 18.6-49 0-67.8l-45.4-45.4c-18.8-18.8-49.2-18.8-67.8 0l-388.8 388.6c-18.6 18.8-18.6 49.2 0 68zM453 414l388.6-388.6c18.8-18.8 49.2-18.8 67.8 0l45.4 45.4c18.8 18.8 18.8 49 0 67.8l-307.8 309.4 308 309.4c18.6 18.8 18.6 49 0 67.8l-45.4 45.4c-18.8 18.8-49.2 18.8-67.8 0l-388.8-388.6c-18.6-18.8-18.6-49.2 0-68z" />
<glyph unicode="&#xe929;" glyph-name="info-circle" d="M512 880c237.242 0 432-192.15 432-432 0-238.582-193.22-432-432-432-238.488 0-432 193.124-432 432 0 238.406 193.204 432 432 432zM512 944c-273.914 0-496-222.166-496-496 0-273.994 222.086-496 496-496s496 222.006 496 496c0 273.834-222.086 496-496 496zM440 256h24v240h-24c-13.254 0-24 10.746-24 24v16c0 13.254 10.746 24 24 24h96c13.254 0 24-10.746 24-24v-280h24c13.254 0 24-10.746 24-24v-16c0-13.254-10.746-24-24-24h-144c-13.254 0-24 10.746-24 24v16c0 13.254 10.746 24 24 24zM512 736c-35.346 0-64-28.654-64-64s28.654-64 64-64 64 28.654 64 64-28.654 64-64 64z" />
<glyph unicode="&#xeaca;" glyph-name="linkedin" d="M365.714 630.857h202.407v-103.751h2.894c28.16 50.507 97.095 103.751 199.819 103.751 213.653 0 253.166-133.001 253.166-305.982v-352.304h-210.983v312.318c0 74.496-1.525 170.315-109.746 170.315-109.883 0-126.651-81.127-126.651-164.905v-317.728h-210.905v658.286zM0 630.857h219.429v-658.286h-219.429v658.286zM219.429 813.714c0-60.593-49.121-109.714-109.714-109.714s-109.714 49.121-109.714 109.714c0 60.593 49.121 109.714 109.714 109.714s109.714-49.121 109.714-109.714z" />
</font>
</defs>
</svg>
